osu file format v14

[General]
AudioFilename: audio.mp3
AudioLeadIn: 0
PreviewTime: 15
Countdown: 0
SampleSet: Normal
StackLeniency: 0.2
Mode: 1
LetterboxInBreaks: 0
WidescreenStoryboard: 0

[Editor]
Bookmarks: 146730,157389,228715,267383,288717,299383,320717,330050
DistanceSpacing: 1
BeatDivisor: 8
GridSize: 32
TimelineZoom: 1.9

[Metadata]
Title:Ballistic Bunny (feat. Kommisar)
TitleUnicode:Ballistic Bunny (feat. Kommisar)
Artist:Aquellex
ArtistUnicode:Aquellex
Creator:Alchyr
Version:Lesser Lunacy
Source:
Tags:drum and bass dnb game boy gabber chiptune electronic instrumental hardcore speedcore LSDJ
BeatmapID:3015099
BeatmapSetID:1079067

[Difficulty]
HPDrainRate:4
CircleSize:2
OverallDifficulty:6.6
ApproachRate:10
SliderMultiplier:1.4
SliderTickRate:1

[Events]
//Background and Video events
0,0,"bg.jpg",0,85
//Break Periods
//Storyboard Layer 0 (Background)
//Storyboard Layer 1 (Fail)
//Storyboard Layer 2 (Pass)
//Storyboard Layer 3 (Foreground)
//Storyboard Layer 4 (Overlay)
//Storyboard Sound Samples

[TimingPoints]
72,333.333333333333,4,1,0,50,1,0
72,-120.481927710843,4,1,0,50,0,0
5030,-76.9230769230769,4,1,0,70,0,0
5238,-87.719298245614,4,1,0,70,0,0
71405,-66.6666666666667,4,1,0,70,0,0
72071,-87.719298245614,4,1,0,70,0,0
96738,-76.9230769230769,4,1,0,70,0,0
97405,-87.719298245614,4,1,0,70,0,0
102071,-66.6666666666667,4,1,0,70,0,0
102738,-100,4,1,0,70,0,0
124071,-87.719298245614,4,1,0,70,0,0
134071,-66.6666666666667,4,1,0,70,0,0
134738,-87.719298245614,4,1,0,70,0,0
145405,-68.9655172413793,4,1,0,70,0,0
145738,-76.9230769230769,4,1,0,70,0,0
146071,-86.9565217391304,4,1,0,70,0,0
146405,-100,4,1,0,70,0,0
146738,-76.9230769230769,4,1,0,70,0,0
147238,-100,4,1,0,70,0,0
148071,-76.9230769230769,4,1,0,70,0,0
149571,-100,4,1,0,70,0,0
150738,-76.9230769230769,4,1,0,70,0,0
152071,-81.3008130081301,4,1,0,70,0,0
152363,-90.0900900900901,4,1,0,70,0,0
152738,-100,4,1,0,70,0,0
153405,-76.9230769230769,4,1,0,70,0,0
154905,-100,4,1,0,70,0,0
156071,-76.9230769230769,4,1,0,70,0,0
157071,-78.7401574803149,4,1,0,70,0,0
157155,-80,4,1,0,70,0,0
157405,-100,4,1,0,70,0,0
169071,-76.9230769230769,4,1,0,70,0,0
169405,-87.719298245614,4,1,0,70,0,0
188070,-87.698514321267,4,1,0,70,0,0
188072,-87.719298245614,4,1,0,70,0,0
188238,359.281437125748,4,1,0,70,1,8
188238,-84.7140110997167,4,1,0,70,0,0
188326,-86.6079088652814,4,1,0,70,0,0
188417,377.358490566038,4,1,0,70,1,8
188510,-86.4257251231844,4,1,0,70,0,0
188605,397.350993377483,4,1,0,70,1,8
188605,-84.1235659920011,4,1,0,70,0,0
188802,-88.7127432814709,4,1,0,70,0,0
189002,419.58041958042,4,1,0,70,1,8
189002,-88.7503631697061,4,1,0,70,0,0
189105,-91.3754152130536,4,1,0,70,0,0
189315,-96.9848921800486,4,1,0,70,0,0
189421,444.444444444444,4,1,0,70,1,8
189421,-94.3490919214508,4,1,0,70,0,0
189643,468.75,4,1,0,70,1,0
189643,-95.3237699826964,4,1,0,70,0,0
189876,-101.852462634829,4,1,0,70,0,0
189993,-105.216286431672,4,1,0,70,0,0
190228,508.474576271186,4,1,0,70,1,8
190228,-103.29207471276,4,1,0,70,0,0
190354,-106.70835112271,4,1,0,70,0,0
190609,526.315789473684,4,1,0,70,1,8
190609,-109.518036221523,4,1,0,70,0,0
190739,-112.653424274335,4,1,0,70,0,0
190872,560.747663551402,4,1,0,70,1,8
190872,-108.52175194164,4,1,0,70,0,0
191012,600,4,1,0,70,1,8
191012,-103.945233803436,4,1,0,70,0,0
191162,631.578947368421,4,1,0,70,1,8
191162,-100.996285706511,4,1,0,70,0,0
191239,-102.013657403051,4,1,0,70,0,0
191318,-102.926881332575,4,1,0,70,0,0
191397,-103.714244945105,4,1,0,70,0,0
191476,-104.368689887258,4,1,0,70,0,0
191555,-104.884209437786,4,1,0,70,0,0
191634,-105.255981716556,4,1,0,70,0,0
191793,666.666666666667,4,1,0,70,1,0
191793,-100,4,1,0,70,0,0
191958,-98.7401736869778,4,1,0,70,0,0
192125,-97.5026797577928,4,1,0,70,0,0
192292,-96.2941471513314,4,1,0,70,0,0
192458,-95.1205601181935,4,1,0,70,0,0
192625,-93.9668257814431,4,1,0,70,0,0
192792,-92.8391817794805,4,1,0,70,0,0
192958,-91.7432820656719,4,1,0,70,0,0
193125,-90.6650916562607,4,1,0,70,0,0
193292,-89.6104878743893,4,1,0,70,0,0
193458,-88.5848179997743,4,1,0,70,0,0
193625,-87.5749962149117,4,1,0,70,0,0
193792,-86.5865677272284,4,1,0,70,0,0
193958,-85.6245950428235,4,1,0,70,0,0
194125,-84.6768473281099,4,1,0,70,0,0
194292,-83.7485633134801,4,1,0,70,0,0
194459,638.297872340426,4,1,0,70,1,0
194459,-86.5265200966147,4,1,0,70,0,0
194617,-85.6398549558528,4,1,0,70,0,0
194777,-84.7646097312898,4,1,0,70,0,0
194936,-83.9112481696908,4,1,0,70,0,0
195096,-83.0685732898685,4,1,0,70,0,0
195255,-82.2466764835985,4,1,0,70,0,0
195415,-81.4347900052377,4,1,0,70,0,0
195575,-80.6377155000284,4,1,0,70,0,0
195735,600,4,1,0,70,1,8
195735,-84.9573427962082,4,1,0,70,0,0
195884,-84.1902320370477,4,1,0,70,0,0
196034,-83.4359089118431,4,1,0,70,0,0
196184,-82.6940568955859,4,1,0,70,0,0
196334,-81.9643698240965,4,1,0,70,0,0
196484,-81.2465514735369,4,1,0,70,0,0
196634,-80.5403151602391,4,1,0,70,0,0
196784,-79.8453833597089,4,1,0,70,0,0
196935,571.428571428571,4,1,0,70,1,0
196935,-83.1195586832966,4,1,0,70,0,0
197076,-82.4501956718857,4,1,0,70,0,0
197219,-81.7861380288389,4,1,0,70,0,0
197362,-81.1319124345758,4,1,0,70,0,0
197505,-80.487302595242,4,1,0,70,0,0
197648,-79.8520985150608,4,1,0,70,0,0
197791,-79.2260962687539,4,1,0,70,0,0
197934,-78.6090977837592,4,1,0,70,0,0
198077,555.555555555556,4,1,0,70,1,8
198077,-80.2338543405741,4,1,0,70,0,0
198214,-79.6385170162762,4,1,0,70,0,0
198353,-79.0470478155717,4,1,0,70,0,0
198492,-78.4636235804177,4,1,0,70,0,0
198770,-77.320263805695,4,1,0,70,0,0
198909,-76.760015907219,4,1,0,70,0,0
199048,-76.2071879726774,4,1,0,70,0,0
199188,545.454545454546,4,1,0,70,1,0
199188,-77.0627739776877,4,1,0,70,0,0
199324,521.739130434783,4,1,0,70,1,8
199324,-80.0046021400048,4,1,0,70,0,0
199453,-79.4749960361041,4,1,0,70,0,0
199583,-78.9517881504057,4,1,0,70,0,0
199714,-78.4309112557488,4,1,0,70,0,0
199844,-77.9202047544214,4,1,0,70,0,0
199975,-77.4117002572887,4,1,0,70,0,0
200105,-76.9130535613861,4,1,0,70,0,0
200236,-76.4164869964341,4,1,0,70,0,0
200367,500,4,1,0,70,1,8
200491,-78.7476805492675,4,1,0,70,0,0
200616,-78.2699578338132,4,1,0,70,0,0
200741,-77.7975034987435,4,1,0,70,0,0
200866,-77.3302311277535,4,1,0,70,0,0
200991,-76.8680561842058,4,1,0,70,0,0
201116,-76.4108959602998,4,1,0,70,0,0
201242,480,4,1,0,70,1,0
201242,-79.1236109474549,4,1,0,70,0,0
201361,-78.6761430547213,4,1,0,70,0,0
201481,-78.2332640991545,4,1,0,70,0,0
201601,-77.7949040707954,4,1,0,70,0,0
201722,461.538461538462,4,1,0,70,1,8
201722,-80.4554352173177,4,1,0,70,0,0
201836,-80.027250281764,4,1,0,70,0,0
201951,-79.6031915139216,4,1,0,70,0,0
202067,-79.1795653155447,4,1,0,70,0,0
202182,-78.7636171346413,4,1,0,70,0,0
202298,444.444444444444,4,1,0,70,1,8
202298,-81.3651440937232,4,1,0,70,0,0
202408,-80.9560204470206,4,1,0,70,0,0
202519,-80.5506145888448,4,1,0,70,0,0
202631,428.571428571429,4,1,0,70,1,8
202737,-82.7193047498689,4,1,0,70,0,0
202844,-82.3246943133595,4,1,0,70,0,0
202951,-81.933481128833,4,1,0,70,0,0
203059,413.793103448276,4,1,0,70,1,0
203059,-84.4579675377001,4,1,0,70,0,0
203161,-84.0745130064459,4,1,0,70,0,0
203264,-83.694197190738,4,1,0,70,0,0
203368,-83.3133346390932,4,1,0,70,0,0
203471,-82.9392117084369,4,1,0,70,0,0
203576,400,4,1,0,70,1,8
203576,-85.4115719188186,4,1,0,70,0,0
203675,-85.0418470919017,4,1,0,70,0,0
203775,-84.6750026332424,4,1,0,70,0,0
203875,-84.3110051418129,4,1,0,70,0,0
203975,-83.9498217310183,4,1,0,70,0,0
204075,-83.5914200188303,4,1,0,70,0,0
204175,-83.2357681181473,4,1,0,70,0,0
204276,375,4,1,0,70,1,8
204368,-88.0608237706049,4,1,0,70,0,0
204462,-87.7120429692691,4,1,0,70,0,0
204556,-87.3657418060772,4,1,0,70,0,0
204651,363.636363636364,4,1,0,70,1,0
204651,-89.7413255524424,4,1,0,70,0,0
204740,-89.4041678250131,4,1,0,70,0,0
204831,-89.0655735782333,4,1,0,70,0,0
204922,-88.7292783017807,4,1,0,70,0,0
205014,352.941176470588,4,1,0,70,1,8
205014,-91.0739008517308,4,1,0,70,0,0
205101,-90.7433126317637,4,1,0,70,0,0
205189,-90.4148738898795,4,1,0,70,0,0
205277,-90.0885638190943,4,1,0,70,0,0
205365,-89.7643618801049,4,1,0,70,0,0
205454,-89.4385993299493,4,1,0,70,0,0
205543,342.857142857143,4,1,0,70,1,8
205543,-91.7397107684054,4,1,0,70,0,0
205627,-91.4235079492552,4,1,0,70,0,0
205799,-90.7896048540507,4,1,0,70,0,0
205884,-90.479239518997,4,1,0,70,0,0
205970,-90.1671516401872,4,1,0,70,0,0
206057,333.333333333333,4,1,0,70,1,0
206057,-92.4243337418865,4,1,0,70,0,0
206139,-92.1182931451423,4,1,0,70,0,0
206222,-91.8140612582768,4,1,0,70,0,0
206306,-91.5079891886694,4,1,0,70,0,0
206389,-91.2073484817645,4,1,0,70,0,0
206472,-90.9084691130008,4,1,0,70,0,0
206556,-90.6077663831138,4,1,0,70,0,0
206639,-90.3123845460073,4,1,0,70,0,0
206722,-90.0187183152114,4,1,0,70,0,0
206889,-89.4329863915251,4,1,0,70,0,0
206972,-89.1443987160856,4,1,0,70,0,0
207139,-88.5687533140622,4,1,0,70,0,0
207222,-88.285114204235,4,1,0,70,0,0
207306,-87.9997019454456,4,1,0,70,0,0
207390,333.333333333333,4,1,0,70,1,0
207390,-87.719298245614,4,1,0,70,0,0
249389,-66.6666666666667,4,1,0,70,0,0
250056,-87.719298245614,4,1,0,70,0,0
266056,-87.719298245614,4,1,0,70,0,0
266223,-88.4483218932754,4,1,0,70,0,0
266306,-88.9581760925697,4,1,0,70,0,0
266473,-90.1611362780362,4,1,0,70,0,0
266556,-90.8341008791017,4,1,0,70,0,0
266723,-92.3239698256494,4,1,0,70,0,0
266806,-93.1291569175844,4,1,0,70,0,0
266889,-93.9764724589014,4,1,0,70,0,0
266973,-94.8767876561712,4,1,0,70,0,0
267056,-95.8088861197609,4,1,0,70,0,0
267139,-96.7837155281891,4,1,0,70,0,0
267223,-97.8145247592001,4,1,0,70,0,0
267306,-98.8776995520293,4,1,0,70,0,0
267389,-100,4,1,0,70,0,0
287889,-98.0392156862745,4,1,0,70,0,0
287973,-97.0873786407767,4,1,0,70,0,0
288139,-95.2380952380952,4,1,0,70,0,0
288306,-93.4579439252336,4,1,0,70,0,0
288389,-92.5925925925926,4,1,0,70,0,0
288556,-90.0900900900901,4,1,0,70,0,0
288723,-87.719298245614,4,1,0,70,0,0
298722,-66.6666666666667,4,1,0,70,0,0
299389,-76.9230769230769,4,1,0,70,0,1
320723,-76.9230769230769,4,1,0,70,0,0
330014,-76.9230769230769,4,1,0,60,0,0
330056,-22.7272727272727,4,1,0,55,0,0
330389,-27.6496986188011,4,1,0,55,0,0
330723,-34.8022701956641,4,1,0,55,0,0
331056,-45.1564690990465,4,1,0,55,0,0
331389,-59.7638003180263,4,1,0,55,0,0
331723,-78.2624523129972,4,1,0,55,0,0
332056,-95.088341084394,4,1,0,55,0,0
332389,-22.7272727272727,4,1,0,55,0,0
332723,-25.6143300817426,4,1,0,55,0,0
333056,-29.2383606067603,4,1,0,55,0,0
333389,-33.8169351990936,4,1,0,55,0,0
333723,-39.6279807949159,4,1,0,55,0,0
334056,-46.9243387698948,4,1,0,55,0,0
334389,-55.9611356743576,4,1,0,55,0,0
334723,-66.7733713172764,4,1,0,55,0,0
335056,-78.6832911953966,4,1,0,55,0,0
335389,-90.0279710781405,4,1,0,55,0,0
335723,-98.0018304447146,4,1,0,55,0,0
336056,-22.7272727272727,4,1,0,55,0,0
336389,-24.498290627108,4,1,0,55,0,0
336723,-26.5555924993366,4,1,0,55,0,0
337056,-28.9354436437122,4,1,0,55,0,0
337389,-31.7004061485629,4,1,0,55,0,0
337723,-34.9263280266383,4,1,0,55,0,0
338056,-38.6671307206259,4,1,0,55,0,0
338389,-43.0090481328756,4,1,0,55,0,0
338723,-48.0420750375356,4,1,0,55,0,0
339056,-53.791788045438,4,1,0,55,0,0
339389,-60.2838469153784,4,1,0,55,0,0
339723,-67.4685684346681,4,1,0,55,0,0
340056,-75.0929014280029,4,1,0,55,0,0
340389,-82.7739364394562,4,1,0,55,0,0
340723,-89.904649821166,4,1,0,55,0,0
341056,-95.6354884469544,4,1,0,55,0,0
341389,-99.1662834717125,4,1,0,55,0,0
341723,-22.7272727272727,4,1,0,55,0,0
342056,-24.498290627108,4,1,0,55,0,0
342389,-26.5489664643801,4,1,0,55,0,0
342723,-28.9354436437122,4,1,0,55,0,0
343056,-31.7004061485629,4,1,0,55,0,0
343389,-34.9159214009465,4,1,0,55,0,0
343723,-38.6671307206259,4,1,0,55,0,0
344056,-43.0090481328756,4,1,0,55,0,0
344389,-48.0259291292398,4,1,0,55,0,0
344723,-53.791788045438,4,1,0,55,0,0
345056,-60.2838469153784,4,1,0,55,0,0
345389,-67.4462173701596,4,1,0,55,0,0
345723,-75.0929014280029,4,1,0,55,0,0
346056,-82.7739364394562,4,1,0,55,0,0
346389,-89.8849364277874,4,1,0,55,0,0
346723,-95.6354884469544,4,1,0,55,0,0
347056,-99.1662834717125,4,1,0,55,0,0
347389,-22.7272727272727,4,1,0,55,0,0
347723,-25.066284660354,4,1,0,55,0,0
348056,-27.8858304520781,4,1,0,55,0,0
348389,-31.3036010783941,4,1,0,55,0,0
348723,-35.4680659161965,4,1,0,55,0,0
349056,-40.5104010675965,4,1,0,55,0,0
349389,-46.6055590493763,4,1,0,55,0,0
349723,-53.9138186706859,4,1,0,55,0,0
350056,-62.4255300724028,4,1,0,55,0,0
350389,-71.9572586779951,4,1,0,55,0,0
350723,-81.9082959943082,4,1,0,55,0,0
351056,-91.0029159808499,4,1,0,55,0,0
351389,-97.5722732189739,4,1,0,55,0,0
351723,-100,4,1,0,55,0,0
353056,-22.7272727272727,4,1,0,55,0,0

[HitObjects]
64,64,72,5,0,0:0:0:0:
64,64,155,1,0,0:0:0:0:
64,64,238,1,0,0:0:0:0:
64,64,321,1,0,0:0:0:0:
320,64,405,1,8,0:0:0:0:
320,64,488,1,8,0:0:0:0:
320,64,571,1,8,0:0:0:0:
320,64,655,1,8,0:0:0:0:
64,64,738,1,0,0:0:0:0:
64,64,821,1,0,0:0:0:0:
320,64,905,1,8,0:0:0:0:
64,64,988,1,0,0:0:0:0:
320,64,1071,1,8,0:0:0:0:
320,64,1155,1,8,0:0:0:0:
64,64,1238,1,0,0:0:0:0:
320,64,1321,1,8,0:0:0:0:
64,64,1405,1,0,0:0:0:0:
64,64,1488,1,0,0:0:0:0:
64,64,1571,1,0,0:0:0:0:
64,64,1655,1,0,0:0:0:0:
320,64,1738,1,8,0:0:0:0:
320,64,1821,1,8,0:0:0:0:
320,64,1905,1,8,0:0:0:0:
320,64,1988,1,8,0:0:0:0:
64,64,2071,1,0,0:0:0:0:
64,64,2155,1,0,0:0:0:0:
320,64,2238,1,8,0:0:0:0:
64,64,2321,1,0,0:0:0:0:
320,64,2405,1,8,0:0:0:0:
64,64,2488,1,0,0:0:0:0:
320,64,2571,1,8,0:0:0:0:
320,64,2655,1,8,0:0:0:0:
64,64,2738,1,0,0:0:0:0:
64,64,2821,1,0,0:0:0:0:
64,64,2905,1,0,0:0:0:0:
64,64,2988,1,0,0:0:0:0:
320,64,3071,1,8,0:0:0:0:
320,64,3155,1,8,0:0:0:0:
320,64,3238,1,8,0:0:0:0:
320,64,3321,1,8,0:0:0:0:
64,64,3405,1,0,0:0:0:0:
64,64,3488,1,0,0:0:0:0:
320,64,3571,1,8,0:0:0:0:
64,64,3655,1,0,0:0:0:0:
320,64,3738,1,8,0:0:0:0:
320,64,3821,1,8,0:0:0:0:
64,64,3905,1,0,0:0:0:0:
320,64,3988,1,8,0:0:0:0:
64,64,4071,1,0,0:0:0:0:
64,64,4155,1,0,0:0:0:0:
64,64,4238,1,0,0:0:0:0:
64,64,4321,1,0,0:0:0:0:
320,64,4405,1,8,0:0:0:0:
320,64,4488,1,8,0:0:0:0:
320,64,4571,1,8,0:0:0:0:
320,64,4655,1,8,0:0:0:0:
64,64,4738,1,0,0:0:0:0:
64,64,4821,1,0,0:0:0:0:
320,64,4905,1,8,0:0:0:0:
64,64,4988,1,0,0:0:0:0:
320,64,5071,1,12,0:0:0:0:
320,64,5405,1,8,0:0:0:0:
320,64,5488,1,8,0:0:0:0:
64,64,5571,1,0,0:0:0:0:
64,64,5655,1,0,0:0:0:0:
320,64,5738,1,8,0:0:0:0:
64,64,5821,1,0,0:0:0:0:
320,64,5905,1,8,0:0:0:0:
320,64,5988,1,8,0:0:0:0:
320,64,6071,1,8,0:0:0:0:
64,64,6155,1,0,0:0:0:0:
320,64,6238,1,8,0:0:0:0:
320,64,6321,1,8,0:0:0:0:
64,64,6405,1,0,0:0:0:0:
320,64,6571,1,8,0:0:0:0:
64,64,6655,1,0,0:0:0:0:
64,64,6821,1,0,0:0:0:0:
64,64,6905,1,0,0:0:0:0:
64,64,6988,1,0,0:0:0:0:
320,64,7071,1,8,0:0:0:0:
64,64,7155,1,0,0:0:0:0:
64,64,7238,1,0,0:0:0:0:
64,64,7321,1,0,0:0:0:0:
320,64,7405,1,8,0:0:0:0:
320,64,7488,1,8,0:0:0:0:
64,64,7571,1,0,0:0:0:0:
64,64,7655,1,0,0:0:0:0:
320,64,7738,1,8,0:0:0:0:
320,64,7905,1,8,0:0:0:0:
320,64,7988,1,8,0:0:0:0:
64,64,8155,1,0,0:0:0:0:
320,64,8238,1,8,0:0:0:0:
64,64,8321,1,0,0:0:0:0:
320,64,8405,1,8,0:0:0:0:
320,64,8488,1,8,0:0:0:0:
64,64,8571,1,0,0:0:0:0:
64,64,8655,1,0,0:0:0:0:
320,64,8738,1,8,0:0:0:0:
64,64,8821,1,0,0:0:0:0:
320,64,8905,1,8,0:0:0:0:
320,64,8988,1,8,0:0:0:0:
64,64,9071,1,0,0:0:0:0:
320,64,9238,1,8,0:0:0:0:
64,64,9321,1,0,0:0:0:0:
64,64,9488,1,0,0:0:0:0:
64,64,9571,1,0,0:0:0:0:
64,64,9655,1,0,0:0:0:0:
320,64,9738,1,8,0:0:0:0:
64,64,9821,1,0,0:0:0:0:
320,64,9905,1,8,0:0:0:0:
320,64,9988,1,8,0:0:0:0:
64,64,10071,1,0,0:0:0:0:
64,64,10238,1,0,0:0:0:0:
64,64,10321,1,0,0:0:0:0:
320,64,10405,1,8,0:0:0:0:
64,64,10571,1,0,0:0:0:0:
64,64,10821,1,0,0:0:0:0:
320,64,10905,1,8,0:0:0:0:
64,64,10988,1,0,0:0:0:0:
320,64,11071,1,8,0:0:0:0:
320,64,11155,1,8,0:0:0:0:
320,64,11238,1,8,0:0:0:0:
64,64,11321,1,0,0:0:0:0:
320,64,11405,1,8,0:0:0:0:
64,64,11488,1,0,0:0:0:0:
320,64,11571,1,8,0:0:0:0:
320,64,11655,1,8,0:0:0:0:
64,64,11738,1,0,0:0:0:0:
320,64,11905,1,8,0:0:0:0:
64,64,11988,1,0,0:0:0:0:
64,64,12155,1,0,0:0:0:0:
64,64,12238,1,0,0:0:0:0:
64,64,12321,1,0,0:0:0:0:
320,64,12405,1,8,0:0:0:0:
320,64,12488,1,8,0:0:0:0:
320,64,12571,1,8,0:0:0:0:
320,64,12655,1,8,0:0:0:0:
64,64,12738,1,0,0:0:0:0:
64,64,12905,1,0,0:0:0:0:
64,64,12988,1,0,0:0:0:0:
320,64,13071,1,8,0:0:0:0:
320,64,13238,1,8,0:0:0:0:
64,64,13488,1,0,0:0:0:0:
320,64,13571,1,8,0:0:0:0:
64,64,13655,1,0,0:0:0:0:
320,64,13738,1,8,0:0:0:0:
320,64,13821,1,8,0:0:0:0:
64,64,13905,1,0,0:0:0:0:
64,64,13988,1,0,0:0:0:0:
320,64,14071,1,8,0:0:0:0:
64,64,14155,1,0,0:0:0:0:
320,64,14238,1,8,0:0:0:0:
320,64,14321,1,8,0:0:0:0:
64,64,14405,1,0,0:0:0:0:
320,64,14571,1,8,0:0:0:0:
64,64,14655,1,0,0:0:0:0:
64,64,14821,1,0,0:0:0:0:
320,64,14905,1,8,0:0:0:0:
64,64,14988,1,0,0:0:0:0:
320,64,15071,1,8,0:0:0:0:
320,64,15155,1,8,0:0:0:0:
64,64,15238,1,0,0:0:0:0:
64,64,15321,1,0,0:0:0:0:
320,64,15405,1,8,0:0:0:0:
64,64,15571,1,0,0:0:0:0:
320,64,15655,1,8,0:0:0:0:
64,64,15821,1,0,0:0:0:0:
320,64,15905,1,8,0:0:0:0:
320,64,16071,1,12,0:0:0:0:
320,64,16405,1,8,0:0:0:0:
64,64,16488,1,0,0:0:0:0:
64,64,16571,1,0,0:0:0:0:
64,64,16655,1,0,0:0:0:0:
320,64,16738,1,8,0:0:0:0:
64,64,16821,1,0,0:0:0:0:
320,64,16905,1,8,0:0:0:0:
320,64,16988,1,8,0:0:0:0:
64,64,17071,1,0,0:0:0:0:
320,64,17238,1,8,0:0:0:0:
64,64,17321,1,0,0:0:0:0:
64,64,17488,1,0,0:0:0:0:
64,64,17571,1,0,0:0:0:0:
64,64,17655,1,0,0:0:0:0:
320,64,17738,1,8,0:0:0:0:
64,64,17821,1,0,0:0:0:0:
64,64,17905,1,0,0:0:0:0:
64,64,17988,1,0,0:0:0:0:
320,64,18071,1,8,0:0:0:0:
320,64,18155,1,8,0:0:0:0:
64,64,18238,1,0,0:0:0:0:
320,64,18321,1,8,0:0:0:0:
64,64,18405,1,0,0:0:0:0:
320,64,18571,1,8,0:0:0:0:
320,64,18655,1,8,0:0:0:0:
64,64,18821,1,0,0:0:0:0:
320,64,18905,1,8,0:0:0:0:
64,64,18988,1,0,0:0:0:0:
320,64,19071,1,8,0:0:0:0:
320,64,19155,1,8,0:0:0:0:
64,64,19238,1,0,0:0:0:0:
64,64,19321,1,0,0:0:0:0:
320,64,19405,1,8,0:0:0:0:
64,64,19488,1,0,0:0:0:0:
320,64,19571,1,8,0:0:0:0:
320,64,19655,1,8,0:0:0:0:
64,64,19738,1,0,0:0:0:0:
320,64,19905,1,8,0:0:0:0:
64,64,19988,1,0,0:0:0:0:
64,64,20155,1,0,0:0:0:0:
64,64,20238,1,0,0:0:0:0:
64,64,20322,1,0,0:0:0:0:
320,64,20405,1,8,0:0:0:0:
320,64,20488,1,8,0:0:0:0:
64,64,20572,1,0,0:0:0:0:
64,64,20655,1,0,0:0:0:0:
320,64,20738,1,8,0:0:0:0:
64,64,20905,1,0,0:0:0:0:
64,64,20988,1,0,0:0:0:0:
320,64,21072,1,8,0:0:0:0:
320,64,21238,1,8,0:0:0:0:
64,64,21488,1,0,0:0:0:0:
320,64,21572,1,8,0:0:0:0:
64,64,21655,1,0,0:0:0:0:
320,64,21738,1,8,0:0:0:0:
320,64,21822,1,8,0:0:0:0:
320,64,21905,1,8,0:0:0:0:
320,64,21988,1,8,0:0:0:0:
64,64,22072,1,0,0:0:0:0:
64,64,22238,1,0,0:0:0:0:
64,64,22321,1,0,0:0:0:0:
320,64,22405,1,8,0:0:0:0:
64,64,22571,1,0,0:0:0:0:
320,64,22822,1,8,0:0:0:0:
64,64,22905,1,0,0:0:0:0:
64,64,22988,1,0,0:0:0:0:
320,64,23072,1,8,0:0:0:0:
320,64,23155,1,8,0:0:0:0:
64,64,23238,1,0,0:0:0:0:
320,64,23321,1,8,0:0:0:0:
64,64,23405,1,0,0:0:0:0:
320,64,23488,1,8,0:0:0:0:
64,64,23572,1,0,0:0:0:0:
320,64,23655,1,8,0:0:0:0:
64,64,23738,1,0,0:0:0:0:
320,64,23905,1,8,0:0:0:0:
64,64,24155,1,0,0:0:0:0:
64,64,24238,1,0,0:0:0:0:
64,64,24322,1,0,0:0:0:0:
320,64,24405,1,8,0:0:0:0:
64,64,24488,1,0,0:0:0:0:
320,64,24572,1,8,0:0:0:0:
64,64,24655,1,0,0:0:0:0:
320,64,24738,1,8,0:0:0:0:
320,64,24821,1,8,0:0:0:0:
64,64,24905,1,0,0:0:0:0:
320,64,24988,1,8,0:0:0:0:
64,64,25072,1,0,0:0:0:0:
320,64,25238,1,8,0:0:0:0:
64,64,25322,1,0,0:0:0:0:
64,64,25488,1,0,0:0:0:0:
320,64,25572,1,8,0:0:0:0:
64,64,25655,1,0,0:0:0:0:
320,64,25738,1,8,0:0:0:0:
320,64,25822,1,8,0:0:0:0:
64,64,25905,1,0,0:0:0:0:
64,64,25988,1,0,0:0:0:0:
320,64,26072,1,8,0:0:0:0:
64,64,26238,1,0,0:0:0:0:
320,64,26321,1,8,0:0:0:0:
64,64,26488,1,0,0:0:0:0:
320,64,26571,1,8,0:0:0:0:
64,64,26738,1,0,0:0:0:0:
320,64,26821,1,8,0:0:0:0:
64,64,26905,1,0,0:0:0:0:
320,64,26988,1,8,0:0:0:0:
64,64,27071,1,0,0:0:0:0:
64,64,27155,1,0,0:0:0:0:
320,64,27238,1,8,0:0:0:0:
320,64,27321,1,8,0:0:0:0:
64,64,27405,1,0,0:0:0:0:
320,64,27488,1,8,0:0:0:0:
64,64,27571,1,0,0:0:0:0:
64,64,27655,1,0,0:0:0:0:
320,64,27738,1,8,0:0:0:0:
64,64,27821,1,0,0:0:0:0:
320,64,27905,1,8,0:0:0:0:
320,64,27988,1,8,0:0:0:0:
64,64,28071,1,0,0:0:0:0:
320,64,28155,1,8,0:0:0:0:
64,64,28238,1,0,0:0:0:0:
320,64,28321,1,8,0:0:0:0:
64,64,28405,1,0,0:0:0:0:
320,64,28488,1,8,0:0:0:0:
320,64,28571,1,8,0:0:0:0:
320,64,28655,1,8,0:0:0:0:
64,64,28738,1,0,0:0:0:0:
64,64,28821,1,0,0:0:0:0:
320,64,28905,1,8,0:0:0:0:
64,64,28988,1,0,0:0:0:0:
320,64,29071,1,8,0:0:0:0:
320,64,29155,1,8,0:0:0:0:
320,64,29238,1,8,0:0:0:0:
320,64,29321,1,8,0:0:0:0:
64,64,29405,1,0,0:0:0:0:
320,64,29571,1,8,0:0:0:0:
64,64,29655,1,0,0:0:0:0:
320,64,29738,1,8,0:0:0:0:
320,64,29905,1,8,0:0:0:0:
320,64,29988,1,8,0:0:0:0:
64,64,30071,1,0,0:0:0:0:
64,64,30155,1,0,0:0:0:0:
320,64,30238,1,8,0:0:0:0:
320,64,30321,1,8,0:0:0:0:
320,64,30488,1,8,0:0:0:0:
64,64,30571,1,0,0:0:0:0:
320,64,30655,1,8,0:0:0:0:
64,64,30738,1,0,0:0:0:0:
64,64,30821,1,0,0:0:0:0:
320,64,30905,1,8,0:0:0:0:
64,64,30988,1,0,0:0:0:0:
320,64,31071,1,8,0:0:0:0:
64,64,31238,1,0,0:0:0:0:
320,64,31321,1,8,0:0:0:0:
64,64,31405,1,0,0:0:0:0:
64,64,31488,1,0,0:0:0:0:
320,64,31571,1,8,0:0:0:0:
320,64,31655,1,8,0:0:0:0:
320,64,31821,1,8,0:0:0:0:
64,64,31905,1,0,0:0:0:0:
64,64,31988,1,0,0:0:0:0:
320,64,32071,1,8,0:0:0:0:
64,64,32155,1,0,0:0:0:0:
320,64,32238,1,8,0:0:0:0:
64,64,32321,1,0,0:0:0:0:
320,64,32405,1,8,0:0:0:0:
64,64,32571,1,0,0:0:0:0:
320,64,32655,1,8,0:0:0:0:
64,64,32738,1,0,0:0:0:0:
64,64,32821,1,0,0:0:0:0:
320,64,32905,1,8,0:0:0:0:
320,64,32988,1,8,0:0:0:0:
64,64,33155,1,0,0:0:0:0:
320,64,33238,1,8,0:0:0:0:
64,64,33321,1,0,0:0:0:0:
320,64,33405,1,8,0:0:0:0:
320,64,33488,1,8,0:0:0:0:
64,64,33571,1,0,0:0:0:0:
64,64,33655,1,0,0:0:0:0:
320,64,33738,1,8,0:0:0:0:
64,64,33821,1,0,0:0:0:0:
320,64,33905,1,8,0:0:0:0:
64,64,33988,1,0,0:0:0:0:
320,64,34071,1,8,0:0:0:0:
320,64,34155,1,8,0:0:0:0:
320,64,34238,1,8,0:0:0:0:
64,64,34321,1,0,0:0:0:0:
320,64,34405,1,8,0:0:0:0:
64,64,34488,1,0,0:0:0:0:
320,64,34571,1,8,0:0:0:0:
320,64,34655,1,8,0:0:0:0:
64,64,34738,1,0,0:0:0:0:
64,64,34821,1,0,0:0:0:0:
320,64,34905,1,8,0:0:0:0:
64,64,34988,1,0,0:0:0:0:
320,64,35071,1,8,0:0:0:0:
320,64,35238,1,8,0:0:0:0:
320,64,35321,1,8,0:0:0:0:
64,64,35405,1,0,0:0:0:0:
64,64,35488,1,0,0:0:0:0:
320,64,35571,1,8,0:0:0:0:
320,64,35655,1,8,0:0:0:0:
320,64,35821,1,8,0:0:0:0:
64,64,35905,1,0,0:0:0:0:
320,64,35988,1,8,0:0:0:0:
64,64,36071,1,0,0:0:0:0:
64,64,36155,1,0,0:0:0:0:
320,64,36238,1,8,0:0:0:0:
320,64,36405,1,8,0:0:0:0:
64,64,36488,1,0,0:0:0:0:
64,64,36571,1,0,0:0:0:0:
320,64,36655,1,8,0:0:0:0:
320,64,36738,1,8,0:0:0:0:
64,64,36821,1,0,0:0:0:0:
320,64,36905,1,8,0:0:0:0:
64,64,36988,1,0,0:0:0:0:
64,64,37071,1,0,0:0:0:0:
320,64,37155,1,8,0:0:0:0:
64,64,37238,1,0,0:0:0:0:
320,64,37321,1,8,0:0:0:0:
64,64,37405,1,0,0:0:0:0:
64,64,37488,1,0,0:0:0:0:
320,64,37571,1,8,0:0:0:0:
64,64,37655,1,0,0:0:0:0:
320,64,37738,1,8,0:0:0:0:
64,64,37905,1,0,0:0:0:0:
320,64,37988,1,8,0:0:0:0:
64,64,38071,1,0,0:0:0:0:
64,64,38155,1,0,0:0:0:0:
320,64,38238,1,8,0:0:0:0:
320,64,38321,1,8,0:0:0:0:
64,64,38488,1,0,0:0:0:0:
320,64,38571,1,8,0:0:0:0:
320,64,38655,1,8,0:0:0:0:
64,64,38738,1,0,0:0:0:0:
64,64,38821,1,0,0:0:0:0:
320,64,38905,1,8,0:0:0:0:
64,64,38988,1,0,0:0:0:0:
320,64,39071,1,8,0:0:0:0:
64,64,39155,1,0,0:0:0:0:
320,64,39238,1,8,0:0:0:0:
320,64,39321,1,8,0:0:0:0:
64,64,39405,1,0,0:0:0:0:
320,64,39488,1,8,0:0:0:0:
64,64,39571,1,0,0:0:0:0:
320,64,39655,1,8,0:0:0:0:
64,64,39738,1,0,0:0:0:0:
64,64,39821,1,0,0:0:0:0:
64,64,39905,1,0,0:0:0:0:
64,64,39988,1,0,0:0:0:0:
320,64,40071,1,8,0:0:0:0:
320,64,40238,1,8,0:0:0:0:
64,64,40322,1,0,0:0:0:0:
320,64,40405,1,8,0:0:0:0:
320,64,40572,1,8,0:0:0:0:
320,64,40655,1,8,0:0:0:0:
64,64,40738,1,0,0:0:0:0:
64,64,40822,1,0,0:0:0:0:
320,64,40905,1,8,0:0:0:0:
320,64,40988,1,8,0:0:0:0:
320,64,41155,1,8,0:0:0:0:
64,64,41238,1,0,0:0:0:0:
320,64,41322,1,8,0:0:0:0:
64,64,41405,1,0,0:0:0:0:
64,64,41488,1,0,0:0:0:0:
320,64,41572,1,8,0:0:0:0:
64,64,41655,1,0,0:0:0:0:
320,64,41738,1,8,0:0:0:0:
64,64,41905,1,0,0:0:0:0:
320,64,41988,1,8,0:0:0:0:
64,64,42072,1,0,0:0:0:0:
64,64,42155,1,0,0:0:0:0:
320,64,42238,1,8,0:0:0:0:
320,64,42322,1,8,0:0:0:0:
320,64,42488,1,8,0:0:0:0:
64,64,42572,1,0,0:0:0:0:
64,64,42655,1,0,0:0:0:0:
320,64,42738,1,8,0:0:0:0:
64,64,42822,1,0,0:0:0:0:
320,64,42905,1,8,0:0:0:0:
64,64,42988,1,0,0:0:0:0:
320,64,43072,1,8,0:0:0:0:
64,64,43238,1,0,0:0:0:0:
320,64,43322,1,8,0:0:0:0:
64,64,43405,1,0,0:0:0:0:
64,64,43488,1,0,0:0:0:0:
320,64,43572,1,8,0:0:0:0:
320,64,43655,1,8,0:0:0:0:
64,64,43822,1,0,0:0:0:0:
320,64,43905,1,8,0:0:0:0:
64,64,43988,1,0,0:0:0:0:
320,64,44072,1,8,0:0:0:0:
320,64,44155,1,8,0:0:0:0:
64,64,44238,1,0,0:0:0:0:
64,64,44322,1,0,0:0:0:0:
320,64,44405,1,8,0:0:0:0:
64,64,44488,1,0,0:0:0:0:
320,64,44572,1,8,0:0:0:0:
64,64,44655,1,0,0:0:0:0:
320,64,44738,1,8,0:0:0:0:
320,64,44822,1,8,0:0:0:0:
320,64,44905,1,8,0:0:0:0:
64,64,44988,1,0,0:0:0:0:
320,64,45072,1,8,0:0:0:0:
64,64,45155,1,0,0:0:0:0:
320,64,45238,1,8,0:0:0:0:
320,64,45322,1,8,0:0:0:0:
64,64,45405,1,0,0:0:0:0:
64,64,45488,1,0,0:0:0:0:
320,64,45572,1,8,0:0:0:0:
64,64,45655,1,0,0:0:0:0:
320,64,45738,1,8,0:0:0:0:
320,64,45905,1,8,0:0:0:0:
320,64,45988,1,8,0:0:0:0:
64,64,46072,1,0,0:0:0:0:
64,64,46155,1,0,0:0:0:0:
320,64,46238,1,8,0:0:0:0:
320,64,46322,1,8,0:0:0:0:
320,64,46488,1,8,0:0:0:0:
64,64,46572,1,0,0:0:0:0:
320,64,46655,1,8,0:0:0:0:
64,64,46738,1,0,0:0:0:0:
64,64,46822,1,0,0:0:0:0:
320,64,46905,1,8,0:0:0:0:
320,64,47071,1,8,0:0:0:0:
64,64,47155,1,0,0:0:0:0:
64,64,47238,1,0,0:0:0:0:
64,64,47321,1,0,0:0:0:0:
320,64,47405,1,12,0:0:0:0:
64,64,47571,1,4,0:0:0:0:
320,64,47738,1,12,0:0:0:0:
320,64,47905,1,12,0:0:0:0:
64,64,48071,1,0,0:0:0:0:
64,64,48155,1,0,0:0:0:0:
320,64,48238,1,8,0:0:0:0:
64,64,48321,1,0,0:0:0:0:
320,64,48405,1,8,0:0:0:0:
320,64,48571,1,8,0:0:0:0:
320,64,48655,1,8,0:0:0:0:
64,64,48738,1,0,0:0:0:0:
64,64,48821,1,0,0:0:0:0:
320,64,48905,1,8,0:0:0:0:
320,64,48988,1,8,0:0:0:0:
64,64,49155,1,0,0:0:0:0:
320,64,49238,1,8,0:0:0:0:
64,64,49321,1,0,0:0:0:0:
320,64,49405,1,8,0:0:0:0:
320,64,49488,1,8,0:0:0:0:
320,64,49571,1,8,0:0:0:0:
64,64,49655,1,0,0:0:0:0:
320,64,49738,1,8,0:0:0:0:
64,64,49821,1,0,0:0:0:0:
64,64,49905,1,0,0:0:0:0:
64,64,49988,1,0,0:0:0:0:
320,64,50071,1,12,0:0:0:0:
64,64,50238,1,0,0:0:0:0:
320,64,50321,1,12,0:0:0:0:
64,64,50488,1,0,0:0:0:0:
320,64,50571,1,12,0:0:0:0:
320,64,50738,1,8,0:0:0:0:
64,64,50821,1,0,0:0:0:0:
320,64,50905,1,8,0:0:0:0:
320,64,50988,1,8,0:0:0:0:
64,64,51071,1,0,0:0:0:0:
64,64,51155,1,0,0:0:0:0:
320,64,51238,1,8,0:0:0:0:
320,64,51321,1,8,0:0:0:0:
320,64,51488,1,8,0:0:0:0:
64,64,51571,1,0,0:0:0:0:
64,64,51655,1,0,0:0:0:0:
320,64,51738,1,8,0:0:0:0:
320,64,51821,1,8,0:0:0:0:
64,64,51905,1,0,0:0:0:0:
320,64,51988,1,8,0:0:0:0:
64,64,52155,1,0,0:0:0:0:
64,64,52238,1,0,0:0:0:0:
64,64,52321,1,0,0:0:0:0:
320,64,52405,1,8,0:0:0:0:
64,64,52488,1,0,0:0:0:0:
320,64,52571,1,8,0:0:0:0:
320,64,52655,1,8,0:0:0:0:
64,64,52738,1,0,0:0:0:0:
320,64,52821,1,8,0:0:0:0:
64,64,52905,1,0,0:0:0:0:
64,64,52988,1,0,0:0:0:0:
320,64,53071,1,8,0:0:0:0:
320,64,53155,1,8,0:0:0:0:
64,64,53238,1,0,0:0:0:0:
320,64,53321,1,8,0:0:0:0:
320,64,53488,1,8,0:0:0:0:
64,64,53571,1,0,0:0:0:0:
64,64,53655,1,0,0:0:0:0:
320,64,53738,1,8,0:0:0:0:
64,64,53821,1,0,0:0:0:0:
320,64,53905,1,8,0:0:0:0:
320,64,53988,1,8,0:0:0:0:
64,64,54155,1,0,0:0:0:0:
64,64,54238,1,0,0:0:0:0:
64,64,54321,1,0,0:0:0:0:
320,64,54405,1,8,0:0:0:0:
320,64,54488,1,8,0:0:0:0:
64,64,54571,1,0,0:0:0:0:
320,64,54655,1,8,0:0:0:0:
320,64,54821,1,8,0:0:0:0:
64,64,54905,1,0,0:0:0:0:
64,64,54988,1,0,0:0:0:0:
320,64,55071,1,8,0:0:0:0:
64,64,55155,1,0,0:0:0:0:
320,64,55238,1,8,0:0:0:0:
320,64,55321,1,8,0:0:0:0:
320,64,55488,1,8,0:0:0:0:
64,64,55571,1,0,0:0:0:0:
64,64,55655,1,0,0:0:0:0:
320,64,55738,1,8,0:0:0:0:
64,64,55821,1,0,0:0:0:0:
320,64,55905,1,8,0:0:0:0:
320,64,55988,1,8,0:0:0:0:
64,64,56154,1,0,0:0:0:0:
320,64,56238,1,8,0:0:0:0:
320,64,56321,1,8,0:0:0:0:
64,64,56404,1,0,0:0:0:0:
64,64,56488,1,0,0:0:0:0:
320,64,56571,1,8,0:0:0:0:
320,64,56654,1,8,0:0:0:0:
64,64,56738,1,0,0:0:0:0:
320,64,56821,1,8,0:0:0:0:
64,64,56905,1,0,0:0:0:0:
64,64,56988,1,0,0:0:0:0:
320,64,57071,1,8,0:0:0:0:
320,64,57154,1,8,0:0:0:0:
64,64,57238,1,0,0:0:0:0:
320,64,57321,1,8,0:0:0:0:
320,64,57488,1,8,0:0:0:0:
64,64,57571,1,0,0:0:0:0:
64,64,57654,1,0,0:0:0:0:
320,64,57738,1,8,0:0:0:0:
64,64,57821,1,0,0:0:0:0:
320,64,57904,1,8,0:0:0:0:
320,64,57988,1,8,0:0:0:0:
64,64,58071,1,0,0:0:0:0:
320,64,58154,1,8,0:0:0:0:
64,64,58238,1,0,0:0:0:0:
320,64,58321,1,8,0:0:0:0:
320,64,58404,1,8,0:0:0:0:
64,64,58488,1,0,0:0:0:0:
320,64,58571,1,8,0:0:0:0:
64,64,58654,1,0,0:0:0:0:
320,64,58738,1,8,0:0:0:0:
320,64,58821,1,8,0:0:0:0:
64,64,58904,1,0,0:0:0:0:
320,64,58988,1,8,0:0:0:0:
64,64,59071,1,0,0:0:0:0:
64,64,59154,1,0,0:0:0:0:
320,64,59238,1,8,0:0:0:0:
320,64,59321,1,8,0:0:0:0:
64,64,59488,1,0,0:0:0:0:
64,64,59571,1,0,0:0:0:0:
64,64,59654,1,0,0:0:0:0:
320,64,59738,1,8,0:0:0:0:
320,64,59821,1,8,0:0:0:0:
64,64,59904,1,0,0:0:0:0:
320,64,59988,1,8,0:0:0:0:
320,64,60155,1,8,0:0:0:0:
64,64,60238,1,0,0:0:0:0:
64,64,60321,1,0,0:0:0:0:
320,64,60405,1,8,0:0:0:0:
320,64,60488,1,8,0:0:0:0:
320,64,60571,1,8,0:0:0:0:
320,64,60655,1,8,0:0:0:0:
64,64,60738,1,0,0:0:0:0:
320,64,60821,1,8,0:0:0:0:
64,64,60905,1,0,0:0:0:0:
64,64,60988,1,0,0:0:0:0:
320,64,61071,1,8,0:0:0:0:
64,64,61155,1,0,0:0:0:0:
64,64,61238,1,0,0:0:0:0:
64,64,61321,1,0,0:0:0:0:
320,64,61405,1,12,0:0:0:0:
64,64,61738,1,0,0:0:0:0:
64,64,61821,1,0,0:0:0:0:
320,64,61905,1,8,0:0:0:0:
64,64,61988,1,0,0:0:0:0:
320,64,62071,1,12,0:0:0:0:
64,64,62238,1,0,0:0:0:0:
320,64,62321,1,12,0:0:0:0:
64,64,62488,1,0,0:0:0:0:
320,64,62571,1,12,0:0:0:0:
64,64,62738,1,0,0:0:0:0:
64,64,62821,1,0,0:0:0:0:
320,64,62905,1,8,0:0:0:0:
64,64,62988,1,0,0:0:0:0:
320,64,63071,1,8,0:0:0:0:
320,64,63155,1,8,0:0:0:0:
64,64,63238,1,0,0:0:0:0:
64,64,63321,1,0,0:0:0:0:
320,64,63405,1,12,0:0:0:0:
64,64,63571,1,0,0:0:0:0:
320,64,63655,1,12,0:0:0:0:
64,64,63821,1,0,0:0:0:0:
320,64,63905,1,12,0:0:0:0:
64,64,64071,1,0,0:0:0:0:
64,64,64155,1,0,0:0:0:0:
320,64,64238,1,8,0:0:0:0:
320,64,64321,1,8,0:0:0:0:
64,64,64405,1,0,0:0:0:0:
64,64,64488,1,0,0:0:0:0:
320,64,64571,1,8,0:0:0:0:
320,64,64655,1,8,0:0:0:0:
320,64,64738,1,8,0:0:0:0:
64,64,64821,1,0,0:0:0:0:
320,64,64905,1,8,0:0:0:0:
320,64,64988,1,8,0:0:0:0:
64,64,65071,1,0,0:0:0:0:
320,64,65155,1,8,0:0:0:0:
64,64,65238,1,0,0:0:0:0:
64,64,65405,1,0,0:0:0:0:
64,64,65488,1,0,0:0:0:0:
320,64,65571,1,8,0:0:0:0:
64,64,65655,1,0,0:0:0:0:
320,64,65738,1,8,0:0:0:0:
64,64,65821,1,0,0:0:0:0:
320,64,65905,1,8,0:0:0:0:
320,64,65988,1,8,0:0:0:0:
256,192,66071,12,0,66321,0:0:0:0:
256,192,66405,12,0,66655,0:0:0:0:
320,64,66738,5,8,0:0:0:0:
64,64,66821,1,0,0:0:0:0:
320,64,66905,1,8,0:0:0:0:
320,64,66988,1,8,0:0:0:0:
64,64,67071,1,0,0:0:0:0:
64,64,67155,1,0,0:0:0:0:
320,64,67238,1,8,0:0:0:0:
320,64,67321,1,8,0:0:0:0:
320,64,67488,1,8,0:0:0:0:
64,64,67571,1,0,0:0:0:0:
64,64,67655,1,0,0:0:0:0:
320,64,67738,1,8,0:0:0:0:
320,64,67821,1,8,0:0:0:0:
64,64,67905,1,0,0:0:0:0:
320,64,67988,1,8,0:0:0:0:
64,64,68155,1,0,0:0:0:0:
320,64,68238,1,8,0:0:0:0:
64,64,68321,1,0,0:0:0:0:
320,64,68405,1,8,0:0:0:0:
320,64,68488,1,8,0:0:0:0:
64,64,68571,1,0,0:0:0:0:
320,64,68655,1,8,0:0:0:0:
320,64,68738,1,8,0:0:0:0:
320,64,68821,1,8,0:0:0:0:
64,64,68905,1,0,0:0:0:0:
64,64,68988,1,0,0:0:0:0:
320,64,69071,1,8,0:0:0:0:
64,64,69155,1,0,0:0:0:0:
320,64,69238,1,8,0:0:0:0:
320,64,69321,1,8,0:0:0:0:
64,64,69405,1,0,0:0:0:0:
320,64,69488,1,8,0:0:0:0:
64,64,69571,1,0,0:0:0:0:
320,64,69655,1,8,0:0:0:0:
64,64,69738,1,0,0:0:0:0:
64,64,69821,1,0,0:0:0:0:
320,64,69905,1,8,0:0:0:0:
320,64,69988,1,8,0:0:0:0:
320,64,70155,1,8,0:0:0:0:
64,64,70238,1,0,0:0:0:0:
64,64,70321,1,0,0:0:0:0:
320,64,70405,1,8,0:0:0:0:
320,64,70488,1,8,0:0:0:0:
64,64,70571,1,0,0:0:0:0:
320,64,70655,1,8,0:0:0:0:
64,64,70738,1,0,0:0:0:0:
320,64,70821,1,8,0:0:0:0:
320,64,70905,1,8,0:0:0:0:
64,64,70988,1,0,0:0:0:0:
320,64,71071,1,8,0:0:0:0:
320,64,71155,1,8,0:0:0:0:
64,64,71238,1,0,0:0:0:0:
320,64,71321,1,8,0:0:0:0:
256,192,71405,12,0,71905,0:0:0:0:
64,64,72071,5,0,0:0:0:0:
320,64,72155,1,8,0:0:0:0:
320,64,72238,1,8,0:0:0:0:
64,64,72321,1,0,0:0:0:0:
320,64,72405,1,8,0:0:0:0:
320,64,72488,1,8,0:0:0:0:
64,64,72571,1,0,0:0:0:0:
320,64,72655,1,8,0:0:0:0:
64,64,72738,1,0,0:0:0:0:
64,64,72821,1,0,0:0:0:0:
320,64,72905,1,8,0:0:0:0:
64,64,72988,1,0,0:0:0:0:
64,64,73071,1,0,0:0:0:0:
320,64,73155,1,8,0:0:0:0:
320,64,73238,1,8,0:0:0:0:
320,64,73321,1,8,0:0:0:0:
64,64,73405,1,0,0:0:0:0:
320,64,73488,1,8,0:0:0:0:
320,64,73571,1,8,0:0:0:0:
64,64,73655,1,0,0:0:0:0:
320,64,73738,1,8,0:0:0:0:
320,64,73821,1,8,0:0:0:0:
64,64,73905,1,0,0:0:0:0:
320,64,73988,1,8,0:0:0:0:
64,64,74071,1,0,0:0:0:0:
320,64,74238,1,8,0:0:0:0:
320,64,74321,1,8,0:0:0:0:
64,64,74488,1,0,0:0:0:0:
64,64,74571,1,0,0:0:0:0:
64,64,74738,1,0,0:0:0:0:
320,64,74821,1,8,0:0:0:0:
320,64,74905,1,8,0:0:0:0:
64,64,74988,1,0,0:0:0:0:
320,64,75071,1,8,0:0:0:0:
320,64,75155,1,8,0:0:0:0:
64,64,75238,1,0,0:0:0:0:
320,64,75321,1,8,0:0:0:0:
64,64,75405,1,0,0:0:0:0:
64,64,75488,1,0,0:0:0:0:
320,64,75571,1,8,0:0:0:0:
64,64,75655,1,0,0:0:0:0:
64,64,75738,1,0,0:0:0:0:
320,64,75821,1,8,0:0:0:0:
320,64,75905,1,8,0:0:0:0:
320,64,75988,1,8,0:0:0:0:
64,64,76071,1,0,0:0:0:0:
320,64,76155,1,8,0:0:0:0:
320,64,76238,1,8,0:0:0:0:
64,64,76321,1,0,0:0:0:0:
320,64,76405,1,8,0:0:0:0:
320,64,76488,1,8,0:0:0:0:
64,64,76571,1,0,0:0:0:0:
320,64,76655,1,8,0:0:0:0:
64,64,76738,1,0,0:0:0:0:
64,64,76905,1,0,0:0:0:0:
64,64,76988,1,0,0:0:0:0:
320,64,77071,1,8,0:0:0:0:
64,64,77155,1,0,0:0:0:0:
320,64,77238,1,8,0:0:0:0:
64,64,77405,1,0,0:0:0:0:
320,64,77488,1,8,0:0:0:0:
320,64,77571,1,8,0:0:0:0:
64,64,77655,1,0,0:0:0:0:
320,64,77738,1,8,0:0:0:0:
320,64,77821,1,8,0:0:0:0:
64,64,77905,1,0,0:0:0:0:
320,64,77988,1,8,0:0:0:0:
64,64,78071,1,0,0:0:0:0:
64,64,78155,1,0,0:0:0:0:
320,64,78238,1,8,0:0:0:0:
64,64,78321,1,0,0:0:0:0:
64,64,78405,1,0,0:0:0:0:
320,64,78488,1,8,0:0:0:0:
320,64,78571,1,8,0:0:0:0:
320,64,78655,1,8,0:0:0:0:
64,64,78738,1,0,0:0:0:0:
64,64,78821,1,0,0:0:0:0:
64,64,78905,1,0,0:0:0:0:
64,64,78988,1,0,0:0:0:0:
320,64,79071,1,8,0:0:0:0:
320,64,79155,1,8,0:0:0:0:
320,64,79238,1,8,0:0:0:0:
320,64,79321,1,8,0:0:0:0:
64,64,79405,1,0,0:0:0:0:
64,64,79516,1,0,0:0:0:0:
64,64,79627,1,0,0:0:0:0:
320,64,79738,1,8,0:0:0:0:
320,64,79849,1,8,0:0:0:0:
320,64,79960,1,8,0:0:0:0:
64,64,80071,1,0,0:0:0:0:
320,64,80155,1,8,0:0:0:0:
320,64,80238,1,8,0:0:0:0:
64,64,80321,1,0,0:0:0:0:
320,64,80405,1,8,0:0:0:0:
320,64,80488,1,8,0:0:0:0:
64,64,80571,1,0,0:0:0:0:
320,64,80655,1,8,0:0:0:0:
64,64,80738,1,0,0:0:0:0:
64,64,80821,1,0,0:0:0:0:
320,64,80905,1,8,0:0:0:0:
64,64,80988,1,0,0:0:0:0:
64,64,81071,1,0,0:0:0:0:
320,64,81155,1,8,0:0:0:0:
320,64,81238,1,8,0:0:0:0:
320,64,81321,1,8,0:0:0:0:
64,64,81405,1,0,0:0:0:0:
320,64,81488,1,8,0:0:0:0:
320,64,81571,1,8,0:0:0:0:
64,64,81655,1,0,0:0:0:0:
320,64,81738,1,8,0:0:0:0:
320,64,81905,1,8,0:0:0:0:
320,64,82071,1,8,0:0:0:0:
320,64,82238,1,8,0:0:0:0:
320,64,82405,1,8,0:0:0:0:
320,64,82488,1,8,0:0:0:0:
320,64,82571,1,8,0:0:0:0:
320,64,82655,1,8,0:0:0:0:
64,64,82738,1,0,0:0:0:0:
64,64,83405,1,0,0:0:0:0:
320,64,83571,1,8,0:0:0:0:
64,64,83655,1,0,0:0:0:0:
320,64,83821,1,8,0:0:0:0:
64,64,83905,1,0,0:0:0:0:
320,64,83988,1,8,0:0:0:0:
64,64,84071,1,0,0:0:0:0:
64,64,84238,1,0,0:0:0:0:
64,64,84321,1,0,0:0:0:0:
64,64,84488,1,0,0:0:0:0:
320,64,84571,1,8,0:0:0:0:
64,64,84655,1,0,0:0:0:0:
320,64,84738,1,8,0:0:0:0:
64,64,84905,1,0,0:0:0:0:
320,64,84988,1,8,0:0:0:0:
64,64,85155,1,0,0:0:0:0:
64,64,85238,1,0,0:0:0:0:
64,64,85321,1,0,0:0:0:0:
320,64,85405,1,8,0:0:0:0:
64,64,85571,1,0,0:0:0:0:
320,64,85655,1,8,0:0:0:0:
320,64,85821,1,8,0:0:0:0:
64,64,85905,1,0,0:0:0:0:
320,64,85988,1,8,0:0:0:0:
64,64,86071,1,0,0:0:0:0:
320,64,86238,1,8,0:0:0:0:
64,64,86321,1,0,0:0:0:0:
64,64,86488,1,0,0:0:0:0:
320,64,86571,1,8,0:0:0:0:
320,64,86655,1,8,0:0:0:0:
64,64,86738,1,0,0:0:0:0:
320,64,86905,1,8,0:0:0:0:
320,64,86988,1,8,0:0:0:0:
320,64,87155,1,8,0:0:0:0:
320,64,87238,1,8,0:0:0:0:
320,64,87321,1,8,0:0:0:0:
64,64,87405,1,0,0:0:0:0:
320,64,87571,1,8,0:0:0:0:
320,64,87655,1,8,0:0:0:0:
320,64,87738,1,8,0:0:0:0:
320,64,87821,1,8,0:0:0:0:
320,64,87905,1,8,0:0:0:0:
320,64,87988,1,8,0:0:0:0:
64,64,88071,1,0,0:0:0:0:
320,64,88238,1,8,0:0:0:0:
64,64,88321,1,0,0:0:0:0:
64,64,88405,1,0,0:0:0:0:
320,64,88488,1,8,0:0:0:0:
64,64,88571,1,0,0:0:0:0:
64,64,88655,1,0,0:0:0:0:
320,64,88738,1,8,0:0:0:0:
64,64,88821,1,0,0:0:0:0:
64,64,88905,1,0,0:0:0:0:
320,64,88988,1,8,0:0:0:0:
64,64,89071,1,0,0:0:0:0:
64,64,89155,1,0,0:0:0:0:
320,64,89238,1,8,0:0:0:0:
64,64,89321,1,0,0:0:0:0:
320,64,89405,1,8,0:0:0:0:
64,64,89571,1,0,0:0:0:0:
320,64,89655,1,8,0:0:0:0:
64,64,89738,1,0,0:0:0:0:
64,64,89821,1,0,0:0:0:0:
320,64,89905,1,8,0:0:0:0:
64,64,89988,1,0,0:0:0:0:
320,64,90071,1,8,0:0:0:0:
320,64,90155,1,8,0:0:0:0:
64,64,90238,1,0,0:0:0:0:
320,64,90321,1,8,0:0:0:0:
64,64,90405,1,0,0:0:0:0:
320,64,90488,1,8,0:0:0:0:
320,64,90571,1,8,0:0:0:0:
64,64,90655,1,0,0:0:0:0:
320,64,90738,1,8,0:0:0:0:
64,64,90905,1,0,0:0:0:0:
320,64,90988,1,8,0:0:0:0:
320,64,91071,1,8,0:0:0:0:
64,64,91155,1,0,0:0:0:0:
320,64,91238,1,8,0:0:0:0:
64,64,91321,1,0,0:0:0:0:
320,64,91405,1,8,0:0:0:0:
64,64,91488,1,0,0:0:0:0:
320,64,91571,1,8,0:0:0:0:
64,64,91655,1,0,0:0:0:0:
320,64,91738,1,8,0:0:0:0:
320,64,91821,1,8,0:0:0:0:
320,64,91905,1,8,0:0:0:0:
64,64,91988,1,0,0:0:0:0:
320,64,92071,1,8,0:0:0:0:
64,64,92238,1,0,0:0:0:0:
320,64,92321,1,8,0:0:0:0:
64,64,92405,1,0,0:0:0:0:
64,64,92488,1,0,0:0:0:0:
320,64,92571,1,8,0:0:0:0:
64,64,92655,1,0,0:0:0:0:
320,64,92738,1,8,0:0:0:0:
320,64,92821,1,8,0:0:0:0:
64,64,92905,1,0,0:0:0:0:
320,64,92988,1,8,0:0:0:0:
64,64,93071,1,0,0:0:0:0:
320,64,93155,1,8,0:0:0:0:
320,64,93238,1,8,0:0:0:0:
64,64,93321,1,0,0:0:0:0:
320,64,93405,1,8,0:0:0:0:
64,64,93571,1,0,0:0:0:0:
320,64,93655,1,8,0:0:0:0:
320,64,93738,1,8,0:0:0:0:
64,64,93821,1,0,0:0:0:0:
320,64,93905,1,8,0:0:0:0:
64,64,93988,1,0,0:0:0:0:
320,64,94071,1,8,0:0:0:0:
64,64,94155,1,0,0:0:0:0:
64,64,94238,1,0,0:0:0:0:
320,64,94321,1,8,0:0:0:0:
64,64,94405,1,0,0:0:0:0:
64,64,94488,1,0,0:0:0:0:
320,64,94571,1,8,0:0:0:0:
64,64,94655,1,0,0:0:0:0:
320,64,94738,1,8,0:0:0:0:
64,64,94905,1,0,0:0:0:0:
320,64,94988,1,8,0:0:0:0:
64,64,95071,1,0,0:0:0:0:
64,64,95155,1,0,0:0:0:0:
320,64,95238,1,8,0:0:0:0:
64,64,95321,1,0,0:0:0:0:
320,64,95405,1,8,0:0:0:0:
320,64,95488,1,8,0:0:0:0:
64,64,95571,1,0,0:0:0:0:
320,64,95655,1,8,0:0:0:0:
64,64,95738,1,0,0:0:0:0:
320,64,95821,1,8,0:0:0:0:
320,64,95905,1,8,0:0:0:0:
64,64,95988,1,0,0:0:0:0:
320,64,96071,1,8,0:0:0:0:
64,64,96238,1,0,0:0:0:0:
320,64,96321,1,8,0:0:0:0:
320,64,96405,1,8,0:0:0:0:
64,64,96488,1,0,0:0:0:0:
320,64,96571,1,8,0:0:0:0:
64,64,96655,1,0,0:0:0:0:
320,64,96738,1,8,0:0:0:0:
320,64,96821,1,8,0:0:0:0:
64,64,96905,1,0,0:0:0:0:
320,64,96988,1,8,0:0:0:0:
64,64,97071,1,0,0:0:0:0:
320,64,97155,1,8,0:0:0:0:
320,64,97238,1,8,0:0:0:0:
320,64,97405,1,8,0:0:0:0:
64,64,97571,1,0,0:0:0:0:
320,64,97655,1,8,0:0:0:0:
64,64,97738,1,0,0:0:0:0:
64,64,97821,1,0,0:0:0:0:
320,64,97905,1,8,0:0:0:0:
64,64,97988,1,0,0:0:0:0:
320,64,98071,1,8,0:0:0:0:
320,64,98155,1,8,0:0:0:0:
64,64,98238,1,0,0:0:0:0:
320,64,98321,1,8,0:0:0:0:
64,64,98405,1,0,0:0:0:0:
320,64,98488,1,8,0:0:0:0:
320,64,98571,1,8,0:0:0:0:
64,64,98655,1,0,0:0:0:0:
320,64,98738,1,8,0:0:0:0:
64,64,98905,1,0,0:0:0:0:
320,64,98989,1,8,0:0:0:0:
320,64,99072,1,8,0:0:0:0:
64,64,99155,1,0,0:0:0:0:
320,64,99239,1,8,0:0:0:0:
64,64,99322,1,0,0:0:0:0:
320,64,99405,1,8,0:0:0:0:
64,64,99489,1,0,0:0:0:0:
64,64,99572,1,0,0:0:0:0:
320,64,99655,1,8,0:0:0:0:
64,64,99739,1,0,0:0:0:0:
64,64,99822,1,0,0:0:0:0:
320,64,99905,1,8,0:0:0:0:
64,64,99989,1,0,0:0:0:0:
320,64,100072,1,8,0:0:0:0:
320,64,100155,1,8,0:0:0:0:
64,64,100238,1,0,0:0:0:0:
320,64,100321,1,8,0:0:0:0:
320,64,100405,1,8,0:0:0:0:
64,64,100488,1,0,0:0:0:0:
320,64,100571,1,8,0:0:0:0:
320,64,100655,1,8,0:0:0:0:
64,64,100738,1,0,0:0:0:0:
64,64,100821,1,0,0:0:0:0:
320,64,100905,1,8,0:0:0:0:
64,64,100988,1,0,0:0:0:0:
64,64,101071,1,0,0:0:0:0:
320,64,101155,1,8,0:0:0:0:
64,64,101238,1,0,0:0:0:0:
64,64,101321,1,0,0:0:0:0:
320,64,101405,1,8,0:0:0:0:
320,64,101488,1,8,0:0:0:0:
64,64,101571,1,0,0:0:0:0:
320,64,101655,1,8,0:0:0:0:
320,64,101738,1,8,0:0:0:0:
64,64,101821,1,0,0:0:0:0:
320,64,101905,1,8,0:0:0:0:
320,64,101988,1,8,0:0:0:0:
256,192,102071,12,0,102571,0:0:0:0:
320,64,102738,5,8,0:0:0:0:
64,64,102821,1,0,0:0:0:0:
64,64,102905,1,0,0:0:0:0:
320,64,102988,1,8,0:0:0:0:
64,64,103155,1,0,0:0:0:0:
320,64,103238,1,8,0:0:0:0:
64,64,103405,1,0,0:0:0:0:
320,64,103571,1,8,0:0:0:0:
64,64,103738,1,0,0:0:0:0:
64,64,103821,1,0,0:0:0:0:
64,64,104071,1,0,0:0:0:0:
64,64,104155,1,0,0:0:0:0:
320,64,104238,1,8,0:0:0:0:
64,64,104405,1,0,0:0:0:0:
320,64,104488,1,8,0:0:0:0:
320,64,104571,1,8,0:0:0:0:
64,64,104655,1,0,0:0:0:0:
320,64,104738,1,8,0:0:0:0:
64,64,104821,1,0,0:0:0:0:
64,64,104988,1,0,0:0:0:0:
320,64,105071,1,8,0:0:0:0:
320,64,105155,1,8,0:0:0:0:
320,64,105238,1,8,0:0:0:0:
320,64,105321,1,8,0:0:0:0:
64,64,105405,1,0,0:0:0:0:
64,64,105488,1,0,0:0:0:0:
320,64,105571,1,8,0:0:0:0:
64,64,105738,1,0,0:0:0:0:
320,64,105821,1,8,0:0:0:0:
320,64,105905,1,8,0:0:0:0:
64,64,105988,1,0,0:0:0:0:
64,64,106071,1,0,0:0:0:0:
320,64,106155,1,8,0:0:0:0:
64,64,106321,1,0,0:0:0:0:
320,64,106405,1,8,0:0:0:0:
320,64,106488,1,8,0:0:0:0:
64,64,106571,1,0,0:0:0:0:
64,64,106655,1,0,0:0:0:0:
320,64,106738,1,8,0:0:0:0:
64,64,106905,1,0,0:0:0:0:
320,64,107071,1,8,0:0:0:0:
320,64,107154,1,8,0:0:0:0:
64,64,107237,1,0,0:0:0:0:
320,64,107321,1,8,0:0:0:0:
64,64,107405,1,0,0:0:0:0:
64,64,107488,1,0,0:0:0:0:
320,64,107571,1,8,0:0:0:0:
320,64,107738,1,8,0:0:0:0:
320,64,107821,1,8,0:0:0:0:
320,64,107905,1,8,0:0:0:0:
64,64,107988,1,0,0:0:0:0:
320,64,108071,1,8,0:0:0:0:
64,64,108155,1,0,0:0:0:0:
320,64,108238,1,8,0:0:0:0:
64,64,108405,1,0,0:0:0:0:
64,64,108571,1,0,0:0:0:0:
320,64,108738,1,8,0:0:0:0:
64,64,108905,1,0,0:0:0:0:
64,64,109071,1,0,0:0:0:0:
320,64,109155,1,8,0:0:0:0:
64,64,109238,1,0,0:0:0:0:
64,64,109321,1,0,0:0:0:0:
320,64,109405,1,8,0:0:0:0:
320,64,109571,1,8,0:0:0:0:
64,64,109738,1,0,0:0:0:0:
64,64,109905,1,0,0:0:0:0:
320,64,110071,1,8,0:0:0:0:
64,64,110155,1,0,0:0:0:0:
320,64,110238,1,8,0:0:0:0:
320,64,110405,1,8,0:0:0:0:
320,64,110488,1,8,0:0:0:0:
320,64,110571,1,8,0:0:0:0:
320,64,110655,1,8,0:0:0:0:
64,64,110738,1,0,0:0:0:0:
320,64,110821,1,8,0:0:0:0:
320,64,110905,1,8,0:0:0:0:
64,64,111071,1,0,0:0:0:0:
320,64,111238,1,8,0:0:0:0:
64,64,111321,1,0,0:0:0:0:
320,64,111405,1,8,0:0:0:0:
64,64,111571,1,0,0:0:0:0:
320,64,111655,1,8,0:0:0:0:
64,64,111738,1,0,0:0:0:0:
320,64,111821,1,8,0:0:0:0:
64,64,111988,1,0,0:0:0:0:
320,64,112071,1,8,0:0:0:0:
64,64,112155,1,0,0:0:0:0:
320,64,112238,1,8,0:0:0:0:
64,64,112321,1,0,0:0:0:0:
320,64,112488,1,8,0:0:0:0:
64,64,112571,1,0,0:0:0:0:
320,64,112738,1,8,0:0:0:0:
320,64,112905,1,8,0:0:0:0:
320,64,113071,1,8,0:0:0:0:
64,64,113238,1,0,0:0:0:0:
320,64,113405,1,8,0:0:0:0:
320,64,113655,1,8,0:0:0:0:
64,64,113738,1,0,0:0:0:0:
320,64,113905,1,8,0:0:0:0:
64,64,114071,1,0,0:0:0:0:
320,64,114238,1,8,0:0:0:0:
64,64,114405,1,0,0:0:0:0:
320,64,114488,1,8,0:0:0:0:
64,64,114738,1,0,0:0:0:0:
320,64,114821,1,8,0:0:0:0:
320,64,114905,1,8,0:0:0:0:
64,64,114988,1,0,0:0:0:0:
320,64,115071,1,8,0:0:0:0:
320,64,115155,1,8,0:0:0:0:
64,64,115238,1,0,0:0:0:0:
64,64,115321,1,0,0:0:0:0:
320,64,115405,1,8,0:0:0:0:
320,64,115571,1,8,0:0:0:0:
320,64,115738,1,8,0:0:0:0:
320,64,115821,1,8,0:0:0:0:
64,64,115988,1,0,0:0:0:0:
320,64,116071,1,8,0:0:0:0:
320,64,116155,1,8,0:0:0:0:
320,64,116238,1,8,0:0:0:0:
64,64,116321,1,0,0:0:0:0:
320,64,116405,1,8,0:0:0:0:
64,64,116488,1,0,0:0:0:0:
320,64,116571,1,8,0:0:0:0:
64,64,116655,1,0,0:0:0:0:
64,64,116821,1,0,0:0:0:0:
320,64,116905,1,8,0:0:0:0:
64,64,117071,1,0,0:0:0:0:
320,64,117155,1,8,0:0:0:0:
320,64,117321,1,8,0:0:0:0:
64,64,117405,1,0,0:0:0:0:
64,64,117488,1,0,0:0:0:0:
320,64,117571,1,8,0:0:0:0:
64,64,117655,1,0,0:0:0:0:
64,64,117738,1,0,0:0:0:0:
64,64,117821,1,0,0:0:0:0:
320,64,117905,1,8,0:0:0:0:
64,64,117988,1,0,0:0:0:0:
64,64,118071,1,0,0:0:0:0:
320,64,118155,1,8,0:0:0:0:
320,64,118238,1,8,0:0:0:0:
64,64,118321,1,0,0:0:0:0:
320,64,118405,1,8,0:0:0:0:
320,64,118488,1,8,0:0:0:0:
320,64,118571,1,8,0:0:0:0:
320,64,118655,1,8,0:0:0:0:
64,64,118738,1,0,0:0:0:0:
320,64,118988,1,8,0:0:0:0:
64,64,119071,1,0,0:0:0:0:
320,64,119238,1,8,0:0:0:0:
64,64,119405,1,0,0:0:0:0:
320,64,119488,1,8,0:0:0:0:
64,64,119738,1,0,0:0:0:0:
64,64,119905,1,0,0:0:0:0:
320,64,120071,1,8,0:0:0:0:
64,64,120155,1,0,0:0:0:0:
64,64,120238,1,0,0:0:0:0:
64,64,120321,1,0,0:0:0:0:
320,64,120405,1,8,0:0:0:0:
64,64,120488,1,0,0:0:0:0:
64,64,120571,1,0,0:0:0:0:
64,64,120655,1,0,0:0:0:0:
320,64,120738,1,8,0:0:0:0:
64,64,120821,1,0,0:0:0:0:
64,64,120905,1,0,0:0:0:0:
64,64,120988,1,0,0:0:0:0:
320,64,121071,1,8,0:0:0:0:
320,64,121155,1,8,0:0:0:0:
64,64,121405,1,0,0:0:0:0:
320,64,121488,1,8,0:0:0:0:
64,64,121571,1,0,0:0:0:0:
64,64,121655,1,0,0:0:0:0:
64,64,121821,1,0,0:0:0:0:
320,64,121905,1,8,0:0:0:0:
320,64,122071,1,8,0:0:0:0:
64,64,122238,1,0,0:0:0:0:
320,64,122405,1,8,0:0:0:0:
64,64,122488,1,0,0:0:0:0:
64,64,122571,1,0,0:0:0:0:
64,64,122655,1,0,0:0:0:0:
320,64,122738,1,8,0:0:0:0:
64,64,122905,1,0,0:0:0:0:
64,64,122988,1,0,0:0:0:0:
64,64,123155,1,0,0:0:0:0:
320,64,123238,1,8,0:0:0:0:
256,192,123405,12,0,123905,0:0:0:0:
320,64,124071,5,8,0:0:0:0:
64,64,124154,1,0,0:0:0:0:
320,64,124238,1,8,0:0:0:0:
320,64,124321,1,8,0:0:0:0:
64,64,124404,1,0,0:0:0:0:
64,64,124488,1,0,0:0:0:0:
320,64,124571,1,8,0:0:0:0:
320,64,124654,1,8,0:0:0:0:
64,64,124738,1,0,0:0:0:0:
320,64,124821,1,8,0:0:0:0:
64,64,124904,1,0,0:0:0:0:
64,64,124988,1,0,0:0:0:0:
320,64,125071,1,8,0:0:0:0:
320,64,125154,1,8,0:0:0:0:
64,64,125238,1,0,0:0:0:0:
320,64,125321,1,8,0:0:0:0:
64,64,125404,1,0,0:0:0:0:
320,64,125488,1,8,0:0:0:0:
64,64,125571,1,0,0:0:0:0:
64,64,125654,1,0,0:0:0:0:
320,64,125738,1,8,0:0:0:0:
64,64,125821,1,0,0:0:0:0:
320,64,125904,1,8,0:0:0:0:
320,64,125988,1,8,0:0:0:0:
64,64,126071,1,0,0:0:0:0:
64,64,126238,1,0,0:0:0:0:
320,64,126405,1,8,0:0:0:0:
320,64,126488,1,8,0:0:0:0:
320,64,126571,1,8,0:0:0:0:
320,64,126655,1,8,0:0:0:0:
64,64,126738,1,0,0:0:0:0:
64,64,126821,1,0,0:0:0:0:
320,64,126905,1,8,0:0:0:0:
64,64,126988,1,0,0:0:0:0:
320,64,127071,1,8,0:0:0:0:
320,64,127155,1,8,0:0:0:0:
64,64,127238,1,0,0:0:0:0:
64,64,127321,1,0,0:0:0:0:
320,64,127405,1,8,0:0:0:0:
64,64,127571,1,0,0:0:0:0:
320,64,127655,1,8,0:0:0:0:
64,64,127821,1,0,0:0:0:0:
320,64,127905,1,8,0:0:0:0:
64,64,128071,1,0,0:0:0:0:
64,64,128155,1,0,0:0:0:0:
320,64,128238,1,8,0:0:0:0:
64,64,128405,1,0,0:0:0:0:
320,64,128488,1,8,0:0:0:0:
64,64,128571,1,0,0:0:0:0:
64,64,128655,1,0,0:0:0:0:
320,64,128738,1,8,0:0:0:0:
64,64,128905,1,0,0:0:0:0:
320,64,128988,1,8,0:0:0:0:
64,64,129155,1,0,0:0:0:0:
320,64,129238,1,8,0:0:0:0:
320,64,129321,1,8,0:0:0:0:
64,64,129405,1,0,0:0:0:0:
64,64,129488,1,0,0:0:0:0:
320,64,129572,1,8,0:0:0:0:
64,64,129655,1,0,0:0:0:0:
320,64,129738,1,8,0:0:0:0:
320,64,129821,1,8,0:0:0:0:
64,64,129905,1,0,0:0:0:0:
320,64,129988,1,8,0:0:0:0:
64,64,130072,1,0,0:0:0:0:
320,64,130155,1,8,0:0:0:0:
64,64,130238,1,0,0:0:0:0:
64,64,130322,1,0,0:0:0:0:
320,64,130405,1,8,0:0:0:0:
320,64,130488,1,8,0:0:0:0:
64,64,130572,1,0,0:0:0:0:
320,64,130655,1,8,0:0:0:0:
64,64,130738,1,0,0:0:0:0:
320,64,130822,1,8,0:0:0:0:
64,64,130905,1,0,0:0:0:0:
64,64,130988,1,0,0:0:0:0:
320,64,131072,1,8,0:0:0:0:
64,64,131155,1,0,0:0:0:0:
320,64,131238,1,8,0:0:0:0:
320,64,131322,1,8,0:0:0:0:
64,64,131405,1,0,0:0:0:0:
64,64,131572,1,0,0:0:0:0:
320,64,131739,1,8,0:0:0:0:
320,64,131821,1,8,0:0:0:0:
320,64,131905,1,8,0:0:0:0:
320,64,131989,1,8,0:0:0:0:
64,64,132071,1,0,0:0:0:0:
64,64,132155,1,0,0:0:0:0:
320,64,132238,1,8,0:0:0:0:
64,64,132321,1,0,0:0:0:0:
320,64,132405,1,8,0:0:0:0:
64,64,132488,1,0,0:0:0:0:
320,64,132571,1,8,0:0:0:0:
320,64,132655,1,8,0:0:0:0:
64,64,132738,1,0,0:0:0:0:
64,64,132821,1,0,0:0:0:0:
320,64,132905,1,8,0:0:0:0:
320,64,132988,1,8,0:0:0:0:
64,64,133071,1,0,0:0:0:0:
320,64,133155,1,8,0:0:0:0:
64,64,133238,1,0,0:0:0:0:
320,64,133321,1,8,0:0:0:0:
64,64,133405,1,0,0:0:0:0:
64,64,133488,1,0,0:0:0:0:
64,64,133571,1,0,0:0:0:0:
64,64,133655,1,0,0:0:0:0:
320,64,133738,1,8,0:0:0:0:
320,64,133821,1,8,0:0:0:0:
320,64,133905,1,8,0:0:0:0:
320,64,133988,1,8,0:0:0:0:
256,192,134071,12,0,134571,0:0:0:0:
320,64,134738,5,8,0:0:0:0:
64,64,134905,1,0,0:0:0:0:
320,64,134988,1,8,0:0:0:0:
64,64,135155,1,0,0:0:0:0:
320,64,135238,1,8,0:0:0:0:
320,64,135321,1,8,0:0:0:0:
64,64,135405,1,0,0:0:0:0:
64,64,135571,1,0,0:0:0:0:
64,64,135655,1,0,0:0:0:0:
320,64,135738,1,8,0:0:0:0:
320,64,135821,1,8,0:0:0:0:
64,64,135905,1,0,0:0:0:0:
320,64,135988,1,8,0:0:0:0:
64,64,136071,1,0,0:0:0:0:
320,64,136238,1,8,0:0:0:0:
64,64,136321,1,0,0:0:0:0:
64,64,136405,1,0,0:0:0:0:
64,64,136571,1,0,0:0:0:0:
320,64,136738,1,8,0:0:0:0:
64,64,136821,1,0,0:0:0:0:
64,64,136988,1,0,0:0:0:0:
320,64,137071,1,8,0:0:0:0:
64,64,137155,1,0,0:0:0:0:
320,64,137238,1,8,0:0:0:0:
320,64,137321,1,8,0:0:0:0:
64,64,137405,1,0,0:0:0:0:
64,64,137571,1,0,0:0:0:0:
64,64,137655,1,0,0:0:0:0:
64,64,137821,1,0,0:0:0:0:
320,64,137905,1,8,0:0:0:0:
320,64,137988,1,8,0:0:0:0:
64,64,138071,1,0,0:0:0:0:
320,64,138238,1,8,0:0:0:0:
64,64,138321,1,0,0:0:0:0:
320,64,138405,1,8,0:0:0:0:
320,64,138488,1,8,0:0:0:0:
64,64,138571,1,0,0:0:0:0:
64,64,138655,1,0,0:0:0:0:
320,64,138738,1,8,0:0:0:0:
64,64,138905,1,0,0:0:0:0:
64,64,138988,1,0,0:0:0:0:
320,64,139071,1,8,0:0:0:0:
320,64,139238,1,8,0:0:0:0:
320,64,139321,1,8,0:0:0:0:
64,64,139405,1,0,0:0:0:0:
320,64,139488,1,8,0:0:0:0:
64,64,139571,1,0,0:0:0:0:
320,64,139655,1,8,0:0:0:0:
64,64,139738,1,0,0:0:0:0:
320,64,139821,1,8,0:0:0:0:
320,64,139905,1,8,0:0:0:0:
320,64,139988,1,8,0:0:0:0:
64,64,140071,1,0,0:0:0:0:
320,64,140238,1,8,0:0:0:0:
64,64,140321,1,0,0:0:0:0:
64,64,140488,1,0,0:0:0:0:
320,64,140571,1,8,0:0:0:0:
320,64,140654,1,8,0:0:0:0:
64,64,140738,1,0,0:0:0:0:
64,64,140904,1,0,0:0:0:0:
64,64,140988,1,0,0:0:0:0:
320,64,141071,1,8,0:0:0:0:
320,64,141154,1,8,0:0:0:0:
64,64,141238,1,0,0:0:0:0:
64,64,141321,1,0,0:0:0:0:
320,64,141404,1,8,0:0:0:0:
320,64,141571,1,8,0:0:0:0:
64,64,141654,1,0,0:0:0:0:
64,64,141738,1,0,0:0:0:0:
64,64,141904,1,0,0:0:0:0:
320,64,142071,1,8,0:0:0:0:
64,64,142154,1,0,0:0:0:0:
64,64,142321,1,0,0:0:0:0:
320,64,142404,1,8,0:0:0:0:
320,64,142571,1,8,0:0:0:0:
320,64,142654,1,8,0:0:0:0:
64,64,142738,1,0,0:0:0:0:
64,64,142904,1,0,0:0:0:0:
64,64,142988,1,0,0:0:0:0:
320,64,143071,1,8,0:0:0:0:
64,64,143154,1,0,0:0:0:0:
64,64,143321,1,0,0:0:0:0:
320,64,143404,1,8,0:0:0:0:
320,64,143571,1,8,0:0:0:0:
64,64,143654,1,0,0:0:0:0:
320,64,143738,1,8,0:0:0:0:
320,64,143821,1,8,0:0:0:0:
64,64,143904,1,0,0:0:0:0:
320,64,143988,1,8,0:0:0:0:
64,64,144071,1,0,0:0:0:0:
64,64,144155,1,0,0:0:0:0:
64,64,144238,1,0,0:0:0:0:
64,64,144321,1,0,0:0:0:0:
320,64,144404,1,8,0:0:0:0:
320,64,144488,1,8,0:0:0:0:
320,64,144571,1,8,0:0:0:0:
320,64,144654,1,8,0:0:0:0:
64,64,144738,1,0,0:0:0:0:
64,64,144821,1,0,0:0:0:0:
64,64,144904,1,0,0:0:0:0:
64,64,144988,1,0,0:0:0:0:
320,64,145071,1,8,0:0:0:0:
320,64,145154,1,8,0:0:0:0:
320,64,145238,1,8,0:0:0:0:
320,64,145321,1,8,0:0:0:0:
256,192,145405,12,0,145655,0:0:0:0:
256,192,145738,12,0,145988,0:0:0:0:
256,192,146071,12,0,146321,0:0:0:0:
256,192,146405,12,0,146655,0:0:0:0:
64,64,146738,5,4,0:0:0:0:
64,64,147071,1,4,0:0:0:0:
320,64,147405,1,8,0:0:0:0:
320,64,147488,1,8,0:0:0:0:
64,64,147571,1,0,0:0:0:0:
320,64,147655,1,8,0:0:0:0:
320,64,147738,1,8,0:0:0:0:
64,64,147821,1,0,0:0:0:0:
320,64,147905,1,8,0:0:0:0:
320,64,148071,1,12,0:0:0:0:
64,64,148321,1,4,0:0:0:0:
64,64,148571,1,4,0:0:0:0:
320,64,148738,1,12,0:0:0:0:
320,64,149071,1,12,0:0:0:0:
64,64,149238,1,4,0:0:0:0:
320,64,149405,1,12,0:0:0:0:
320,64,149738,1,8,0:0:0:0:
64,64,149849,1,0,0:0:0:0:
64,64,149960,1,0,0:0:0:0:
320,64,150071,1,8,0:0:0:0:
320,64,150155,1,8,0:0:0:0:
64,64,150238,1,0,0:0:0:0:
320,64,150321,1,8,0:0:0:0:
64,64,150405,1,0,0:0:0:0:
64,64,150488,1,0,0:0:0:0:
320,64,150571,1,8,0:0:0:0:
320,64,150738,1,8,0:0:0:0:
64,64,150821,1,0,0:0:0:0:
320,64,150905,1,8,0:0:0:0:
64,64,151071,1,4,0:0:0:0:
64,64,151238,1,4,0:0:0:0:
320,64,151405,1,12,0:0:0:0:
320,64,151738,1,12,0:0:0:0:
320,64,151905,1,12,0:0:0:0:
320,64,152071,1,8,0:0:0:0:
64,64,152405,1,0,0:0:0:0:
320,64,152738,1,8,0:0:0:0:
320,64,152821,1,8,0:0:0:0:
64,64,152905,1,0,0:0:0:0:
320,64,152988,1,8,0:0:0:0:
320,64,153071,1,8,0:0:0:0:
64,64,153155,1,0,0:0:0:0:
320,64,153238,1,8,0:0:0:0:
320,64,153405,1,12,0:0:0:0:
64,64,153655,1,4,0:0:0:0:
64,64,153905,1,4,0:0:0:0:
320,64,154071,1,12,0:0:0:0:
320,64,154405,1,12,0:0:0:0:
64,64,154571,1,4,0:0:0:0:
320,64,154738,1,12,0:0:0:0:
320,64,155071,1,8,0:0:0:0:
64,64,155183,1,0,0:0:0:0:
64,64,155294,1,0,0:0:0:0:
320,64,155405,1,8,0:0:0:0:
320,64,155488,1,8,0:0:0:0:
64,64,155571,1,0,0:0:0:0:
320,64,155655,1,8,0:0:0:0:
64,64,155738,1,0,0:0:0:0:
64,64,155821,1,0,0:0:0:0:
320,64,155905,1,8,0:0:0:0:
320,64,156071,1,8,0:0:0:0:
64,64,156155,1,0,0:0:0:0:
320,64,156238,1,8,0:0:0:0:
64,64,156405,1,4,0:0:0:0:
64,64,156571,1,4,0:0:0:0:
320,64,156738,1,12,0:0:0:0:
320,64,157071,1,12,0:0:0:0:
320,64,157238,1,12,0:0:0:0:
0,0,157405,1,0,0:0:0:0:
0,0,157488,1,8,0:0:0:0:
0,0,157571,1,0,0:0:0:0:
0,0,157655,1,0,0:0:0:0:
0,0,157738,1,8,0:0:0:0:
0,0,157821,1,0,0:0:0:0:
0,0,157905,1,8,0:0:0:0:
0,0,157988,1,8,0:0:0:0:
0,0,158071,1,0,0:0:0:0:
0,0,158238,1,0,0:0:0:0:
0,0,158321,1,0,0:0:0:0:
0,0,158405,1,0,0:0:0:0:
0,0,158488,1,0,0:0:0:0:
0,0,158571,1,0,0:0:0:0:
64,64,158655,1,0,0:0:0:0:
320,64,158738,1,8,0:0:0:0:
0,0,158905,1,0,0:0:0:0:
0,0,158988,1,8,0:0:0:0:
0,0,159071,1,0,0:0:0:0:
0,0,159238,1,8,0:0:0:0:
0,0,159321,1,8,0:0:0:0:
0,0,159405,1,0,0:0:0:0:
0,0,159488,1,8,0:0:0:0:
0,0,159655,1,8,0:0:0:0:
0,0,159738,1,0,0:0:0:0:
0,0,159905,1,8,0:0:0:0:
0,0,159988,1,0,0:0:0:0:
0,0,160071,1,0,0:0:0:0:
0,0,160155,1,8,0:0:0:0:
0,0,160321,1,0,0:0:0:0:
0,0,160405,1,8,0:0:0:0:
0,0,160571,1,8,0:0:0:0:
0,0,160655,1,8,0:0:0:0:
0,0,160738,1,0,0:0:0:0:
0,0,160821,1,8,0:0:0:0:
0,0,160905,1,8,0:0:0:0:
0,0,160988,1,0,0:0:0:0:
320,64,161071,1,8,0:0:0:0:
320,64,161155,1,8,0:0:0:0:
0,0,161238,1,8,0:0:0:0:
320,64,161321,1,8,0:0:0:0:
64,64,161405,1,0,0:0:0:0:
0,0,161571,1,8,0:0:0:0:
0,0,161655,1,8,0:0:0:0:
64,64,161738,1,0,0:0:0:0:
0,0,161905,1,8,0:0:0:0:
0,0,161988,1,8,0:0:0:0:
0,0,162071,1,0,0:0:0:0:
0,0,162155,1,8,0:0:0:0:
0,0,162321,1,8,0:0:0:0:
0,0,162405,1,0,0:0:0:0:
320,64,162571,1,8,0:0:0:0:
0,0,162655,1,0,0:0:0:0:
0,0,162738,1,0,0:0:0:0:
0,0,162821,1,8,0:0:0:0:
0,0,162988,1,0,0:0:0:0:
0,0,163071,1,8,0:0:0:0:
0,0,163238,1,8,0:0:0:0:
0,0,163321,1,8,0:0:0:0:
0,0,163405,1,0,0:0:0:0:
0,0,163488,1,8,0:0:0:0:
320,64,163571,1,8,0:0:0:0:
0,0,163655,1,0,0:0:0:0:
320,64,163738,1,8,0:0:0:0:
320,64,163821,1,8,0:0:0:0:
320,64,163905,1,8,0:0:0:0:
320,64,163988,1,8,0:0:0:0:
0,0,164071,1,0,0:0:0:0:
0,0,164238,1,0,0:0:0:0:
0,0,164321,1,8,0:0:0:0:
0,0,164405,1,0,0:0:0:0:
0,0,164571,1,8,0:0:0:0:
0,0,164655,1,8,0:0:0:0:
0,0,164738,1,0,0:0:0:0:
0,0,164821,1,8,0:0:0:0:
0,0,164988,1,8,0:0:0:0:
0,0,165071,1,0,0:0:0:0:
0,0,165238,1,8,0:0:0:0:
0,0,165321,1,0,0:0:0:0:
0,0,165405,1,0,0:0:0:0:
0,0,165488,1,8,0:0:0:0:
0,0,165655,1,0,0:0:0:0:
0,0,165738,1,8,0:0:0:0:
0,0,165905,1,8,0:0:0:0:
0,0,165988,1,8,0:0:0:0:
0,0,166071,1,0,0:0:0:0:
0,0,166155,1,8,0:0:0:0:
0,0,166238,1,8,0:0:0:0:
0,0,166321,1,0,0:0:0:0:
0,0,166405,1,8,0:0:0:0:
0,0,166488,1,8,0:0:0:0:
0,0,166571,1,8,0:0:0:0:
0,0,166655,1,8,0:0:0:0:
0,0,166738,1,0,0:0:0:0:
0,0,166905,1,8,0:0:0:0:
0,0,166988,1,8,0:0:0:0:
0,0,167071,1,0,0:0:0:0:
0,0,167238,1,8,0:0:0:0:
0,0,167321,1,8,0:0:0:0:
0,0,167405,1,0,0:0:0:0:
0,0,167488,1,8,0:0:0:0:
0,0,167655,1,8,0:0:0:0:
0,0,167738,1,0,0:0:0:0:
320,64,167905,1,8,0:0:0:0:
0,0,167988,1,0,0:0:0:0:
0,0,168071,1,0,0:0:0:0:
0,0,168155,1,8,0:0:0:0:
0,0,168321,1,0,0:0:0:0:
0,0,168405,1,8,0:0:0:0:
0,0,168571,1,8,0:0:0:0:
0,0,168655,1,8,0:0:0:0:
0,0,168738,1,0,0:0:0:0:
0,0,168821,1,8,0:0:0:0:
0,0,168905,1,0,0:0:0:0:
64,64,168988,1,0,0:0:0:0:
0,0,169071,1,8,0:0:0:0:
64,64,169405,1,0,0:0:0:0:
320,64,169489,1,8,0:0:0:0:
320,64,169572,1,8,0:0:0:0:
64,64,169655,1,0,0:0:0:0:
320,64,169739,1,8,0:0:0:0:
320,64,169822,1,8,0:0:0:0:
64,64,169905,1,0,0:0:0:0:
320,64,169989,1,8,0:0:0:0:
64,64,170072,1,0,0:0:0:0:
64,64,170155,1,0,0:0:0:0:
320,64,170239,1,8,0:0:0:0:
64,64,170322,1,0,0:0:0:0:
64,64,170405,1,0,0:0:0:0:
320,64,170489,1,8,0:0:0:0:
320,64,170572,1,8,0:0:0:0:
320,64,170655,1,8,0:0:0:0:
64,64,170739,1,0,0:0:0:0:
320,64,170822,1,8,0:0:0:0:
320,64,170905,1,8,0:0:0:0:
64,64,170989,1,0,0:0:0:0:
320,64,171072,1,8,0:0:0:0:
320,64,171155,1,8,0:0:0:0:
64,64,171239,1,0,0:0:0:0:
320,64,171322,1,8,0:0:0:0:
64,64,171405,1,0,0:0:0:0:
320,64,171572,1,8,0:0:0:0:
320,64,171655,1,8,0:0:0:0:
64,64,171822,1,0,0:0:0:0:
64,64,171905,1,0,0:0:0:0:
64,64,172072,1,0,0:0:0:0:
320,64,172155,1,8,0:0:0:0:
320,64,172239,1,8,0:0:0:0:
64,64,172322,1,0,0:0:0:0:
320,64,172405,1,8,0:0:0:0:
320,64,172489,1,8,0:0:0:0:
64,64,172572,1,0,0:0:0:0:
320,64,172655,1,8,0:0:0:0:
64,64,172739,1,0,0:0:0:0:
64,64,172822,1,0,0:0:0:0:
320,64,172905,1,8,0:0:0:0:
64,64,172989,1,0,0:0:0:0:
64,64,173072,1,0,0:0:0:0:
320,64,173155,1,8,0:0:0:0:
320,64,173239,1,8,0:0:0:0:
320,64,173322,1,8,0:0:0:0:
64,64,173405,1,0,0:0:0:0:
320,64,173489,1,8,0:0:0:0:
320,64,173572,1,8,0:0:0:0:
64,64,173655,1,0,0:0:0:0:
320,64,173739,1,8,0:0:0:0:
320,64,173822,1,8,0:0:0:0:
64,64,173905,1,0,0:0:0:0:
320,64,173989,1,8,0:0:0:0:
64,64,174072,1,0,0:0:0:0:
320,64,174239,1,8,0:0:0:0:
64,64,174322,1,0,0:0:0:0:
320,64,174489,1,8,0:0:0:0:
64,64,174572,1,0,0:0:0:0:
64,64,174739,1,0,0:0:0:0:
320,64,174822,1,8,0:0:0:0:
320,64,174905,1,8,0:0:0:0:
64,64,174989,1,0,0:0:0:0:
320,64,175072,1,8,0:0:0:0:
320,64,175155,1,8,0:0:0:0:
64,64,175239,1,0,0:0:0:0:
320,64,175322,1,8,0:0:0:0:
64,64,175405,1,0,0:0:0:0:
64,64,175489,1,0,0:0:0:0:
320,64,175572,1,8,0:0:0:0:
64,64,175655,1,0,0:0:0:0:
64,64,175739,1,0,0:0:0:0:
320,64,175822,1,8,0:0:0:0:
320,64,175905,1,8,0:0:0:0:
320,64,175989,1,8,0:0:0:0:
64,64,176072,1,0,0:0:0:0:
64,64,176155,1,0,0:0:0:0:
64,64,176239,1,0,0:0:0:0:
64,64,176322,1,0,0:0:0:0:
320,64,176405,1,8,0:0:0:0:
320,64,176489,1,8,0:0:0:0:
320,64,176572,1,8,0:0:0:0:
320,64,176655,1,8,0:0:0:0:
64,64,176739,1,0,0:0:0:0:
64,64,176850,1,0,0:0:0:0:
64,64,176961,1,0,0:0:0:0:
320,64,177072,1,8,0:0:0:0:
320,64,177183,1,8,0:0:0:0:
320,64,177294,1,8,0:0:0:0:
64,64,177405,1,0,0:0:0:0:
320,64,177489,1,8,0:0:0:0:
320,64,177572,1,8,0:0:0:0:
64,64,177655,1,0,0:0:0:0:
320,64,177739,1,8,0:0:0:0:
320,64,177822,1,8,0:0:0:0:
64,64,177905,1,0,0:0:0:0:
320,64,177989,1,8,0:0:0:0:
64,64,178072,1,0,0:0:0:0:
64,64,178155,1,0,0:0:0:0:
320,64,178239,1,8,0:0:0:0:
64,64,178322,1,0,0:0:0:0:
64,64,178405,1,0,0:0:0:0:
320,64,178489,1,8,0:0:0:0:
320,64,178572,1,8,0:0:0:0:
320,64,178655,1,8,0:0:0:0:
64,64,178739,1,0,0:0:0:0:
320,64,178822,1,8,0:0:0:0:
320,64,178905,1,8,0:0:0:0:
64,64,178989,1,0,0:0:0:0:
320,64,179072,1,8,0:0:0:0:
320,64,179238,1,8,0:0:0:0:
320,64,179405,1,8,0:0:0:0:
320,64,179571,1,8,0:0:0:0:
320,64,179738,1,8,0:0:0:0:
320,64,179821,1,8,0:0:0:0:
320,64,179905,1,8,0:0:0:0:
320,64,179988,1,8,0:0:0:0:
64,64,180072,1,0,0:0:0:0:
64,64,180738,1,0,0:0:0:0:
320,64,180904,1,8,0:0:0:0:
64,64,180988,1,0,0:0:0:0:
320,64,181154,1,8,0:0:0:0:
64,64,181238,1,0,0:0:0:0:
320,64,181321,1,8,0:0:0:0:
64,64,181404,1,0,0:0:0:0:
64,64,181571,1,0,0:0:0:0:
64,64,181654,1,0,0:0:0:0:
64,64,181821,1,0,0:0:0:0:
320,64,181904,1,8,0:0:0:0:
64,64,181988,1,0,0:0:0:0:
320,64,182071,1,8,0:0:0:0:
64,64,182238,1,0,0:0:0:0:
320,64,182321,1,8,0:0:0:0:
64,64,182488,1,0,0:0:0:0:
64,64,182571,1,0,0:0:0:0:
64,64,182654,1,0,0:0:0:0:
320,64,182738,1,8,0:0:0:0:
64,64,182904,1,0,0:0:0:0:
64,64,182988,1,0,0:0:0:0:
320,64,183154,1,8,0:0:0:0:
64,64,183238,1,0,0:0:0:0:
320,64,183321,1,8,0:0:0:0:
64,64,183404,1,0,0:0:0:0:
320,64,183571,1,8,0:0:0:0:
64,64,183654,1,0,0:0:0:0:
64,64,183821,1,0,0:0:0:0:
320,64,183905,1,8,0:0:0:0:
320,64,183988,1,8,0:0:0:0:
64,64,184071,1,0,0:0:0:0:
320,64,184238,1,8,0:0:0:0:
320,64,184321,1,8,0:0:0:0:
320,64,184488,1,8,0:0:0:0:
320,64,184571,1,8,0:0:0:0:
320,64,184654,1,8,0:0:0:0:
64,64,184738,1,0,0:0:0:0:
320,64,184904,1,8,0:0:0:0:
320,64,184988,1,8,0:0:0:0:
320,64,185071,1,8,0:0:0:0:
320,64,185154,1,8,0:0:0:0:
320,64,185238,1,8,0:0:0:0:
320,64,185321,1,8,0:0:0:0:
64,64,185405,1,0,0:0:0:0:
64,64,185571,1,0,0:0:0:0:
320,64,185655,1,8,0:0:0:0:
320,64,185821,1,8,0:0:0:0:
64,64,185905,1,0,0:0:0:0:
64,64,186071,1,0,0:0:0:0:
64,64,186238,1,0,0:0:0:0:
64,64,186321,1,0,0:0:0:0:
64,64,186488,1,0,0:0:0:0:
320,64,186571,1,8,0:0:0:0:
64,64,186738,1,0,0:0:0:0:
64,64,186905,1,0,0:0:0:0:
320,64,186988,1,8,0:0:0:0:
320,64,187155,1,8,0:0:0:0:
64,64,187238,1,0,0:0:0:0:
320,64,187405,1,8,0:0:0:0:
320,64,187571,1,8,0:0:0:0:
64,64,187655,1,0,0:0:0:0:
64,64,187821,1,0,0:0:0:0:
320,64,187905,1,8,0:0:0:0:
320,64,188071,1,8,0:0:0:0:
64,64,188238,1,0,0:0:0:0:
320,64,188327,1,8,0:0:0:0:
320,64,188511,1,8,0:0:0:0:
64,64,188605,1,0,0:0:0:0:
64,64,188803,1,0,0:0:0:0:
64,64,189002,1,0,0:0:0:0:
64,64,189106,1,0,0:0:0:0:
64,64,189316,1,0,0:0:0:0:
320,64,189421,1,8,0:0:0:0:
320,64,189643,1,8,0:0:0:0:
64,64,189877,1,0,0:0:0:0:
320,64,189994,1,8,0:0:0:0:
320,64,190228,1,8,0:0:0:0:
64,64,190355,1,0,0:0:0:0:
320,64,190609,1,8,0:0:0:0:
320,64,190740,1,8,0:0:0:0:
64,64,190872,1,0,0:0:0:0:
64,64,191012,1,0,0:0:0:0:
320,64,191162,1,8,0:0:0:0:
320,64,191240,1,8,0:0:0:0:
64,64,191319,1,0,0:0:0:0:
64,64,191398,1,0,0:0:0:0:
320,64,191477,1,8,0:0:0:0:
64,64,191556,1,0,0:0:0:0:
320,64,191635,1,8,0:0:0:0:
64,64,191793,1,0,0:0:0:0:
64,64,191959,1,0,0:0:0:0:
320,64,192126,1,8,0:0:0:0:
64,64,192293,1,0,0:0:0:0:
320,64,192459,1,8,0:0:0:0:
320,64,192626,1,8,0:0:0:0:
64,64,192793,1,0,0:0:0:0:
320,64,192959,1,8,0:0:0:0:
64,64,193126,1,0,0:0:0:0:
64,64,193293,1,0,0:0:0:0:
320,64,193459,1,8,0:0:0:0:
320,64,193626,1,8,0:0:0:0:
64,64,193793,1,0,0:0:0:0:
320,64,193959,1,8,0:0:0:0:
64,64,194126,1,0,0:0:0:0:
320,64,194293,1,8,0:0:0:0:
64,64,194459,1,0,0:0:0:0:
64,64,194618,1,0,0:0:0:0:
320,64,194778,1,8,0:0:0:0:
64,64,194937,1,0,0:0:0:0:
320,64,195097,1,8,0:0:0:0:
320,64,195256,1,8,0:0:0:0:
64,64,195416,1,0,0:0:0:0:
320,64,195576,1,8,0:0:0:0:
64,64,195735,1,0,0:0:0:0:
64,64,195885,1,0,0:0:0:0:
320,64,196035,1,8,0:0:0:0:
320,64,196185,1,8,0:0:0:0:
64,64,196335,1,0,0:0:0:0:
64,64,196485,1,0,0:0:0:0:
320,64,196635,1,8,0:0:0:0:
64,64,196785,1,0,0:0:0:0:
320,64,196935,1,8,0:0:0:0:
64,64,197077,1,0,0:0:0:0:
320,64,197220,1,8,0:0:0:0:
64,64,197363,1,0,0:0:0:0:
320,64,197506,1,8,0:0:0:0:
320,64,197649,1,8,0:0:0:0:
64,64,197792,1,0,0:0:0:0:
320,64,197935,1,8,0:0:0:0:
64,64,198077,1,0,0:0:0:0:
64,64,198215,1,0,0:0:0:0:
320,64,198354,1,8,0:0:0:0:
320,64,198493,1,8,0:0:0:0:
320,64,198771,1,8,0:0:0:0:
64,64,198910,1,0,0:0:0:0:
320,64,199049,1,8,0:0:0:0:
64,64,199188,1,0,0:0:0:0:
64,64,199324,1,0,0:0:0:0:
320,64,199454,1,8,0:0:0:0:
64,64,199584,1,0,0:0:0:0:
320,64,199715,1,8,0:0:0:0:
320,64,199845,1,8,0:0:0:0:
64,64,199976,1,0,0:0:0:0:
320,64,200106,1,8,0:0:0:0:
64,64,200237,1,0,0:0:0:0:
320,64,200492,1,8,0:0:0:0:
64,64,200617,1,0,0:0:0:0:
320,64,200742,1,8,0:0:0:0:
64,64,200867,1,0,0:0:0:0:
320,64,200992,1,8,0:0:0:0:
320,64,201117,1,8,0:0:0:0:
64,64,201242,1,0,0:0:0:0:
64,64,201362,1,0,0:0:0:0:
320,64,201482,1,8,0:0:0:0:
64,64,201602,1,0,0:0:0:0:
320,64,201722,1,8,0:0:0:0:
64,64,201837,1,0,0:0:0:0:
320,64,201952,1,8,0:0:0:0:
320,64,202068,1,8,0:0:0:0:
64,64,202183,1,0,0:0:0:0:
64,64,202298,1,0,0:0:0:0:
320,64,202409,1,8,0:0:0:0:
320,64,202520,1,8,0:0:0:0:
320,64,202738,1,8,0:0:0:0:
320,64,202845,1,8,0:0:0:0:
320,64,202952,1,8,0:0:0:0:
64,64,203059,1,0,0:0:0:0:
64,64,203162,1,0,0:0:0:0:
320,64,203265,1,8,0:0:0:0:
64,64,203369,1,0,0:0:0:0:
320,64,203472,1,8,0:0:0:0:
64,64,203576,1,0,0:0:0:0:
64,64,203676,1,0,0:0:0:0:
320,64,203776,1,8,0:0:0:0:
64,64,203876,1,0,0:0:0:0:
64,64,203976,1,0,0:0:0:0:
320,64,204076,1,8,0:0:0:0:
320,64,204176,1,8,0:0:0:0:
320,64,204369,1,8,0:0:0:0:
64,64,204463,1,0,0:0:0:0:
64,64,204557,1,0,0:0:0:0:
320,64,204651,1,8,0:0:0:0:
64,64,204741,1,0,0:0:0:0:
320,64,204832,1,8,0:0:0:0:
320,64,204923,1,8,0:0:0:0:
64,64,205014,1,0,0:0:0:0:
320,64,205102,1,8,0:0:0:0:
64,64,205190,1,0,0:0:0:0:
320,64,205278,1,8,0:0:0:0:
64,64,205366,1,0,0:0:0:0:
64,64,205455,1,0,0:0:0:0:
320,64,205543,1,8,0:0:0:0:
320,64,205628,1,8,0:0:0:0:
320,64,205800,1,8,0:0:0:0:
64,64,205885,1,0,0:0:0:0:
320,64,205971,1,8,0:0:0:0:
64,64,206057,1,0,0:0:0:0:
64,64,206140,1,0,0:0:0:0:
320,64,206223,1,8,0:0:0:0:
64,64,206307,1,0,0:0:0:0:
320,64,206390,1,8,0:0:0:0:
64,64,206473,1,0,0:0:0:0:
64,64,206557,1,0,0:0:0:0:
64,64,206640,1,0,0:0:0:0:
320,64,206723,1,12,0:0:0:0:
64,64,206890,1,0,0:0:0:0:
320,64,206973,1,12,0:0:0:0:
64,64,207140,1,0,0:0:0:0:
320,64,207223,1,8,0:0:0:0:
320,64,207307,1,8,0:0:0:0:
64,64,207390,1,0,0:0:0:0:
320,64,207556,1,8,0:0:0:0:
64,64,207640,1,0,0:0:0:0:
320,64,207723,1,8,0:0:0:0:
320,64,207890,1,8,0:0:0:0:
320,64,207973,1,8,0:0:0:0:
64,64,208056,1,0,0:0:0:0:
64,64,208140,1,0,0:0:0:0:
320,64,208223,1,8,0:0:0:0:
320,64,208306,1,8,0:0:0:0:
320,64,208473,1,8,0:0:0:0:
64,64,208556,1,0,0:0:0:0:
320,64,208640,1,8,0:0:0:0:
64,64,208723,1,0,0:0:0:0:
64,64,208806,1,0,0:0:0:0:
320,64,208890,1,8,0:0:0:0:
64,64,208973,1,0,0:0:0:0:
320,64,209056,1,8,0:0:0:0:
64,64,209223,1,0,0:0:0:0:
320,64,209306,1,8,0:0:0:0:
64,64,209390,1,0,0:0:0:0:
64,64,209473,1,0,0:0:0:0:
320,64,209556,1,8,0:0:0:0:
320,64,209640,1,8,0:0:0:0:
320,64,209806,1,8,0:0:0:0:
64,64,209890,1,0,0:0:0:0:
64,64,209973,1,0,0:0:0:0:
320,64,210056,1,8,0:0:0:0:
64,64,210140,1,0,0:0:0:0:
320,64,210223,1,8,0:0:0:0:
64,64,210306,1,0,0:0:0:0:
320,64,210390,1,8,0:0:0:0:
64,64,210556,1,0,0:0:0:0:
320,64,210640,1,8,0:0:0:0:
64,64,210723,1,0,0:0:0:0:
64,64,210806,1,0,0:0:0:0:
320,64,210890,1,8,0:0:0:0:
320,64,210973,1,8,0:0:0:0:
64,64,211140,1,0,0:0:0:0:
320,64,211223,1,8,0:0:0:0:
64,64,211306,1,0,0:0:0:0:
320,64,211390,1,8,0:0:0:0:
320,64,211473,1,8,0:0:0:0:
64,64,211556,1,0,0:0:0:0:
64,64,211640,1,0,0:0:0:0:
320,64,211723,1,8,0:0:0:0:
64,64,211806,1,0,0:0:0:0:
320,64,211890,1,8,0:0:0:0:
64,64,211973,1,0,0:0:0:0:
320,64,212056,1,8,0:0:0:0:
320,64,212140,1,8,0:0:0:0:
320,64,212223,1,8,0:0:0:0:
64,64,212306,1,0,0:0:0:0:
320,64,212390,1,8,0:0:0:0:
64,64,212473,1,0,0:0:0:0:
320,64,212556,1,8,0:0:0:0:
320,64,212640,1,8,0:0:0:0:
64,64,212723,1,0,0:0:0:0:
64,64,212806,1,0,0:0:0:0:
320,64,212890,1,8,0:0:0:0:
64,64,212973,1,0,0:0:0:0:
320,64,213056,1,8,0:0:0:0:
320,64,213223,1,8,0:0:0:0:
320,64,213306,1,8,0:0:0:0:
64,64,213390,1,0,0:0:0:0:
64,64,213473,1,0,0:0:0:0:
320,64,213556,1,8,0:0:0:0:
320,64,213640,1,8,0:0:0:0:
320,64,213806,1,8,0:0:0:0:
64,64,213890,1,0,0:0:0:0:
320,64,213973,1,8,0:0:0:0:
64,64,214056,1,0,0:0:0:0:
64,64,214140,1,0,0:0:0:0:
320,64,214223,1,8,0:0:0:0:
320,64,214390,1,8,0:0:0:0:
64,64,214473,1,0,0:0:0:0:
64,64,214556,1,0,0:0:0:0:
320,64,214640,1,8,0:0:0:0:
64,64,214723,1,0,0:0:0:0:
320,64,214806,1,8,0:0:0:0:
64,64,214890,1,0,0:0:0:0:
320,64,214973,1,8,0:0:0:0:
64,64,215056,1,0,0:0:0:0:
64,64,215140,1,0,0:0:0:0:
320,64,215223,1,8,0:0:0:0:
320,64,215306,1,8,0:0:0:0:
64,64,215390,1,0,0:0:0:0:
64,64,215473,1,0,0:0:0:0:
320,64,215556,1,8,0:0:0:0:
64,64,215640,1,0,0:0:0:0:
320,64,215723,1,8,0:0:0:0:
64,64,215890,1,0,0:0:0:0:
320,64,215973,1,8,0:0:0:0:
64,64,216056,1,0,0:0:0:0:
64,64,216140,1,0,0:0:0:0:
320,64,216223,1,8,0:0:0:0:
320,64,216306,1,8,0:0:0:0:
64,64,216473,1,0,0:0:0:0:
320,64,216556,1,8,0:0:0:0:
320,64,216640,1,8,0:0:0:0:
64,64,216723,1,0,0:0:0:0:
64,64,216806,1,0,0:0:0:0:
320,64,216890,1,8,0:0:0:0:
64,64,216973,1,0,0:0:0:0:
320,64,217056,1,8,0:0:0:0:
64,64,217140,1,0,0:0:0:0:
320,64,217223,1,8,0:0:0:0:
320,64,217306,1,8,0:0:0:0:
64,64,217390,1,0,0:0:0:0:
320,64,217473,1,8,0:0:0:0:
64,64,217556,1,0,0:0:0:0:
320,64,217640,1,8,0:0:0:0:
64,64,217723,1,0,0:0:0:0:
320,64,217806,1,8,0:0:0:0:
320,64,217890,1,8,0:0:0:0:
320,64,217973,1,8,0:0:0:0:
64,64,218056,1,0,0:0:0:0:
320,64,218223,1,8,0:0:0:0:
64,64,218307,1,0,0:0:0:0:
320,64,218390,1,8,0:0:0:0:
320,64,218557,1,8,0:0:0:0:
320,64,218640,1,8,0:0:0:0:
64,64,218723,1,0,0:0:0:0:
64,64,218807,1,0,0:0:0:0:
320,64,218890,1,8,0:0:0:0:
320,64,218973,1,8,0:0:0:0:
320,64,219140,1,8,0:0:0:0:
64,64,219223,1,0,0:0:0:0:
320,64,219307,1,8,0:0:0:0:
64,64,219390,1,0,0:0:0:0:
64,64,219473,1,0,0:0:0:0:
320,64,219557,1,8,0:0:0:0:
64,64,219640,1,0,0:0:0:0:
320,64,219723,1,8,0:0:0:0:
64,64,219890,1,0,0:0:0:0:
320,64,219973,1,8,0:0:0:0:
64,64,220057,1,0,0:0:0:0:
64,64,220140,1,0,0:0:0:0:
320,64,220223,1,8,0:0:0:0:
320,64,220307,1,8,0:0:0:0:
320,64,220473,1,8,0:0:0:0:
64,64,220557,1,0,0:0:0:0:
64,64,220640,1,0,0:0:0:0:
320,64,220723,1,8,0:0:0:0:
64,64,220807,1,0,0:0:0:0:
320,64,220890,1,8,0:0:0:0:
64,64,220973,1,0,0:0:0:0:
320,64,221057,1,8,0:0:0:0:
64,64,221223,1,0,0:0:0:0:
320,64,221307,1,8,0:0:0:0:
64,64,221390,1,0,0:0:0:0:
64,64,221473,1,0,0:0:0:0:
320,64,221557,1,8,0:0:0:0:
320,64,221640,1,8,0:0:0:0:
64,64,221807,1,0,0:0:0:0:
320,64,221890,1,8,0:0:0:0:
64,64,221973,1,0,0:0:0:0:
320,64,222057,1,8,0:0:0:0:
320,64,222140,1,8,0:0:0:0:
64,64,222223,1,0,0:0:0:0:
64,64,222307,1,0,0:0:0:0:
320,64,222390,1,8,0:0:0:0:
64,64,222473,1,0,0:0:0:0:
320,64,222557,1,8,0:0:0:0:
64,64,222640,1,0,0:0:0:0:
320,64,222723,1,8,0:0:0:0:
320,64,222807,1,8,0:0:0:0:
320,64,222890,1,8,0:0:0:0:
64,64,222973,1,0,0:0:0:0:
320,64,223057,1,8,0:0:0:0:
64,64,223140,1,0,0:0:0:0:
320,64,223223,1,8,0:0:0:0:
320,64,223307,1,8,0:0:0:0:
64,64,223390,1,0,0:0:0:0:
64,64,223473,1,0,0:0:0:0:
320,64,223557,1,8,0:0:0:0:
64,64,223640,1,0,0:0:0:0:
320,64,223723,1,8,0:0:0:0:
320,64,223890,1,8,0:0:0:0:
320,64,223973,1,8,0:0:0:0:
64,64,224057,1,0,0:0:0:0:
64,64,224140,1,0,0:0:0:0:
320,64,224223,1,8,0:0:0:0:
320,64,224307,1,8,0:0:0:0:
320,64,224473,1,8,0:0:0:0:
64,64,224557,1,0,0:0:0:0:
320,64,224640,1,8,0:0:0:0:
64,64,224723,1,0,0:0:0:0:
64,64,224807,1,0,0:0:0:0:
320,64,224890,1,8,0:0:0:0:
320,64,225056,1,8,0:0:0:0:
64,64,225140,1,0,0:0:0:0:
64,64,225223,1,0,0:0:0:0:
64,64,225306,1,0,0:0:0:0:
320,64,225390,1,12,0:0:0:0:
64,64,225556,1,4,0:0:0:0:
320,64,225723,1,12,0:0:0:0:
320,64,225890,1,12,0:0:0:0:
64,64,226056,1,0,0:0:0:0:
64,64,226140,1,0,0:0:0:0:
320,64,226223,1,8,0:0:0:0:
64,64,226306,1,0,0:0:0:0:
320,64,226390,1,8,0:0:0:0:
320,64,226556,1,8,0:0:0:0:
320,64,226640,1,8,0:0:0:0:
64,64,226723,1,0,0:0:0:0:
64,64,226806,1,0,0:0:0:0:
320,64,226890,1,8,0:0:0:0:
320,64,226973,1,8,0:0:0:0:
64,64,227140,1,0,0:0:0:0:
320,64,227223,1,8,0:0:0:0:
64,64,227306,1,0,0:0:0:0:
320,64,227390,1,8,0:0:0:0:
320,64,227473,1,8,0:0:0:0:
320,64,227556,1,8,0:0:0:0:
64,64,227640,1,0,0:0:0:0:
320,64,227723,1,8,0:0:0:0:
64,64,227806,1,0,0:0:0:0:
64,64,227890,1,0,0:0:0:0:
64,64,227973,1,0,0:0:0:0:
320,64,228056,1,8,0:0:0:0:
320,64,228139,1,8,0:0:0:0:
64,64,228223,1,0,0:0:0:0:
320,64,228306,1,8,0:0:0:0:
320,64,228389,1,8,0:0:0:0:
64,64,228473,1,0,0:0:0:0:
320,64,228556,1,8,0:0:0:0:
320,64,228639,1,8,0:0:0:0:
64,64,228723,1,0,0:0:0:0:
320,64,229056,1,8,0:0:0:0:
64,64,229139,1,0,0:0:0:0:
320,64,229223,1,8,0:0:0:0:
320,64,229306,1,8,0:0:0:0:
320,64,229473,1,8,0:0:0:0:
320,64,229556,1,8,0:0:0:0:
320,64,229639,1,8,0:0:0:0:
64,64,229723,1,0,0:0:0:0:
320,64,229806,1,8,0:0:0:0:
64,64,229889,1,0,0:0:0:0:
320,64,229973,1,8,0:0:0:0:
64,64,230139,1,0,0:0:0:0:
320,64,230223,1,8,0:0:0:0:
64,64,230306,1,0,0:0:0:0:
320,64,230389,1,8,0:0:0:0:
64,64,230473,1,0,0:0:0:0:
320,64,230556,1,8,0:0:0:0:
320,64,230639,1,8,0:0:0:0:
64,64,230723,1,0,0:0:0:0:
320,64,230806,1,8,0:0:0:0:
320,64,230889,1,8,0:0:0:0:
64,64,230973,1,0,0:0:0:0:
64,64,231056,1,0,0:0:0:0:
320,64,231139,1,8,0:0:0:0:
64,64,231223,1,0,0:0:0:0:
320,64,231306,1,8,0:0:0:0:
64,64,231473,1,0,0:0:0:0:
320,64,231556,1,8,0:0:0:0:
64,64,231639,1,0,0:0:0:0:
320,64,231723,1,8,0:0:0:0:
320,64,231889,1,8,0:0:0:0:
320,64,231973,1,8,0:0:0:0:
64,64,232056,1,0,0:0:0:0:
64,64,232139,1,0,0:0:0:0:
320,64,232223,1,8,0:0:0:0:
64,64,232306,1,0,0:0:0:0:
320,64,232389,1,8,0:0:0:0:
320,64,232473,1,8,0:0:0:0:
64,64,232556,1,0,0:0:0:0:
320,64,232639,1,8,0:0:0:0:
64,64,232806,1,0,0:0:0:0:
320,64,232889,1,8,0:0:0:0:
64,64,232973,1,0,0:0:0:0:
320,64,233056,1,8,0:0:0:0:
64,64,233139,1,0,0:0:0:0:
320,64,233223,1,8,0:0:0:0:
320,64,233306,1,8,0:0:0:0:
64,64,233389,1,0,0:0:0:0:
320,64,233473,1,8,0:0:0:0:
64,64,233556,1,0,0:0:0:0:
64,64,233639,1,0,0:0:0:0:
320,64,233723,1,8,0:0:0:0:
320,64,233806,1,8,0:0:0:0:
64,64,233889,1,0,0:0:0:0:
320,64,233973,1,8,0:0:0:0:
64,64,234139,1,0,0:0:0:0:
320,64,234223,1,8,0:0:0:0:
64,64,234306,1,0,0:0:0:0:
320,64,234389,1,8,0:0:0:0:
320,64,234556,1,8,0:0:0:0:
320,64,234639,1,8,0:0:0:0:
64,64,234723,1,0,0:0:0:0:
64,64,234806,1,0,0:0:0:0:
320,64,234889,1,8,0:0:0:0:
320,64,234973,1,8,0:0:0:0:
64,64,235056,1,0,0:0:0:0:
320,64,235139,1,8,0:0:0:0:
64,64,235223,1,0,0:0:0:0:
320,64,235306,1,8,0:0:0:0:
320,64,235473,1,8,0:0:0:0:
320,64,235556,1,8,0:0:0:0:
64,64,235639,1,0,0:0:0:0:
320,64,235723,1,8,0:0:0:0:
320,64,235806,1,8,0:0:0:0:
64,64,235889,1,0,0:0:0:0:
320,64,236056,1,8,0:0:0:0:
320,64,236139,1,8,0:0:0:0:
320,64,236223,1,8,0:0:0:0:
64,64,236306,1,0,0:0:0:0:
320,64,236389,1,8,0:0:0:0:
64,64,236473,1,0,0:0:0:0:
320,64,236556,1,8,0:0:0:0:
320,64,236639,1,8,0:0:0:0:
64,64,236806,1,0,0:0:0:0:
320,64,236889,1,8,0:0:0:0:
64,64,236973,1,0,0:0:0:0:
320,64,237056,1,8,0:0:0:0:
320,64,237223,1,8,0:0:0:0:
320,64,237306,1,8,0:0:0:0:
64,64,237389,1,0,0:0:0:0:
320,64,237473,1,8,0:0:0:0:
320,64,237556,1,8,0:0:0:0:
64,64,237639,1,0,0:0:0:0:
320,64,237723,1,8,0:0:0:0:
64,64,237806,1,0,0:0:0:0:
320,64,237889,1,8,0:0:0:0:
320,64,237973,1,8,0:0:0:0:
64,64,238139,1,0,0:0:0:0:
320,64,238223,1,8,0:0:0:0:
64,64,238306,1,0,0:0:0:0:
320,64,238389,1,8,0:0:0:0:
320,64,238473,1,8,0:0:0:0:
64,64,238556,1,0,0:0:0:0:
320,64,238639,1,8,0:0:0:0:
64,64,238723,1,0,0:0:0:0:
320,64,238806,1,8,0:0:0:0:
320,64,238889,1,8,0:0:0:0:
64,64,238973,1,0,0:0:0:0:
320,64,239056,1,8,0:0:0:0:
64,64,239139,1,0,0:0:0:0:
64,64,239223,1,0,0:0:0:0:
64,64,239306,1,0,0:0:0:0:
320,64,239389,1,8,0:0:0:0:
64,64,239723,1,0,0:0:0:0:
64,64,239806,1,0,0:0:0:0:
320,64,239890,1,8,0:0:0:0:
64,64,239973,1,0,0:0:0:0:
320,64,240056,1,12,0:0:0:0:
64,64,240223,1,0,0:0:0:0:
320,64,240306,1,12,0:0:0:0:
64,64,240473,1,0,0:0:0:0:
320,64,240556,1,12,0:0:0:0:
64,64,240723,1,0,0:0:0:0:
64,64,240806,1,0,0:0:0:0:
320,64,240890,1,8,0:0:0:0:
64,64,240973,1,0,0:0:0:0:
320,64,241056,1,8,0:0:0:0:
320,64,241140,1,8,0:0:0:0:
64,64,241223,1,0,0:0:0:0:
64,64,241306,1,0,0:0:0:0:
320,64,241390,1,12,0:0:0:0:
64,64,241556,1,0,0:0:0:0:
320,64,241640,1,12,0:0:0:0:
64,64,241806,1,0,0:0:0:0:
320,64,241890,1,12,0:0:0:0:
64,64,242056,1,0,0:0:0:0:
64,64,242140,1,0,0:0:0:0:
320,64,242223,1,8,0:0:0:0:
320,64,242306,1,8,0:0:0:0:
64,64,242390,1,0,0:0:0:0:
64,64,242473,1,0,0:0:0:0:
320,64,242556,1,8,0:0:0:0:
320,64,242640,1,8,0:0:0:0:
320,64,242723,1,8,0:0:0:0:
64,64,242806,1,0,0:0:0:0:
320,64,242890,1,8,0:0:0:0:
320,64,242973,1,8,0:0:0:0:
64,64,243056,1,0,0:0:0:0:
320,64,243140,1,8,0:0:0:0:
64,64,243223,1,0,0:0:0:0:
64,64,243390,1,0,0:0:0:0:
64,64,243473,1,0,0:0:0:0:
320,64,243556,1,8,0:0:0:0:
64,64,243640,1,0,0:0:0:0:
320,64,243723,1,8,0:0:0:0:
64,64,243806,1,0,0:0:0:0:
320,64,243890,1,8,0:0:0:0:
320,64,243973,1,8,0:0:0:0:
256,192,244056,12,0,244306,0:0:0:0:
256,192,244389,12,0,244639,0:0:0:0:
320,64,244723,5,8,0:0:0:0:
64,64,244806,1,0,0:0:0:0:
320,64,244890,1,8,0:0:0:0:
320,64,244973,1,8,0:0:0:0:
64,64,245056,1,0,0:0:0:0:
64,64,245140,1,0,0:0:0:0:
320,64,245223,1,8,0:0:0:0:
320,64,245306,1,8,0:0:0:0:
320,64,245473,1,8,0:0:0:0:
64,64,245556,1,0,0:0:0:0:
64,64,245640,1,0,0:0:0:0:
320,64,245723,1,8,0:0:0:0:
320,64,245806,1,8,0:0:0:0:
64,64,245890,1,0,0:0:0:0:
320,64,245973,1,8,0:0:0:0:
64,64,246140,1,0,0:0:0:0:
320,64,246223,1,8,0:0:0:0:
64,64,246306,1,0,0:0:0:0:
320,64,246390,1,8,0:0:0:0:
320,64,246473,1,8,0:0:0:0:
64,64,246556,1,0,0:0:0:0:
320,64,246640,1,8,0:0:0:0:
320,64,246723,1,8,0:0:0:0:
320,64,246806,1,8,0:0:0:0:
64,64,246890,1,0,0:0:0:0:
64,64,246973,1,0,0:0:0:0:
320,64,247056,1,8,0:0:0:0:
64,64,247140,1,0,0:0:0:0:
320,64,247223,1,8,0:0:0:0:
64,64,247306,1,0,0:0:0:0:
320,64,247473,1,8,0:0:0:0:
64,64,247556,1,0,0:0:0:0:
320,64,247640,1,8,0:0:0:0:
64,64,247723,1,0,0:0:0:0:
64,64,247806,1,0,0:0:0:0:
320,64,247890,1,8,0:0:0:0:
320,64,247973,1,8,0:0:0:0:
64,64,248056,1,0,0:0:0:0:
320,64,248140,1,8,0:0:0:0:
64,64,248223,1,0,0:0:0:0:
64,64,248306,1,0,0:0:0:0:
320,64,248390,1,8,0:0:0:0:
320,64,248473,1,8,0:0:0:0:
64,64,248556,1,0,0:0:0:0:
320,64,248640,1,8,0:0:0:0:
64,64,248723,1,0,0:0:0:0:
320,64,248806,1,8,0:0:0:0:
320,64,248890,1,8,0:0:0:0:
64,64,248973,1,0,0:0:0:0:
320,64,249056,1,8,0:0:0:0:
320,64,249140,1,8,0:0:0:0:
64,64,249223,1,0,0:0:0:0:
320,64,249306,1,8,0:0:0:0:
256,192,249389,12,0,249889,0:0:0:0:
64,64,250056,5,0,0:0:0:0:
320,64,250140,1,8,0:0:0:0:
320,64,250223,1,8,0:0:0:0:
64,64,250306,1,0,0:0:0:0:
320,64,250390,1,8,0:0:0:0:
320,64,250473,1,8,0:0:0:0:
64,64,250556,1,0,0:0:0:0:
320,64,250640,1,8,0:0:0:0:
64,64,250723,1,0,0:0:0:0:
64,64,250806,1,0,0:0:0:0:
320,64,250890,1,8,0:0:0:0:
64,64,250973,1,0,0:0:0:0:
64,64,251056,1,0,0:0:0:0:
320,64,251140,1,8,0:0:0:0:
320,64,251223,1,8,0:0:0:0:
320,64,251306,1,8,0:0:0:0:
64,64,251390,1,0,0:0:0:0:
320,64,251473,1,8,0:0:0:0:
320,64,251556,1,8,0:0:0:0:
64,64,251640,1,0,0:0:0:0:
320,64,251723,1,8,0:0:0:0:
320,64,251806,1,8,0:0:0:0:
64,64,251890,1,0,0:0:0:0:
320,64,251973,1,8,0:0:0:0:
64,64,252056,1,0,0:0:0:0:
320,64,252223,1,8,0:0:0:0:
320,64,252306,1,8,0:0:0:0:
320,64,252473,1,8,0:0:0:0:
320,64,252556,1,8,0:0:0:0:
64,64,252723,1,0,0:0:0:0:
320,64,252806,1,8,0:0:0:0:
320,64,252890,1,8,0:0:0:0:
64,64,252973,1,0,0:0:0:0:
320,64,253056,1,8,0:0:0:0:
320,64,253140,1,8,0:0:0:0:
64,64,253223,1,0,0:0:0:0:
320,64,253306,1,8,0:0:0:0:
64,64,253390,1,0,0:0:0:0:
64,64,253473,1,0,0:0:0:0:
320,64,253556,1,8,0:0:0:0:
64,64,253640,1,0,0:0:0:0:
64,64,253723,1,0,0:0:0:0:
320,64,253806,1,8,0:0:0:0:
320,64,253890,1,8,0:0:0:0:
320,64,253973,1,8,0:0:0:0:
64,64,254056,1,0,0:0:0:0:
320,64,254140,1,8,0:0:0:0:
320,64,254223,1,8,0:0:0:0:
64,64,254306,1,0,0:0:0:0:
320,64,254390,1,8,0:0:0:0:
320,64,254473,1,8,0:0:0:0:
64,64,254556,1,0,0:0:0:0:
320,64,254640,1,8,0:0:0:0:
64,64,254723,1,0,0:0:0:0:
320,64,254890,1,8,0:0:0:0:
64,64,254973,1,0,0:0:0:0:
320,64,255056,1,8,0:0:0:0:
320,64,255140,1,8,0:0:0:0:
320,64,255223,1,8,0:0:0:0:
64,64,255390,1,0,0:0:0:0:
320,64,255473,1,8,0:0:0:0:
320,64,255556,1,8,0:0:0:0:
64,64,255640,1,0,0:0:0:0:
320,64,255723,1,8,0:0:0:0:
320,64,255806,1,8,0:0:0:0:
64,64,255890,1,0,0:0:0:0:
320,64,255973,1,8,0:0:0:0:
64,64,256056,1,0,0:0:0:0:
64,64,256140,1,0,0:0:0:0:
320,64,256223,1,8,0:0:0:0:
64,64,256306,1,0,0:0:0:0:
64,64,256390,1,0,0:0:0:0:
320,64,256473,1,8,0:0:0:0:
320,64,256556,1,8,0:0:0:0:
320,64,256640,1,8,0:0:0:0:
64,64,256723,1,0,0:0:0:0:
64,64,256806,1,0,0:0:0:0:
64,64,256890,1,0,0:0:0:0:
64,64,256973,1,0,0:0:0:0:
320,64,257056,1,8,0:0:0:0:
320,64,257140,1,8,0:0:0:0:
320,64,257223,1,8,0:0:0:0:
320,64,257306,1,8,0:0:0:0:
64,64,257389,1,0,0:0:0:0:
64,64,257501,1,0,0:0:0:0:
64,64,257612,1,0,0:0:0:0:
320,64,257723,1,8,0:0:0:0:
320,64,257834,1,8,0:0:0:0:
320,64,257945,1,8,0:0:0:0:
64,64,258056,1,0,0:0:0:0:
320,64,258140,1,8,0:0:0:0:
320,64,258223,1,8,0:0:0:0:
64,64,258306,1,0,0:0:0:0:
320,64,258390,1,8,0:0:0:0:
320,64,258473,1,8,0:0:0:0:
64,64,258556,1,0,0:0:0:0:
320,64,258640,1,8,0:0:0:0:
64,64,258723,1,0,0:0:0:0:
64,64,258806,1,0,0:0:0:0:
320,64,258890,1,8,0:0:0:0:
64,64,258973,1,0,0:0:0:0:
64,64,259056,1,0,0:0:0:0:
320,64,259140,1,8,0:0:0:0:
320,64,259223,1,8,0:0:0:0:
320,64,259306,1,8,0:0:0:0:
64,64,259390,1,0,0:0:0:0:
320,64,259473,1,8,0:0:0:0:
320,64,259556,1,8,0:0:0:0:
64,64,259640,1,0,0:0:0:0:
320,64,259723,1,8,0:0:0:0:
320,64,259889,1,8,0:0:0:0:
320,64,260056,1,8,0:0:0:0:
320,64,260222,1,8,0:0:0:0:
320,64,260389,1,8,0:0:0:0:
320,64,260472,1,8,0:0:0:0:
320,64,260556,1,8,0:0:0:0:
320,64,260639,1,8,0:0:0:0:
64,64,260723,1,0,0:0:0:0:
64,64,261389,1,0,0:0:0:0:
320,64,261555,1,8,0:0:0:0:
64,64,261639,1,0,0:0:0:0:
320,64,261805,1,8,0:0:0:0:
64,64,261889,1,0,0:0:0:0:
320,64,261972,1,8,0:0:0:0:
64,64,262055,1,0,0:0:0:0:
64,64,262222,1,0,0:0:0:0:
64,64,262305,1,0,0:0:0:0:
64,64,262472,1,0,0:0:0:0:
320,64,262555,1,8,0:0:0:0:
64,64,262639,1,0,0:0:0:0:
320,64,262722,1,8,0:0:0:0:
64,64,262889,1,0,0:0:0:0:
320,64,262972,1,8,0:0:0:0:
64,64,263139,1,0,0:0:0:0:
64,64,263222,1,0,0:0:0:0:
64,64,263305,1,0,0:0:0:0:
320,64,263389,1,8,0:0:0:0:
64,64,263555,1,0,0:0:0:0:
64,64,263639,1,0,0:0:0:0:
320,64,263805,1,8,0:0:0:0:
64,64,263889,1,0,0:0:0:0:
320,64,263972,1,8,0:0:0:0:
64,64,264055,1,0,0:0:0:0:
320,64,264222,1,8,0:0:0:0:
64,64,264305,1,0,0:0:0:0:
64,64,264473,1,0,0:0:0:0:
320,64,264556,1,8,0:0:0:0:
320,64,264639,1,8,0:0:0:0:
64,64,264723,1,0,0:0:0:0:
320,64,264889,1,8,0:0:0:0:
320,64,264972,1,8,0:0:0:0:
320,64,265139,1,8,0:0:0:0:
320,64,265222,1,8,0:0:0:0:
320,64,265305,1,8,0:0:0:0:
64,64,265389,1,0,0:0:0:0:
320,64,265555,1,8,0:0:0:0:
320,64,265639,1,8,0:0:0:0:
320,64,265722,1,8,0:0:0:0:
320,64,265805,1,8,0:0:0:0:
320,64,265889,1,8,0:0:0:0:
320,64,265972,1,8,0:0:0:0:
64,64,266056,1,0,0:0:0:0:
320,64,266223,1,8,0:0:0:0:
64,64,266306,1,0,0:0:0:0:
320,64,266473,1,8,0:0:0:0:
64,64,266556,1,0,0:0:0:0:
64,64,266723,1,0,0:0:0:0:
64,64,266806,1,0,0:0:0:0:
64,64,266889,1,0,0:0:0:0:
64,64,266973,1,0,0:0:0:0:
64,64,267056,1,0,0:0:0:0:
64,64,267139,1,0,0:0:0:0:
64,64,267223,1,0,0:0:0:0:
64,64,267306,1,0,0:0:0:0:
320,64,267389,1,12,0:0:0:0:
320,64,267639,1,8,0:0:0:0:
64,64,267723,1,0,0:0:0:0:
64,64,267889,1,0,0:0:0:0:
64,64,267973,1,0,0:0:0:0:
320,64,268056,1,8,0:0:0:0:
320,64,268223,1,8,0:0:0:0:
64,64,268389,1,0,0:0:0:0:
320,64,268556,1,8,0:0:0:0:
64,64,268639,1,0,0:0:0:0:
320,64,268723,1,8,0:0:0:0:
64,64,268889,1,0,0:0:0:0:
320,64,268973,1,8,0:0:0:0:
64,64,269139,1,0,0:0:0:0:
320,64,269223,1,8,0:0:0:0:
64,64,269306,1,0,0:0:0:0:
320,64,269389,1,8,0:0:0:0:
64,64,269556,1,0,0:0:0:0:
320,64,269639,1,8,0:0:0:0:
320,64,269806,1,8,0:0:0:0:
64,64,269889,1,0,0:0:0:0:
64,64,269973,1,0,0:0:0:0:
320,64,270056,1,8,0:0:0:0:
320,64,270223,1,8,0:0:0:0:
320,64,270306,1,8,0:0:0:0:
64,64,270473,1,0,0:0:0:0:
320,64,270556,1,8,0:0:0:0:
320,64,270639,1,8,0:0:0:0:
64,64,270723,1,0,0:0:0:0:
64,64,270806,1,0,0:0:0:0:
320,64,270889,1,8,0:0:0:0:
64,64,271056,1,0,0:0:0:0:
320,64,271139,1,8,0:0:0:0:
320,64,271306,1,8,0:0:0:0:
320,64,271389,1,8,0:0:0:0:
64,64,271556,1,0,0:0:0:0:
320,64,271639,1,8,0:0:0:0:
64,64,271806,1,0,0:0:0:0:
64,64,271889,1,0,0:0:0:0:
64,64,271973,1,0,0:0:0:0:
320,64,272056,1,8,0:0:0:0:
320,64,272223,1,8,0:0:0:0:
64,64,272389,1,0,0:0:0:0:
64,64,272556,1,0,0:0:0:0:
320,64,272723,1,8,0:0:0:0:
64,64,272806,1,0,0:0:0:0:
320,64,272889,1,8,0:0:0:0:
64,64,272973,1,0,0:0:0:0:
320,64,273056,1,8,0:0:0:0:
320,64,273223,1,8,0:0:0:0:
64,64,273306,1,0,0:0:0:0:
320,64,273389,1,8,0:0:0:0:
320,64,273556,1,8,0:0:0:0:
320,64,273723,1,8,0:0:0:0:
320,64,273889,1,8,0:0:0:0:
320,64,274056,1,8,0:0:0:0:
320,64,274139,1,8,0:0:0:0:
320,64,274223,1,8,0:0:0:0:
64,64,274306,1,0,0:0:0:0:
64,64,274556,1,0,0:0:0:0:
320,64,274723,1,8,0:0:0:0:
320,64,274889,1,8,0:0:0:0:
320,64,274973,1,8,0:0:0:0:
64,64,275056,1,0,0:0:0:0:
64,64,275139,1,0,0:0:0:0:
64,64,275223,1,0,0:0:0:0:
64,64,275306,1,0,0:0:0:0:
320,64,275389,1,8,0:0:0:0:
320,64,275556,1,8,0:0:0:0:
64,64,275639,1,0,0:0:0:0:
320,64,275723,1,8,0:0:0:0:
320,64,275889,1,8,0:0:0:0:
64,64,275973,1,0,0:0:0:0:
320,64,276056,1,8,0:0:0:0:
320,64,276223,1,8,0:0:0:0:
64,64,276306,1,0,0:0:0:0:
320,64,276389,1,8,0:0:0:0:
320,64,276473,1,8,0:0:0:0:
64,64,276556,1,0,0:0:0:0:
64,64,276639,1,0,0:0:0:0:
320,64,276723,1,8,0:0:0:0:
64,64,276889,1,0,0:0:0:0:
320,64,277056,1,8,0:0:0:0:
320,64,277139,1,8,0:0:0:0:
320,64,277306,1,8,0:0:0:0:
320,64,277473,1,8,0:0:0:0:
64,64,277639,1,0,0:0:0:0:
320,64,277723,1,8,0:0:0:0:
320,64,278056,1,8,0:0:0:0:
320,64,278139,1,8,0:0:0:0:
64,64,278223,1,0,0:0:0:0:
64,64,278389,1,0,0:0:0:0:
320,64,278473,1,8,0:0:0:0:
320,64,278556,1,8,0:0:0:0:
64,64,278723,1,0,0:0:0:0:
320,64,278889,1,8,0:0:0:0:
64,64,279056,1,0,0:0:0:0:
320,64,279223,1,8,0:0:0:0:
64,64,279389,1,0,0:0:0:0:
64,64,279473,1,0,0:0:0:0:
64,64,279723,1,0,0:0:0:0:
320,64,279806,1,8,0:0:0:0:
64,64,279889,1,0,0:0:0:0:
320,64,279973,1,8,0:0:0:0:
320,64,280056,1,8,0:0:0:0:
320,64,280223,1,8,0:0:0:0:
320,64,280306,1,8,0:0:0:0:
320,64,280473,1,8,0:0:0:0:
320,64,280556,1,8,0:0:0:0:
64,64,280639,1,0,0:0:0:0:
320,64,280723,1,8,0:0:0:0:
64,64,280889,1,0,0:0:0:0:
320,64,280973,1,8,0:0:0:0:
64,64,281139,1,0,0:0:0:0:
320,64,281223,1,8,0:0:0:0:
320,64,281389,1,8,0:0:0:0:
320,64,281473,1,8,0:0:0:0:
320,64,281556,1,8,0:0:0:0:
320,64,281639,1,8,0:0:0:0:
64,64,281723,1,0,0:0:0:0:
64,64,281806,1,0,0:0:0:0:
320,64,281889,1,8,0:0:0:0:
320,64,281973,1,8,0:0:0:0:
64,64,282056,1,0,0:0:0:0:
64,64,282139,1,0,0:0:0:0:
320,64,282223,1,8,0:0:0:0:
320,64,282306,1,8,0:0:0:0:
64,64,282389,1,0,0:0:0:0:
320,64,282473,1,8,0:0:0:0:
64,64,282556,1,0,0:0:0:0:
320,64,282723,1,8,0:0:0:0:
320,64,282806,1,8,0:0:0:0:
64,64,282889,1,0,0:0:0:0:
64,64,282973,1,0,0:0:0:0:
320,64,283056,1,8,0:0:0:0:
64,64,283139,1,0,0:0:0:0:
320,64,283223,1,8,0:0:0:0:
320,64,283389,1,8,0:0:0:0:
320,64,283473,1,8,0:0:0:0:
64,64,283556,1,0,0:0:0:0:
320,64,283639,1,8,0:0:0:0:
64,64,283723,1,0,0:0:0:0:
64,64,283889,1,0,0:0:0:0:
320,64,283973,1,8,0:0:0:0:
320,64,284056,1,8,0:0:0:0:
320,64,284139,1,8,0:0:0:0:
64,64,284223,1,0,0:0:0:0:
320,64,284306,1,8,0:0:0:0:
64,64,284389,1,0,0:0:0:0:
320,64,284473,1,8,0:0:0:0:
320,64,284723,1,8,0:0:0:0:
320,64,284889,1,8,0:0:0:0:
64,64,285056,1,0,0:0:0:0:
64,64,285139,1,0,0:0:0:0:
320,64,285223,1,8,0:0:0:0:
64,64,285306,1,0,0:0:0:0:
320,64,285389,1,8,0:0:0:0:
320,64,285556,1,8,0:0:0:0:
320,64,285639,1,8,0:0:0:0:
64,64,285723,1,0,0:0:0:0:
320,64,285806,1,8,0:0:0:0:
64,64,285889,1,0,0:0:0:0:
64,64,285973,1,0,0:0:0:0:
320,64,286056,1,8,0:0:0:0:
320,64,286139,1,8,0:0:0:0:
320,64,286223,1,8,0:0:0:0:
64,64,286306,1,0,0:0:0:0:
64,64,286556,1,0,0:0:0:0:
64,64,286639,1,0,0:0:0:0:
320,64,286723,1,8,0:0:0:0:
320,64,286889,1,8,0:0:0:0:
64,64,287056,1,0,0:0:0:0:
64,64,287139,1,0,0:0:0:0:
64,64,287306,1,0,0:0:0:0:
320,64,287389,1,8,0:0:0:0:
320,64,287556,1,8,0:0:0:0:
320,64,287639,1,8,0:0:0:0:
64,64,287723,1,0,0:0:0:0:
64,64,287889,1,0,0:0:0:0:
320,64,287973,1,8,0:0:0:0:
320,64,288139,1,8,0:0:0:0:
320,64,288306,1,8,0:0:0:0:
320,64,288389,1,8,0:0:0:0:
320,64,288556,1,8,0:0:0:0:
64,64,288723,1,0,0:0:0:0:
64,64,288806,1,0,0:0:0:0:
320,64,288889,1,8,0:0:0:0:
64,64,288973,1,0,0:0:0:0:
320,64,289056,1,8,0:0:0:0:
64,64,289139,1,0,0:0:0:0:
320,64,289223,1,8,0:0:0:0:
320,64,289307,1,8,0:0:0:0:
64,64,289389,1,0,0:0:0:0:
320,64,289556,1,8,0:0:0:0:
64,64,289639,1,0,0:0:0:0:
320,64,289806,1,8,0:0:0:0:
64,64,289889,1,0,0:0:0:0:
64,64,290056,1,0,0:0:0:0:
64,64,290139,1,0,0:0:0:0:
320,64,290223,1,8,0:0:0:0:
64,64,290306,1,0,0:0:0:0:
320,64,290389,1,8,0:0:0:0:
320,64,290473,1,8,0:0:0:0:
64,64,290556,1,0,0:0:0:0:
64,64,290639,1,0,0:0:0:0:
320,64,290723,1,8,0:0:0:0:
64,64,290889,1,0,0:0:0:0:
320,64,290973,1,8,0:0:0:0:
64,64,291139,1,0,0:0:0:0:
320,64,291223,1,8,0:0:0:0:
320,64,291306,1,8,0:0:0:0:
64,64,291389,1,0,0:0:0:0:
64,64,291473,1,0,0:0:0:0:
320,64,291556,1,8,0:0:0:0:
64,64,291639,1,0,0:0:0:0:
320,64,291723,1,8,0:0:0:0:
320,64,291806,1,8,0:0:0:0:
64,64,291889,1,0,0:0:0:0:
64,64,291973,1,0,0:0:0:0:
320,64,292056,1,8,0:0:0:0:
64,64,292139,1,0,0:0:0:0:
64,64,292223,1,0,0:0:0:0:
320,64,292306,1,8,0:0:0:0:
64,64,292389,1,0,0:0:0:0:
64,64,292473,1,0,0:0:0:0:
320,64,292556,1,8,0:0:0:0:
320,64,292639,1,8,0:0:0:0:
64,64,292722,1,0,0:0:0:0:
64,64,292806,1,0,0:0:0:0:
320,64,292889,1,8,0:0:0:0:
64,64,293056,1,0,0:0:0:0:
320,64,293139,1,8,0:0:0:0:
64,64,293306,1,0,0:0:0:0:
320,64,293389,1,8,0:0:0:0:
320,64,293473,1,8,0:0:0:0:
64,64,293556,1,0,0:0:0:0:
320,64,293639,1,8,0:0:0:0:
64,64,293806,1,0,0:0:0:0:
320,64,293889,1,8,0:0:0:0:
320,64,293972,1,8,0:0:0:0:
64,64,294056,1,0,0:0:0:0:
64,64,294139,1,0,0:0:0:0:
320,64,294223,1,8,0:0:0:0:
64,64,294306,1,0,0:0:0:0:
320,64,294389,1,8,0:0:0:0:
320,64,294472,1,8,0:0:0:0:
64,64,294556,1,0,0:0:0:0:
320,64,294639,1,8,0:0:0:0:
64,64,294723,1,0,0:0:0:0:
320,64,294806,1,8,0:0:0:0:
64,64,294889,1,0,0:0:0:0:
64,64,294973,1,0,0:0:0:0:
320,64,295056,1,8,0:0:0:0:
320,64,295139,1,8,0:0:0:0:
64,64,295223,1,0,0:0:0:0:
320,64,295306,1,8,0:0:0:0:
64,64,295389,1,0,0:0:0:0:
320,64,295473,1,8,0:0:0:0:
64,64,295556,1,0,0:0:0:0:
64,64,295639,1,0,0:0:0:0:
320,64,295723,1,8,0:0:0:0:
64,64,295806,1,0,0:0:0:0:
320,64,295889,1,8,0:0:0:0:
320,64,295973,1,8,0:0:0:0:
64,64,296056,1,0,0:0:0:0:
64,64,296223,1,0,0:0:0:0:
320,64,296390,1,8,0:0:0:0:
320,64,296472,1,8,0:0:0:0:
320,64,296556,1,8,0:0:0:0:
320,64,296640,1,8,0:0:0:0:
64,64,296722,1,0,0:0:0:0:
64,64,296806,1,0,0:0:0:0:
320,64,296889,1,8,0:0:0:0:
64,64,296972,1,0,0:0:0:0:
320,64,297056,1,8,0:0:0:0:
64,64,297139,1,0,0:0:0:0:
320,64,297222,1,8,0:0:0:0:
320,64,297306,1,8,0:0:0:0:
64,64,297389,1,0,0:0:0:0:
64,64,297472,1,0,0:0:0:0:
320,64,297556,1,8,0:0:0:0:
320,64,297639,1,8,0:0:0:0:
64,64,297722,1,0,0:0:0:0:
320,64,297806,1,8,0:0:0:0:
64,64,297889,1,0,0:0:0:0:
320,64,297972,1,8,0:0:0:0:
64,64,298056,1,0,0:0:0:0:
64,64,298139,1,0,0:0:0:0:
64,64,298222,1,0,0:0:0:0:
64,64,298306,1,0,0:0:0:0:
320,64,298389,1,8,0:0:0:0:
320,64,298472,1,8,0:0:0:0:
320,64,298556,1,8,0:0:0:0:
320,64,298639,1,8,0:0:0:0:
256,192,298723,12,0,299223,0:0:0:0:
320,64,299389,5,8,0:0:0:0:
320,64,299473,1,8,0:0:0:0:
320,64,299556,1,8,0:0:0:0:
64,64,299639,1,0,0:0:0:0:
320,64,299723,1,8,0:0:0:0:
320,64,299806,1,8,0:0:0:0:
64,64,299889,1,0,0:0:0:0:
64,64,299973,1,0,0:0:0:0:
320,64,300056,1,8,0:0:0:0:
64,64,300139,1,0,0:0:0:0:
64,64,300223,1,0,0:0:0:0:
64,64,300306,1,0,0:0:0:0:
320,64,300389,1,8,0:0:0:0:
320,64,300473,1,8,0:0:0:0:
64,64,300556,1,0,0:0:0:0:
64,64,300639,1,0,0:0:0:0:
320,64,300723,1,8,0:0:0:0:
64,64,300806,1,0,0:0:0:0:
320,64,300889,1,8,0:0:0:0:
64,64,300973,1,0,0:0:0:0:
320,64,301056,1,8,0:0:0:0:
320,64,301139,1,8,0:0:0:0:
64,64,301223,1,0,0:0:0:0:
64,64,301306,1,0,0:0:0:0:
320,64,301389,1,8,0:0:0:0:
64,64,301473,1,0,0:0:0:0:
64,64,301556,1,0,0:0:0:0:
64,64,301639,1,0,0:0:0:0:
320,64,301723,1,8,0:0:0:0:
320,64,301806,1,8,0:0:0:0:
320,64,301889,1,8,0:0:0:0:
64,64,301973,1,0,0:0:0:0:
320,64,302056,1,8,0:0:0:0:
64,64,302139,1,0,0:0:0:0:
64,64,302223,1,0,0:0:0:0:
64,64,302306,1,0,0:0:0:0:
320,64,302389,1,8,0:0:0:0:
64,64,302473,1,0,0:0:0:0:
64,64,302556,1,0,0:0:0:0:
64,64,302639,1,0,0:0:0:0:
320,64,302723,1,8,0:0:0:0:
320,64,302806,1,8,0:0:0:0:
64,64,302889,1,0,0:0:0:0:
320,64,302973,1,8,0:0:0:0:
64,64,303056,1,0,0:0:0:0:
64,64,303139,1,0,0:0:0:0:
320,64,303223,1,8,0:0:0:0:
64,64,303306,1,0,0:0:0:0:
320,64,303389,1,8,0:0:0:0:
320,64,303473,1,8,0:0:0:0:
320,64,303556,1,8,0:0:0:0:
320,64,303639,1,8,0:0:0:0:
64,64,303723,1,0,0:0:0:0:
64,64,303806,1,0,0:0:0:0:
64,64,303889,1,0,0:0:0:0:
64,64,303973,1,0,0:0:0:0:
320,64,304056,1,8,0:0:0:0:
320,64,304139,1,8,0:0:0:0:
320,64,304223,1,8,0:0:0:0:
320,64,304306,1,8,0:0:0:0:
64,64,304389,1,0,0:0:0:0:
320,64,304473,1,8,0:0:0:0:
320,64,304556,1,8,0:0:0:0:
64,64,304639,1,0,0:0:0:0:
320,64,304723,1,8,0:0:0:0:
320,64,304807,1,8,0:0:0:0:
320,64,304890,1,8,0:0:0:0:
64,64,304973,1,0,0:0:0:0:
320,64,305057,1,8,0:0:0:0:
320,64,305140,1,8,0:0:0:0:
64,64,305223,1,0,0:0:0:0:
64,64,305307,1,0,0:0:0:0:
320,64,305390,1,8,0:0:0:0:
64,64,305473,1,0,0:0:0:0:
320,64,305556,1,8,0:0:0:0:
320,64,305639,1,8,0:0:0:0:
64,64,305723,1,0,0:0:0:0:
320,64,305807,1,8,0:0:0:0:
64,64,305890,1,0,0:0:0:0:
64,64,305973,1,0,0:0:0:0:
320,64,306057,1,8,0:0:0:0:
64,64,306140,1,0,0:0:0:0:
320,64,306223,1,8,0:0:0:0:
64,64,306307,1,0,0:0:0:0:
320,64,306390,1,8,0:0:0:0:
320,64,306473,1,8,0:0:0:0:
64,64,306557,1,0,0:0:0:0:
64,64,306640,1,0,0:0:0:0:
320,64,306723,1,8,0:0:0:0:
64,64,306807,1,0,0:0:0:0:
320,64,306890,1,8,0:0:0:0:
320,64,306973,1,8,0:0:0:0:
64,64,307057,1,0,0:0:0:0:
64,64,307140,1,0,0:0:0:0:
320,64,307223,1,8,0:0:0:0:
64,64,307307,1,0,0:0:0:0:
320,64,307390,1,8,0:0:0:0:
64,64,307473,1,0,0:0:0:0:
64,64,307557,1,0,0:0:0:0:
64,64,307640,1,0,0:0:0:0:
320,64,307723,1,8,0:0:0:0:
64,64,307807,1,0,0:0:0:0:
64,64,307890,1,0,0:0:0:0:
64,64,307973,1,0,0:0:0:0:
320,64,308057,1,8,0:0:0:0:
64,64,308140,1,0,0:0:0:0:
320,64,308223,1,8,0:0:0:0:
64,64,308307,1,0,0:0:0:0:
320,64,308390,1,8,0:0:0:0:
320,64,308473,1,8,0:0:0:0:
320,64,308557,1,8,0:0:0:0:
64,64,308640,1,0,0:0:0:0:
320,64,308723,1,8,0:0:0:0:
320,64,308807,1,8,0:0:0:0:
320,64,308890,1,8,0:0:0:0:
320,64,308973,1,8,0:0:0:0:
64,64,309057,1,0,0:0:0:0:
64,64,309140,1,0,0:0:0:0:
64,64,309223,1,0,0:0:0:0:
64,64,309307,1,0,0:0:0:0:
320,64,309390,1,8,0:0:0:0:
320,64,309473,1,8,0:0:0:0:
320,64,309557,1,8,0:0:0:0:
320,64,309640,1,8,0:0:0:0:
64,64,309723,1,0,0:0:0:0:
320,64,309807,1,8,0:0:0:0:
320,64,309890,1,8,0:0:0:0:
320,64,310056,1,8,0:0:0:0:
320,64,310140,1,8,0:0:0:0:
320,64,310223,1,8,0:0:0:0:
64,64,310306,1,0,0:0:0:0:
320,64,310390,1,8,0:0:0:0:
320,64,310473,1,8,0:0:0:0:
64,64,310556,1,0,0:0:0:0:
64,64,310640,1,0,0:0:0:0:
320,64,310723,1,8,0:0:0:0:
64,64,310806,1,0,0:0:0:0:
64,64,310890,1,0,0:0:0:0:
64,64,310973,1,0,0:0:0:0:
320,64,311056,1,8,0:0:0:0:
320,64,311140,1,8,0:0:0:0:
64,64,311223,1,0,0:0:0:0:
64,64,311306,1,0,0:0:0:0:
320,64,311390,1,8,0:0:0:0:
64,64,311473,1,0,0:0:0:0:
320,64,311556,1,8,0:0:0:0:
64,64,311640,1,0,0:0:0:0:
320,64,311723,1,8,0:0:0:0:
320,64,311806,1,8,0:0:0:0:
64,64,311890,1,0,0:0:0:0:
64,64,311973,1,0,0:0:0:0:
320,64,312056,1,8,0:0:0:0:
64,64,312140,1,0,0:0:0:0:
64,64,312223,1,0,0:0:0:0:
64,64,312306,1,0,0:0:0:0:
320,64,312390,1,8,0:0:0:0:
320,64,312473,1,8,0:0:0:0:
320,64,312556,1,8,0:0:0:0:
64,64,312640,1,0,0:0:0:0:
320,64,312723,1,8,0:0:0:0:
64,64,312806,1,0,0:0:0:0:
64,64,312890,1,0,0:0:0:0:
64,64,312973,1,0,0:0:0:0:
320,64,313056,1,8,0:0:0:0:
64,64,313140,1,0,0:0:0:0:
64,64,313223,1,0,0:0:0:0:
64,64,313306,1,0,0:0:0:0:
320,64,313390,1,8,0:0:0:0:
320,64,313473,1,8,0:0:0:0:
64,64,313556,1,0,0:0:0:0:
320,64,313640,1,8,0:0:0:0:
64,64,313723,1,0,0:0:0:0:
64,64,313806,1,0,0:0:0:0:
320,64,313890,1,8,0:0:0:0:
64,64,313973,1,0,0:0:0:0:
320,64,314056,1,8,0:0:0:0:
320,64,314140,1,8,0:0:0:0:
320,64,314223,1,8,0:0:0:0:
320,64,314306,1,8,0:0:0:0:
64,64,314390,1,0,0:0:0:0:
64,64,314473,1,0,0:0:0:0:
64,64,314556,1,0,0:0:0:0:
64,64,314640,1,0,0:0:0:0:
320,64,314723,1,8,0:0:0:0:
320,64,314806,1,8,0:0:0:0:
320,64,314890,1,8,0:0:0:0:
320,64,314973,1,8,0:0:0:0:
64,64,315056,1,0,0:0:0:0:
320,64,315140,1,8,0:0:0:0:
320,64,315223,1,8,0:0:0:0:
64,64,315306,1,0,0:0:0:0:
320,64,315390,1,8,0:0:0:0:
320,64,315474,1,8,0:0:0:0:
320,64,315557,1,8,0:0:0:0:
64,64,315640,1,0,0:0:0:0:
320,64,315724,1,8,0:0:0:0:
320,64,315807,1,8,0:0:0:0:
64,64,315890,1,0,0:0:0:0:
64,64,315974,1,0,0:0:0:0:
320,64,316057,1,8,0:0:0:0:
64,64,316140,1,0,0:0:0:0:
320,64,316223,1,8,0:0:0:0:
320,64,316306,1,8,0:0:0:0:
64,64,316390,1,0,0:0:0:0:
320,64,316474,1,8,0:0:0:0:
64,64,316557,1,0,0:0:0:0:
64,64,316640,1,0,0:0:0:0:
320,64,316724,1,8,0:0:0:0:
64,64,316807,1,0,0:0:0:0:
320,64,316890,1,8,0:0:0:0:
64,64,316974,1,0,0:0:0:0:
320,64,317057,1,8,0:0:0:0:
320,64,317140,1,8,0:0:0:0:
64,64,317224,1,0,0:0:0:0:
64,64,317307,1,0,0:0:0:0:
320,64,317390,1,8,0:0:0:0:
64,64,317474,1,0,0:0:0:0:
320,64,317557,1,8,0:0:0:0:
320,64,317640,1,8,0:0:0:0:
64,64,317724,1,0,0:0:0:0:
64,64,317807,1,0,0:0:0:0:
320,64,317890,1,8,0:0:0:0:
64,64,317974,1,0,0:0:0:0:
320,64,318057,1,8,0:0:0:0:
64,64,318140,1,0,0:0:0:0:
64,64,318224,1,0,0:0:0:0:
64,64,318307,1,0,0:0:0:0:
320,64,318390,1,8,0:0:0:0:
64,64,318474,1,0,0:0:0:0:
64,64,318557,1,0,0:0:0:0:
64,64,318640,1,0,0:0:0:0:
320,64,318724,1,8,0:0:0:0:
64,64,318807,1,0,0:0:0:0:
320,64,318890,1,8,0:0:0:0:
64,64,318974,1,0,0:0:0:0:
320,64,319057,1,8,0:0:0:0:
320,64,319140,1,8,0:0:0:0:
320,64,319224,1,8,0:0:0:0:
64,64,319307,1,0,0:0:0:0:
320,64,319390,1,8,0:0:0:0:
320,64,319474,1,8,0:0:0:0:
320,64,319557,1,8,0:0:0:0:
320,64,319640,1,8,0:0:0:0:
64,64,319724,1,0,0:0:0:0:
64,64,319807,1,0,0:0:0:0:
64,64,319890,1,0,0:0:0:0:
64,64,319974,1,0,0:0:0:0:
320,64,320057,1,8,0:0:0:0:
320,64,320140,1,8,0:0:0:0:
320,64,320224,1,8,0:0:0:0:
320,64,320307,1,8,0:0:0:0:
64,64,320390,1,0,0:0:0:0:
320,64,320473,1,8,0:0:0:0:
320,64,320556,1,8,0:0:0:0:
320,64,320639,1,8,0:0:0:0:
64,64,320723,1,0,0:0:0:0:
320,64,320889,1,8,0:0:0:0:
64,64,320973,1,0,0:0:0:0:
64,64,321139,1,0,0:0:0:0:
320,64,321223,1,8,0:0:0:0:
64,64,321389,1,0,0:0:0:0:
64,64,321556,1,0,0:0:0:0:
64,64,321639,1,0,0:0:0:0:
64,64,321806,1,0,0:0:0:0:
320,64,321889,1,8,0:0:0:0:
320,64,322056,1,8,0:0:0:0:
64,64,322223,1,0,0:0:0:0:
320,64,322306,1,8,0:0:0:0:
320,64,322473,1,8,0:0:0:0:
64,64,322556,1,0,0:0:0:0:
320,64,322723,1,8,0:0:0:0:
320,64,322889,1,8,0:0:0:0:
64,64,322973,1,0,0:0:0:0:
64,64,323139,1,0,0:0:0:0:
320,64,323223,1,8,0:0:0:0:
320,64,323389,1,8,0:0:0:0:
320,64,323556,1,8,0:0:0:0:
320,64,323639,1,8,0:0:0:0:
320,64,323806,1,8,0:0:0:0:
64,64,323889,1,0,0:0:0:0:
64,64,324056,1,0,0:0:0:0:
64,64,324223,1,0,0:0:0:0:
64,64,324306,1,0,0:0:0:0:
64,64,324473,1,0,0:0:0:0:
320,64,324556,1,8,0:0:0:0:
320,64,324723,1,8,0:0:0:0:
64,64,324889,1,0,0:0:0:0:
320,64,324973,1,8,0:0:0:0:
64,64,325139,1,0,0:0:0:0:
64,64,325223,1,0,0:0:0:0:
320,64,325389,1,8,0:0:0:0:
64,64,325556,1,0,0:0:0:0:
320,64,325639,1,8,0:0:0:0:
64,64,325806,1,0,0:0:0:0:
64,64,325889,1,0,0:0:0:0:
320,64,326056,1,8,0:0:0:0:
64,64,326223,1,0,0:0:0:0:
320,64,326306,1,8,0:0:0:0:
320,64,326473,1,8,0:0:0:0:
64,64,326556,1,0,0:0:0:0:
320,64,326723,1,8,0:0:0:0:
64,64,326889,1,0,0:0:0:0:
320,64,326973,1,8,0:0:0:0:
320,64,327139,1,8,0:0:0:0:
64,64,327223,1,0,0:0:0:0:
320,64,327389,1,8,0:0:0:0:
320,64,327556,1,8,0:0:0:0:
320,64,327639,1,8,0:0:0:0:
320,64,327806,1,8,0:0:0:0:
64,64,327889,1,0,0:0:0:0:
320,64,328056,1,8,0:0:0:0:
320,64,328223,1,8,0:0:0:0:
320,64,328306,1,8,0:0:0:0:
320,64,328473,1,8,0:0:0:0:
64,64,328556,1,0,0:0:0:0:
320,64,328723,1,8,0:0:0:0:
320,64,328889,1,8,0:0:0:0:
320,64,328973,1,8,0:0:0:0:
320,64,329139,1,8,0:0:0:0:
320,64,329223,1,8,0:0:0:0:
320,64,329389,1,8,0:0:0:0:
320,64,329556,1,8,0:0:0:0:
320,64,329639,1,8,0:0:0:0:
320,64,329806,1,8,0:0:0:0:
320,64,329889,1,8,0:0:0:0:
256,192,330056,12,0,330306,0:0:0:0:
256,192,330389,12,0,330639,0:0:0:0:
256,192,330723,12,0,330973,0:0:0:0:
256,192,331056,12,0,331306,0:0:0:0:
256,192,331389,12,0,331639,0:0:0:0:
256,192,331723,12,0,331973,0:0:0:0:
256,192,332056,12,0,332306,0:0:0:0:
256,192,332389,12,0,335973,0:0:0:0:
256,192,336056,12,0,341639,0:0:0:0:
256,192,341723,12,0,347306,0:0:0:0:
256,192,347389,12,0,351806,0:0:0:0:
256,192,353056,12,0,353973,0:0:0:0:
