osu file format v14

[General]
AudioFilename: audio.mp3
AudioLeadIn: 0
PreviewTime: 117205
Countdown: 0
SampleSet: Normal
StackLeniency: 0.2
Mode: 0
LetterboxInBreaks: 0
WidescreenStoryboard: 0

[Editor]
DistanceSpacing: 1
BeatDivisor: 4
GridSize: 4
TimelineZoom: 3

[Metadata]
Title:Shumelka
TitleUnicode:Шумелка
Artist:Aquarium
ArtistUnicode:Аквариум
Creator:uneskladovae
Version:Extra
Source:
Tags:
BeatmapID:1439147
BeatmapSetID:680655

[Difficulty]
HPDrainRate:6
CircleSize:4.5
OverallDifficulty:7
ApproachRate:8.5
SliderMultiplier:1.8
SliderTickRate:1

[Events]
//Background and Video events
0,0,"searcher-wallpaper-1366x768.jpg",0,0
//Break Periods
2,110043,115057
//Storyboard Layer 0 (Background)
//Storyboard Layer 1 (Fail)
//Storyboard Layer 2 (Pass)
//Storyboard Layer 3 (Foreground)
//Storyboard Sound Samples

[TimingPoints]
150,368.098159509202,4,1,0,10,1,0
6775,-166.666666666667,4,1,0,10,0,0
11192,-90.9090909090909,4,1,0,10,0,0
12665,-90.9090909090909,4,1,0,10,0,1
12680,-90.9090909090909,4,1,0,10,0,0
24444,-125,4,1,0,10,0,0
48002,-90.9090909090909,4,1,0,10,0,1
48020,-90.9090909090909,4,1,0,10,0,0
59781,-125,4,1,0,10,0,0
62726,-90.9090909090909,4,1,0,10,0,0
65487,-125,4,1,0,10,0,0
68616,-90.9090909090909,4,1,0,10,0,0
71561,-125,4,1,0,10,0,0
80395,-90.9090909090909,4,1,0,10,0,0
83340,-90.9090909090909,4,1,0,10,0,1
106898,-90.9090909090909,4,1,0,10,0,0
115732,-166.666666666667,4,1,0,10,0,0
117205,-125,4,1,0,10,0,0
118677,-90.9090909090909,4,1,0,10,0,1
118700,-90.9090909090909,4,1,0,10,0,0
130456,-90.9090909090909,4,1,0,10,0,1
152542,-90.9090909090909,4,1,0,10,0,0

[HitObjects]
184,220,6775,6,0,P|244:256|296:240,1,107.999996704102
278,250,7327,1,0,0:0:0:0:
248,176,7511,2,0,P|220:124|232:72,1,107.999996704102
352,152,8248,5,0,0:0:0:0:
427,121,8432,1,0,0:0:0:0:
396,46,8616,1,0,0:0:0:0:
321,76,8800,1,0,0:0:0:0:
278,250,9720,6,0,P|208:264|184:296,1,107.999996704102
260,320,10272,1,0,0:0:0:0:
264,324,10364,1,0,0:0:0:0:
264,324,10456,1,0,0:0:0:0:
180,192,10824,1,0,0:0:0:0:
432,152,11192,5,0,0:0:0:0:
92,208,11376,1,0,0:0:0:0:
280,108,11561,1,0,0:0:0:0:
392,304,11745,1,0,0:0:0:0:
240,36,11929,1,0,0:0:0:0:
432,152,12113,1,0,0:0:0:0:
92,208,12297,2,0,L|68:212,7,24.7500007553101
120,192,12665,6,0,B|208:244|208:244|304:208,1,198.000006042481
104,284,13217,1,0,0:0:0:0:
104,284,13309,1,0,0:0:0:0:
108,288,13401,2,0,L|4:228,1,99.0000030212403
216,152,13769,2,0,L|320:116,1,99.0000030212403
288,308,14137,5,0,0:0:0:0:
320,36,14321,1,0,0:0:0:0:
388,244,14505,1,0,0:0:0:0:
216,152,14689,2,0,L|112:188,1,99.0000030212403
396,92,15057,5,0,0:0:0:0:
122,184,15242,1,0,0:0:0:0:
288,312,15426,1,0,0:0:0:0:
172,60,15610,6,0,B|216:156|216:156|312:184,1,198.000006042481
280,84,16162,1,0,0:0:0:0:
280,84,16254,1,0,0:0:0:0:
284,88,16346,2,0,L|388:116,2,99.0000030212403
256,104,17082,6,0,L|152:76,1,99.0000030212403
336,152,17450,1,0,0:3:0:0:
225,251,17634,1,0,0:3:0:0:
367,296,17818,1,0,0:3:0:0:
296,128,18002,5,0,0:3:0:0:
256,271,18186,1,0,0:3:0:0:
400,231,18370,1,0,0:3:0:0:
192,124,18554,6,0,B|92:143|92:143|36:232,1,198.000006042481
144,44,19107,1,0,0:0:0:0:
148,48,19199,1,0,0:0:0:0:
148,48,19291,2,0,L|260:32,1,99.0000030212403
136,216,19659,2,0,L|76:316,1,99.0000030212403
184,136,20027,5,0,0:0:0:0:
336,318,20211,1,0,0:0:0:0:
417,94,20395,1,0,0:0:0:0:
184,136,20579,6,0,L|296:116,1,99.0000030212403
336,318,20947,1,0,0:0:0:0:
132,265,21131,1,0,0:0:0:0:
281,118,21315,1,0,0:0:0:0:
32,300,21499,6,0,B|110:357|110:357|216:336,1,198.000006042481
432,304,22051,1,0,0:0:0:0:
432,304,22143,1,0,0:0:0:0:
432,304,22235,2,0,L|312:328,1,99.0000030212403
432,144,22603,1,0,0:0:0:0:
472,144,22972,6,0,L|404:52,1,99.0000030212403
280,208,23340,1,0,3:3:0:0:
134,170,23524,1,0,3:3:0:0:
240,66,23708,1,0,3:3:0:0:
218,247,23892,5,0,3:3:0:0:
118,137,24076,1,0,3:3:0:0:
263,106,24260,1,0,3:3:0:0:
156,280,24444,6,0,P|132:320|132:352,1,72
104,216,24812,2,0,P|61:196|43:170,1,72
188,204,25180,2,0,P|228:181|260:182,1,72,0|0,3:0|0:0,0:0:0:0:
248,272,25548,5,0,0:0:0:0:
203,105,25732,1,0,0:0:0:0:
369,149,25916,1,0,0:0:0:0:
380,190,26284,5,0,0:0:0:0:
219,255,26468,1,0,0:0:0:0:
243,85,26652,1,0,0:0:0:0:
284,68,27021,5,0,0:0:0:0:
407,189,27205,1,0,0:0:0:0:
240,234,27389,1,0,0:0:0:0:
268,212,27757,5,0,0:0:0:0:
336,276,27941,1,0,0:0:0:0:
336,276,28033,1,0,0:0:0:0:
336,280,28125,2,0,P|260:300|196:268,1,144
202,274,28861,2,0,P|150:238|114:238,2,72
132,312,29413,1,0,0:0:0:0:
216,188,29597,2,0,P|292:208|356:176,1,144
202,274,30149,5,0,0:0:0:0:
132,224,30334,2,0,P|84:184|32:176,1,108
40,175,30702,2,0,P|56:104|104:76,1,108
81,83,31070,2,0,P|149:116|225:112,1,144
349,182,31622,5,0,0:0:0:0:
312,100,31806,2,0,P|400:108|440:160,1,144
268,216,32358,1,0,0:0:0:0:
216,284,32542,2,0,P|188:224|200:164,1,108
191,183,32910,2,0,P|152:108|84:104,1,144
112,176,33646,5,0,0:0:0:0:
232,64,33830,1,0,0:0:0:0:
232,64,33923,1,0,0:0:0:0:
232,64,34015,2,0,P|308:44|372:76,1,144
365,69,34751,2,0,P|337:97|329:137,1,72
404,132,35119,2,0,P|397:170|367:197,1,72
304,224,35487,1,0,0:0:0:0:
216,232,35671,1,0,0:0:0:0:
144,192,35855,1,0,0:0:0:0:
304,224,36039,6,0,P|328:284|316:344,1,108
140,272,36499,1,0,0:0:0:0:
140,272,36591,2,0,P|76:236|68:184,1,108
66,206,36959,2,0,P|76:140|56:96,1,108
61,103,37327,6,0,P|120:72|196:96,1,144
280,136,37880,1,0,0:0:0:0:
368,104,38064,1,0,0:0:0:0:
184,168,38248,2,0,P|176:228|160:264,2,72
152,312,38800,1,0,0:0:0:0:
152,312,39168,6,0,P|204:332|236:328,1,72
312,312,39536,1,0,0:0:0:0:
412,288,39720,2,0,P|356:224|296:216,1,144
232,260,40272,2,0,P|228:176|272:136,1,144
264,140,41008,2,0,P|224:96|192:88,1,72
300,215,41376,2,0,P|340:259|372:267,1,72
198,164,41745,1,0,0:0:0:0:
198,164,42113,6,0,P|246:140|286:144,1,72
220,296,42481,2,0,P|172:320|132:316,1,72
168,160,42849,2,0,P|208:115|248:104,1,72
248,184,43217,5,0,0:0:0:0:
415,139,43401,1,0,0:0:0:0:
371,305,43585,1,0,0:0:0:0:
330,316,43953,5,0,0:0:0:0:
265,155,44137,1,0,0:0:0:0:
435,179,44321,1,0,0:0:0:0:
452,220,44690,5,0,0:0:0:0:
331,343,44874,1,0,0:0:0:0:
286,176,45058,1,0,0:0:0:0:
286,176,45426,6,0,P|240:212|228:256,1,72
348,112,45794,2,0,P|394:76|406:32,1,72
252,160,46162,2,0,P|195:173|165:207,1,72
376,128,46530,2,0,P|432:114|462:80,1,72
232,128,46898,2,0,P|174:115|133:134,1,72
304,324,47266,5,0,0:0:0:0:
264,332,47358,1,0,0:0:0:0:
224,335,47450,1,0,0:0:0:0:
183,330,47542,1,0,0:0:0:0:
145,316,47634,1,0,0:0:0:0:
112,294,47726,1,0,0:0:0:0:
84,265,47818,1,0,0:0:0:0:
60,232,47910,1,0,0:0:0:0:
48,192,48002,6,0,B|108:104|108:104|204:100,1,198.000006042481
156,188,48554,1,0,0:0:0:0:
156,188,48646,1,0,0:0:0:0:
156,188,48738,2,0,L|272:184,1,99.0000030212403
452,340,49107,2,0,L|368:272,1,99.0000030212403
456,72,49475,5,0,0:0:0:0:
212,264,49659,1,0,0:0:0:0:
504,152,49843,1,0,0:0:0:0:
254,184,50027,1,0,0:0:0:0:
254,184,50119,1,0,0:0:0:0:
254,184,50211,2,0,B|304:132|304:132|260:120,1,99.0000030212403
144,84,50579,2,0,B|75:62|75:62|94:43,1,99.0000030212403
104,288,50947,6,0,B|212:264|212:264|296:316,1,198.000006042481
96,192,51499,1,0,0:0:0:0:
96,192,51591,1,0,0:0:0:0:
96,192,51683,2,0,B|28:208|28:208|84:256,1,99.0000030212403
200,348,52051,2,0,B|307:328|307:328|252:281,1,148.50000453186
216,256,52419,2,0,B|186:230|186:230|280:212,1,99.0000030212403
452,184,52788,1,0,0:0:0:0:
132,104,52972,1,0,0:0:0:0:
340,28,53156,5,0,0:0:0:0:
377,60,53248,1,0,0:0:0:0:
415,92,53340,1,0,0:0:0:0:
390,128,53432,1,0,0:0:0:0:
371,173,53524,1,0,0:0:0:0:
380,220,53616,1,0,0:0:0:0:
414,256,53708,1,0,0:0:0:0:
460,272,53800,1,0,0:0:0:0:
472,316,53892,6,0,B|368:352|368:352|268:320,1,198.000006042481
48,264,54444,1,0,0:0:0:0:
48,264,54536,1,0,0:0:0:0:
48,264,54628,2,0,L|176:224,1,99.0000030212403
368,60,54996,2,0,B|319:98|319:98|334:157,1,99.0000030212403
368,348,55364,5,0,0:0:0:0:
404,132,55548,1,0,0:0:0:0:
197,205,55732,1,0,0:0:0:0:
440,276,55916,1,0,0:0:0:0:
440,276,56008,1,0,0:0:0:0:
440,276,56100,2,0,B|368:256|368:256|344:212,1,99.0000030212403
260,36,56469,2,0,L|136:64,1,99.0000030212403
404,132,56837,6,0,B|356:228|356:228|404:328,1,198.000006042481
268,40,57389,1,0,0:0:0:0:
268,40,57481,1,0,0:0:0:0:
268,40,57573,2,0,B|216:136,1,99.0000030212403
56,296,57941,2,0,B|108:200,1,99.0000030212403
300,316,58309,1,0,0:0:0:0:
144,128,58493,1,0,0:0:0:0:
400,40,58677,5,0,0:0:0:0:
361,70,58769,1,0,0:0:0:0:
341,115,58861,1,0,0:0:0:0:
344,164,58953,1,0,0:0:0:0:
369,206,59045,1,0,0:0:0:0:
378,205,59413,5,0,0:0:0:0:
370,253,59505,1,0,0:0:0:0:
343,293,59597,1,0,0:0:0:0:
300,316,59689,1,0,0:0:0:0:
251,317,59781,6,0,P|188:280|112:292,1,144
64,204,60334,1,0,0:0:0:0:
132,120,60518,2,0,P|188:136|220:132,2,72
132,120,61254,5,0,0:0:0:0:
240,148,61438,1,0,0:0:0:0:
344,116,61622,1,0,0:0:0:0:
448,152,61806,1,0,0:0:0:0:
340,224,61990,6,0,P|288:224|252:248,1,72
132,260,62358,1,0,0:0:0:0:
132,260,62450,1,0,0:0:0:0:
132,260,62542,1,0,0:0:0:0:
312,296,62726,6,0,B|264:192|264:192|344:228,1,198.000006042481
132,120,63278,2,0,L|16:68,1,99.0000030212403
260,84,63646,2,0,B|378:133|378:133|328:56,1,198.000006042481
448,224,64199,2,0,L|512:308,1,99.0000030212403
128,260,64567,2,0,B|248:272|248:272|220:240,1,148.50000453186
176,188,64935,2,0,B|136:148|136:148|244:160|244:160|280:196,1,198.000006042481
176,48,65487,5,0,0:0:0:0:
176,48,65579,1,0,0:0:0:0:
180,52,65671,2,0,P|104:72|56:60,1,108
76,67,66223,5,0,0:0:0:0:
120,160,66407,1,0,0:0:0:0:
216,216,66591,1,0,0:0:0:0:
324,236,66775,1,0,0:0:0:0:
336,232,67143,5,0,0:0:0:0:
222,287,67327,1,0,0:0:0:0:
168,175,67511,1,0,0:0:0:0:
280,120,67696,1,0,0:0:0:0:
336,232,67880,2,0,P|308:296|316:328,2,72
436,168,68432,1,0,0:0:0:0:
164,176,68616,6,0,B|128:240|128:240|88:200,1,99.0000030212403
0,128,68984,2,0,B|36:64|36:64|76:104,1,99.0000030212403
236,236,69352,2,0,B|328:308|328:308|296:220,1,198.000006042481
240,32,69904,2,0,L|360:60,1,99.0000030212403
130,265,70272,2,0,L|164:172,2,99.0000030212403
116,88,70824,2,0,L|16:112,1,99.0000030212403
272,136,71192,2,0,L|372:156,1,99.0000030212403
187,318,71561,5,0,0:0:0:0:
163,172,71745,1,0,0:0:0:0:
302,225,71929,1,0,0:0:0:0:
328,204,72297,5,0,0:0:0:0:
456,130,72481,1,0,0:0:0:0:
327,56,72665,1,0,0:0:0:0:
368,180,72849,6,0,L|384:232,1,36
396,256,73033,2,0,P|336:288|260:256,1,144
148,192,73585,2,0,P|180:252|148:328,1,144
96,260,74321,5,0,0:0:0:0:
96,260,74413,1,0,0:0:0:0:
96,260,74505,2,0,P|56:240|20:236,1,72
196,232,74873,2,0,P|236:252|272:256,1,72
128,184,75242,2,0,P|148:144|152:108,1,72
168,308,75610,2,0,P|148:348|144:384,1,72
352,256,75978,6,0,L|348:200,1,36
344,172,76162,2,0,P|295:164|256:144,1,72
324,92,76530,1,0,0:0:0:0:
324,92,76622,1,0,0:0:0:0:
328,96,76714,2,0,P|400:108|424:196,1,144
429,166,77450,6,0,P|396:236|448:304,2,144
429,166,78554,2,0,P|464:128|468:100,1,72
360,232,78923,5,0,0:0:0:0:
250,209,79107,1,0,0:0:0:0:
171,135,79291,1,0,0:0:0:0:
61,122,79475,1,0,0:0:0:0:
105,224,79659,6,0,P|128:280|116:316,1,72
292,308,80027,2,0,P|236:331|200:319,1,72
280,52,80395,6,0,B|361:56|361:56|344:92,1,99.0000030212403
292,312,80763,2,0,B|316:192|316:192|260:280,1,198.000006042481
180,260,81499,2,0,L|252:156,1,99.0000030212403
392,312,81867,5,0,0:0:0:0:
472,232,82051,1,0,0:0:0:0:
472,232,82143,1,0,0:0:0:0:
472,232,82235,1,0,0:0:0:0:
152,172,82419,5,0,0:0:0:0:
232,92,82603,1,0,0:0:0:0:
232,92,82695,1,0,0:0:0:0:
232,92,82787,1,0,0:0:0:0:
80,260,82972,5,0,0:0:0:0:
104,290,83064,1,0,0:0:0:0:
137,313,83156,1,0,0:0:0:0:
174,326,83248,1,0,0:0:0:0:
212,332,83340,6,0,L|272:244,1,99.0000030212403
440,100,83708,2,0,L|380:188,1,99.0000030212403
192,308,84076,2,0,L|267:233,1,99.0000030212403
460,123,84444,2,0,L|384:197,1,99.0000030212403
112,160,84812,2,0,L|217:145,1,99.0000030212403
159,250,85180,5,0,0:0:0:0:
310,139,85364,1,0,0:0:0:0:
330,325,85548,1,0,0:0:0:0:
208,144,85732,2,0,L|104:168,1,99.0000030212403
256,48,86100,1,0,0:0:0:0:
256,48,86192,1,0,0:0:0:0:
256,48,86284,2,0,B|368:40|368:40|264:68,1,198.000006042481
460,192,86837,5,0,0:0:0:0:
460,192,86929,1,0,0:0:0:0:
460,192,87021,2,0,B|368:240|368:240|272:216,1,198.000006042481
356,152,87757,1,0,0:0:0:0:
244,320,87941,1,0,0:0:0:0:
300,80,88125,1,0,0:0:0:0:
108,220,88309,2,0,B|44:188|44:188|80:172,1,99.0000030212403
300,80,88677,2,0,L|200:120,2,99.0000030212403
476,308,89229,6,0,B|420:288|420:288|344:304,1,99.0000030212403
148,220,89597,2,0,B|204:240|204:240|280:224,1,99.0000030212403
464,260,89965,2,0,B|404:256|404:256|336:292,1,99.0000030212403
124,265,90333,2,0,B|183:268|183:268|248:220,1,99.0000030212403
444,56,90702,2,0,B|396:96|396:96|380:171,1,99.0000030212403
104,192,91070,5,0,0:0:0:0:
291,178,91254,1,0,0:0:0:0:
209,347,91438,1,0,0:0:0:0:
201,128,91622,2,0,B|141:107|141:107|188:88,1,99.0000030212403
373,237,91990,1,0,0:0:0:0:
373,237,92082,1,0,0:0:0:0:
373,237,92174,2,0,B|313:332|313:332|352:231,1,198.000006042481
128,64,92726,5,0,0:0:0:0:
104,176,92910,2,0,B|200:128|200:128|236:32,1,198.000006042481
292,332,93646,1,0,0:3:0:0:
403,233,93830,1,0,0:3:0:0:
261,188,94014,1,0,0:3:0:0:
224,208,94199,1,0,0:3:0:0:
332,356,94383,5,0,0:3:0:0:
372,213,94567,1,0,0:3:0:0:
228,253,94751,1,0,0:3:0:0:
191,273,94936,1,0,0:3:0:0:
396,48,95119,6,0,L|288:88,1,99.0000030212403
152,296,95487,2,0,L|92:197,1,99.0000030212403
331,99,95855,2,0,L|430:92,1,99.0000030212403,0|0,3:0|3:0,3:0:0:0:
128,160,96223,2,0,L|150:256,1,99.0000030212403
428,324,96591,2,0,L|343:272,1,99.0000030212403
310,49,96959,5,0,3:0:0:0:
263,231,97143,1,0,3:0:0:0:
443,179,97327,1,0,3:0:0:0:
217,140,97511,2,0,B|160:80|160:80|184:88,1,99.0000030212403,0|0,3:0|3:0,3:0:0:0:
128,224,97879,1,0,3:0:0:0:
128,224,97971,1,0,3:0:0:0:
128,224,98063,2,0,B|82:326|82:326|144:238,1,198.000006042481,0|0,3:0|3:0,3:0:0:0:
264,72,98616,5,0,0:0:0:0:
264,72,98708,1,0,0:0:0:0:
264,72,98800,2,0,L|368:120,1,99.0000030212403
452,320,99168,2,0,L|359:253,1,99.0000030212403
172,280,99536,5,0,0:0:0:0:
460,236,99720,1,0,0:0:0:0:
352,344,99904,1,0,0:0:0:0:
264,72,100088,2,0,B|328:104|328:104|292:120,1,99.0000030212403
72,212,100456,2,0,L|172:172,2,99.0000030212403
432,92,101008,6,0,B|384:136|384:136|375:192,1,99.0000030212403
132,272,101376,2,0,B|180:297|180:297|207:359,1,99.0000030212403,0|0,3:0|3:0,3:0:0:0:
350,147,101745,2,0,B|342:114|342:114|372:56,1,99.0000030212403
244,288,102113,2,0,B|213:256|213:256|158:249,1,99.0000030212403,0|0,3:0|3:0,3:0:0:0:
164,17,102480,2,0,B|200:56|200:56|202:109,1,99.0000030212403
409,239,102849,5,0,3:0:0:0:
224,274,103033,1,0,3:0:0:0:
285,96,103217,1,0,3:0:0:0:
320,313,103401,2,0,B|382:326|382:326|337:351,1,99.0000030212403,0|0,3:0|3:0,3:0:0:0:
136,264,103769,1,0,3:0:0:0:
136,264,103861,1,0,3:0:0:0:
136,264,103953,5,0,0:0:0:0:
121,216,104045,1,0,0:0:0:0:
129,169,104137,1,0,0:0:0:0:
175,158,104229,1,0,0:0:0:0:
223,170,104321,1,0,0:0:0:0:
270,186,104413,1,0,0:0:0:0:
318,198,104505,1,0,0:0:0:0:
366,191,104597,1,0,0:0:0:0:
391,151,104689,5,0,0:0:0:0:
375,106,104781,1,0,0:0:0:0:
330,94,104873,1,0,0:0:0:0:
294,127,104965,1,0,0:0:0:0:
284,175,105057,1,0,0:0:0:0:
289,224,105149,1,0,0:0:0:0:
306,271,105241,1,0,0:0:0:0:
333,312,105333,1,0,0:0:0:0:
357,331,105425,5,0,0:0:0:0:
309,320,105517,1,0,0:0:0:0:
259,322,105609,1,0,0:0:0:0:
211,332,105701,1,0,0:0:0:0:
162,339,105793,1,0,0:0:0:0:
113,333,105885,1,0,0:0:0:0:
74,304,105977,1,0,0:0:0:0:
52,260,106069,1,0,0:0:0:0:
44,211,106161,5,0,0:0:0:0:
49,162,106253,1,0,0:0:0:0:
71,118,106345,1,0,0:0:0:0:
110,90,106437,1,0,0:0:0:0:
159,80,106529,1,0,0:0:0:0:
208,73,106621,1,0,0:0:0:0:
253,53,106713,1,0,0:0:0:0:
289,20,106805,1,0,0:0:0:0:
256,192,106898,12,0,109843,0:0:0:0:
240,144,115732,6,0,L|224:76,1,53.9999983520508
260,244,116100,2,0,L|276:312,1,53.9999983520508
256,132,116469,2,0,L|261:62,1,53.9999983520508
244,233,116837,2,0,L|238:302,1,53.9999983520508
263,30,117205,5,0,0:0:0:0:
228,33,117297,1,0,0:0:0:0:
196,48,117389,1,0,0:0:0:0:
168,72,117481,1,0,0:0:0:0:
146,100,117573,1,0,0:0:0:0:
129,131,117665,1,0,0:0:0:0:
118,166,117757,1,0,0:0:0:0:
115,201,117849,1,0,0:0:0:0:
116,232,117941,6,0,L|120:248,18,13.4999995880127
128,276,118677,6,0,B|244:304|244:304|216:224,1,198.000006042481
356,340,119229,1,0,0:0:0:0:
356,340,119321,1,0,0:0:0:0:
356,340,119413,1,0,0:0:0:0:
460,300,119597,1,0,0:0:0:0:
140,204,119781,1,0,0:0:0:0:
176,184,120149,5,0,0:0:0:0:
392,136,120334,1,0,0:0:0:0:
100,200,120518,1,0,0:0:0:0:
484,116,120702,2,0,L|468:248,1,99.0000030212403
220,116,121070,1,0,0:0:0:0:
356,296,121254,1,0,0:0:0:0:
412,56,121438,1,0,0:0:0:0:
220,224,121622,5,0,0:0:0:0:
171,227,121714,1,0,0:0:0:0:
125,209,121806,1,0,0:0:0:0:
92,172,121898,1,0,0:0:0:0:
72,140,121990,6,0,L|47:255,1,99.0000030212403
288,192,122358,5,0,0:0:0:0:
336,188,122450,1,0,0:0:0:0:
382,206,122542,1,0,0:0:0:0:
415,243,122634,1,0,0:0:0:0:
436,276,122726,6,0,L|460:160,1,99.0000030212403
224,155,123094,5,0,0:0:0:0:
176,144,123186,1,0,0:0:0:0:
128,155,123278,1,0,0:0:0:0:
91,188,123370,1,0,0:0:0:0:
65,217,123462,6,0,L|57:100,1,99.0000030212403
287,196,123830,5,0,0:0:0:0:
333,206,123922,1,0,0:0:0:0:
382,194,124014,1,0,0:0:0:0:
419,163,124106,1,0,0:0:0:0:
445,133,124198,6,0,L|453:251,1,99.0000030212403
256,316,124567,2,0,B|136:296|136:296|236:280,1,198.000006042481
60,228,125119,1,0,0:0:0:0:
60,228,125211,1,0,0:0:0:0:
60,228,125303,2,0,B|124:140|124:140|84:40,1,198.000006042481
164,236,125855,5,0,0:0:0:0:
408,236,126039,2,0,B|344:192|344:192|404:324,1,198.000006042481
300,100,126591,2,0,B|272:40|272:40|260:136,1,148.50000453186
248,216,126959,2,0,B|234:303|234:303|196:180,1,198.000006042481
80,304,127511,5,0,0:0:0:0:
113,267,127603,1,0,0:0:0:0:
158,248,127695,1,0,0:0:0:0:
207,254,127787,1,0,0:0:0:0:
251,276,127879,1,0,0:0:0:0:
295,299,127971,1,0,0:0:0:0:
342,311,128063,1,0,0:0:0:0:
391,302,128155,1,0,0:0:0:0:
432,275,128248,6,0,B|456:164|456:164|392:252,1,198.000006042481
352,84,128800,5,0,0:0:0:0:
313,114,128892,1,0,0:0:0:0:
272,142,128984,1,0,0:0:0:0:
229,166,129076,1,0,0:0:0:0:
182,183,129168,5,0,0:0:0:0:
133,187,129260,1,0,0:0:0:0:
90,165,129352,1,0,0:0:0:0:
84,118,129444,1,0,0:0:0:0:
117,83,129536,1,0,0:0:0:0:
163,91,129628,1,0,0:0:0:0:
184,135,129720,1,0,0:0:0:0:
188,184,129812,1,0,0:0:0:0:
185,234,129904,1,0,0:0:0:0:
177,282,129996,1,0,0:0:0:0:
170,326,130088,5,0,0:0:0:0:
215,304,130180,1,0,0:0:0:0:
263,296,130272,1,0,0:0:0:0:
311,305,130364,1,0,0:0:0:0:
356,324,130456,6,0,L|388:220,1,99.0000030212403
244,44,130824,2,0,L|212:148,1,99.0000030212403
409,253,131192,2,0,L|383:148,1,99.0000030212403,0|0,3:0|3:0,3:0:0:0:
169,71,131560,2,0,L|195:176,1,99.0000030212403,0|0,3:0|3:0,3:0:0:0:
480,28,131929,2,0,L|396:112,1,99.0000030212403
472,288,132297,5,0,0:0:0:0:
326,171,132481,1,0,0:0:0:0:
297,356,132665,1,0,0:0:0:0:
252,128,132849,2,0,L|346:77,1,99.0000030212403,0|0,3:0|3:0,3:0:0:0:
104,128,133217,1,0,3:0:0:0:
104,128,133309,1,0,3:0:0:0:
104,128,133401,2,0,B|61:232|61:232|120:141,1,198.000006042481,0|0,3:0|3:0,3:0:0:0:
312,260,133953,5,0,0:0:0:0:
176,316,134137,1,0,0:0:0:0:
164,268,134229,1,0,0:0:0:0:
170,219,134321,1,0,0:0:0:0:
193,175,134413,1,0,0:0:0:0:
229,142,134505,1,0,0:0:0:0:
404,200,134689,6,0,B|328:108|328:108|360:208,1,198.000006042481
56,80,135242,2,0,L|172:120,1,99.0000030212403
376,292,135610,2,0,L|260:252,1,99.0000030212403
432,104,135978,1,0,0:0:0:0:
229,142,136162,1,0,0:0:0:0:
460,244,136346,6,0,B|410:266|410:266|344:260,1,99.0000030212403
96,228,136714,2,0,B|146:206|146:206|212:212,1,99.0000030212403
464,164,137082,2,0,B|427:204|427:204|364:225,1,99.0000030212403,0|0,3:0|3:0,3:0:0:0:
124,297,137450,2,0,B|160:256|160:256|223:235,1,99.0000030212403,0|0,3:0|3:0,3:0:0:0:
148,32,137818,2,0,B|149:86|149:86|182:143,1,99.0000030212403,0|0,3:0|3:0,3:0:0:0:
352,88,138186,5,0,0:0:0:0:
235,234,138370,1,0,0:0:0:0:
420,264,138554,1,0,0:0:0:0:
140,216,138738,6,0,L|89:122,1,99.0000030212403,0|0,3:0|3:0,3:0:0:0:
332,228,139106,1,0,3:0:0:0:
332,228,139198,1,0,3:0:0:0:
332,228,139290,2,0,B|407:144|407:144|316:204,1,198.000006042481,0|0,3:0|3:0,3:0:0:0:
160,312,139843,5,0,0:0:0:0:
300,200,140027,2,0,B|228:152|228:152|303:236,1,198.000006042481,0|0,3:0|3:0,3:0:0:0:
164,88,140579,1,0,0:0:0:0:
164,88,140671,1,0,0:0:0:0:
164,88,140763,1,0,0:0:0:0:
324,116,140947,2,0,L|348:68,2,49.5000015106202
308,144,141499,5,0,0:0:0:0:
88,56,141683,1,0,0:0:0:0:
220,208,141867,1,0,0:0:0:0:
376,92,142051,1,0,0:0:0:0:
124,276,142235,6,0,L|144:172,1,99.0000030212403
295,45,142603,2,0,L|308:150,1,99.0000030212403,0|0,3:0|3:0,3:0:0:0:
102,223,142972,2,0,L|158:133,1,99.0000030212403,0|0,3:0|3:0,3:0:0:0:
345,68,143340,2,0,L|319:171,1,99.0000030212403,0|0,3:0|3:0,3:0:0:0:
144,328,143708,2,0,L|32:312,1,99.0000030212403
272,60,144076,5,0,0:0:0:0:
149,201,144260,1,0,0:0:0:0:
333,237,144444,1,0,0:0:0:0:
112,112,144628,2,0,B|116:48|116:48|152:60,1,99.0000030212403
400,148,144996,1,0,0:0:0:0:
400,148,145088,1,0,0:0:0:0:
400,148,145180,2,0,B|292:114|292:114|377:123,1,198.000006042481
280,320,145732,5,0,0:0:0:0:
220,56,145916,2,0,B|184:176|184:176|176:88,1,198.000006042481
400,148,146469,1,0,0:0:0:0:
100,232,146653,2,0,L|216:264,1,99.0000030212403
416,244,147021,2,0,L|300:212,1,99.0000030212403
412,48,147389,5,0,0:0:0:0:
368,71,147481,1,0,0:0:0:0:
320,80,147573,1,0,0:0:0:0:
271,74,147665,1,0,0:0:0:0:
228,60,147757,2,0,L|204:48,9,16.5000005035401
144,32,148125,6,0,B|92:16|92:16|28:28,1,99.0000030212403
256,152,148493,2,0,B|308:168|308:168|372:156,1,99.0000030212403
184,48,148861,2,0,B|132:65|132:65|87:112,1,99.0000030212403
345,79,149229,2,0,B|396:61|396:61|441:14,1,99.0000030212403
372,224,149597,2,0,B|341:269|341:269|334:333,1,99.0000030212403
102,217,149965,5,0,0:0:0:0:
289,203,150149,1,0,0:0:0:0:
184,48,150333,1,0,0:0:0:0:
192,267,150517,2,0,B|252:288|252:288|205:307,1,99.0000030212403
20,158,150885,1,0,0:0:0:0:
20,158,150977,1,0,0:0:0:0:
20,158,151069,2,0,B|80:63|80:63|41:164,1,198.000006042481
272,100,151622,5,0,0:0:0:0:
416,276,151806,2,0,B|380:180|380:180|472:280,1,198.000006042481
148,146,152542,6,0,L|132:94,1,49.5000015106202
244,190,152726,2,0,L|260:242,1,49.5000015106202
168,222,152910,2,0,L|116:238,1,49.5000015106202
224,114,153094,2,0,L|276:98,1,49.5000015106202
172,138,153278,6,0,L|182:84,1,49.5000015106202
236,221,153462,2,0,L|225:274,1,49.5000015106202
153,214,153646,2,0,L|99:203,1,49.5000015106202
254,145,153830,2,0,L|307:155,1,49.5000015106202
199,150,154015,6,0,L|228:104,1,49.5000015106202
227,251,154199,2,0,L|197:296,1,49.5000015106202
153,214,154383,2,0,L|107:184,1,49.5000015106202
272,187,154567,2,0,L|317:216,1,49.5000015106202
214,174,154751,6,0,L|257:141,1,49.5000015106202
205,279,154935,2,0,L|161:311,1,49.5000015106202
149,218,155119,2,0,L|116:174,1,49.5000015106202
256,192,155303,12,0,159168,0:0:0:0:
256,192,159812,5,0,0:0:0:0:
256,192,160088,12,0,163953,0:0:0:0:
