osu file format v14

[General]
AudioFilename: audio.mp3
AudioLeadIn: 0
PreviewTime: 57299
Countdown: 0
SampleSet: Soft
StackLeniency: 0.7
Mode: 2
LetterboxInBreaks: 0
WidescreenStoryboard: 1

[Editor]
Bookmarks: 15584,29599,36606,43613,57628,78650
DistanceSpacing: 0.8
BeatDivisor: 4
GridSize: 4
TimelineZoom: 1.7

[Metadata]
Title:Velonica (TV Size)
TitleUnicode:Velonica (TV Size)
Artist:Aqua Timez
ArtistUnicode:Aqua Timez
Creator:Secre
Version:Salad
Source:BLEACH
Tags:chickenbible jpop j-pop rock j-rock anime japanese opening 9 op9 nine kurosaki ichigo times versus crusade resurreccion resurrection Nelliel Tu Odelschwanck γƒ–γƒͺーチ
BeatmapID:4108415
BeatmapSetID:1901630

[Difficulty]
HPDrainRate:3
CircleSize:3.2
OverallDifficulty:7
ApproachRate:7
SliderMultiplier:1.81
SliderTickRate:2

[Events]
//Background and Video events
0,0,"nel my mommy.jpg",0,0
Video,0,"OP9.mp4"
//Break Periods
//Storyboard Layer 0 (Background)
//Storyboard Layer 1 (Fail)
//Storyboard Layer 2 (Pass)
//Storyboard Layer 3 (Foreground)
//Storyboard Layer 4 (Overlay)
//Storyboard Sound Samples

[TimingPoints]
1570,437.956204379562,4,2,1,30,1,0
8577,-100,4,2,1,50,0,0
15584,-100,4,2,1,40,0,0
43613,-100,4,2,1,35,0,0
50621,-100,4,2,1,40,0,0
57628,-100,4,2,1,69,0,1
87518,-100,4,2,1,40,0,0
88285,-100,4,2,1,30,0,0
89161,-100,4,2,1,20,0,0
90037,-100,4,2,1,15,0,0

[Colours]
Combo1 : 126,240,98
Combo2 : 241,105,108

[HitObjects]
335,187,1570,6,0,P|384:163|314:89,1,181,0|2,1:0|0:0,0:0:0:0:
235,92,2226,2,0,L|33:93,1,181,2|2,1:2|0:0,0:0:0:0:
146,164,2883,1,2,0:0:0:0:
56,162,3102,5,2,1:2:0:0:
256,192,3540,12,2,4635,0:0:0:0:
177,187,5073,6,0,P|128:163|198:89,1,181,0|2,1:0|0:0,0:0:0:0:
277,92,5729,2,0,L|479:93,1,181,2|2,1:2|0:0,0:0:0:0:
366,164,6386,1,2,0:0:0:0:
456,162,6605,5,2,1:2:0:0:
256,192,7043,12,2,8138,0:0:0:0:
205,131,8577,6,0,L|395:131,1,181,12|10,0:0|0:0,0:0:0:0:
293,195,9234,1,2,1:2:0:0:
388,121,9453,2,0,L|480:121,2,90.5,2|2|10,0:0|1:2|0:0,0:0:0:0:
199,113,10110,6,0,P|145:113|124:226,1,181,12|0,0:0|1:0,0:0:0:0:
206,227,10767,1,10,0:0:0:0:
30,152,11205,2,0,L|26:48,1,90.5,2|2,1:2|0:0,0:0:0:0:
120,27,11642,1,10,0:0:0:0:
448,41,12080,6,0,P|450:110|336:145,1,181,12|10,0:0|0:0,0:0:0:0:
270,147,12737,2,0,L|271:48,1,90.5,2|2,1:2|0:0,0:0:0:0:
363,32,13175,2,0,L|363:142,1,90.5,2|10,1:2|0:0,0:0:0:0:
168,170,13613,6,0,P|104:172|97:284,1,181,12|0,0:0|1:0,0:0:0:0:
179,287,14270,2,0,L|312:285,1,90.5,10|2,0:0|0:0,0:0:0:0:
179,287,14708,2,0,L|181:159,1,90.5,2|2,1:2|1:2,0:0:0:0:
270,137,15146,1,10,0:0:0:0:
315,136,15255,1,10,0:0:0:0:
360,136,15364,1,2,1:2:0:0:
171,73,15584,6,0,P|107:72|95:182,1,181,12|2,0:0|0:0,0:0:0:0:
177,182,16241,2,0,L|177:295,1,90.5,10|0,0:0|0:0,0:0:0:0:
87,293,16679,1,2,1:2:0:0:
178,293,16898,1,10,0:0:0:0:
87,293,17117,1,2,1:2:0:0:
249,169,17555,6,0,L|370:166,2,90.5,2|2|10,0:0|0:0|0:0,0:0:0:0:
159,184,18212,2,0,L|161:304,1,90.5,2|2,0:0|1:2,0:0:0:0:
254,310,18650,2,0,L|372:311,1,90.5,10|2,0:0|0:0,0:0:0:0:
148,252,19088,6,0,P|101:231|178:158,1,181,12|2,0:0|0:0,0:0:0:0:
248,142,19745,2,0,L|446:141,1,181,10|2,0:0|1:2,0:0:0:0:
337,217,20402,1,10,0:0:0:0:
428,141,20621,1,2,1:2:0:0:
256,106,21059,6,0,L|165:105,2,90.5,2|2|10,0:0|0:0|0:0,0:0:0:0:
346,109,21715,2,0,L|344:232,1,90.5,2|2,0:0|1:2,0:0:0:0:
434,220,22153,1,10,0:0:0:0:
433,265,22262,1,0,1:0:0:0:
432,310,22371,1,10,0:0:0:0:
246,251,22591,6,0,P|205:227|286:153,1,181,12|2,0:0|0:0,0:0:0:0:
356,135,23248,2,0,L|355:241,1,90.5,10|0,0:0|0:0,0:0:0:0:
259,264,23686,1,2,1:2:0:0:
351,246,23905,1,10,0:0:0:0:
259,264,24124,1,2,1:2:0:0:
100,210,24562,6,0,L|98:20,1,181,2|10,0:0|0:0,0:0:0:0:
188,23,25219,1,2,0:0:0:0:
101,57,25438,2,0,L|7:57,2,90.5,2|10|2,1:2|0:0|0:0,0:0:0:0:
302,44,26095,6,0,P|382:47|393:147,1,181,4|2,1:2|0:0,0:0:0:0:
305,150,26752,2,0,L|305:258,1,90.5,10|0,0:0|0:0,0:0:0:0:
396,273,27190,1,2,1:2:0:0:
307,268,27409,1,10,0:0:0:0:
396,273,27628,1,2,1:2:0:0:
295,131,28066,6,0,L|178:135,2,90.5,2|2|2,1:2|0:0|1:2,0:0:0:0:
387,132,28723,2,0,L|388:250,1,90.5,2|2,0:0|0:0,0:0:0:0:
483,265,29161,1,8,0:0:0:0:
155,179,29599,6,0,P|97:153|168:84,1,181,12|2,0:0|0:0,0:0:0:0:
254,64,30256,2,0,L|256:177,1,90.5,8|2,0:0|0:0,0:0:0:0:
167,198,30694,1,2,1:2:0:0:
255,197,30913,1,10,0:0:0:0:
439,207,31132,6,0,L|441:15,1,181,2|2,1:2|1:2,0:0:0:0:
355,18,31788,1,10,0:0:0:0:
189,105,32226,2,0,L|189:216,1,90.5,2|2,1:2|0:0,0:0:0:0:
277,230,32664,1,10,0:0:0:0:
463,242,32883,1,2,1:2:0:0:
463,242,33321,5,2,1:2:0:0:
372,242,33539,1,10,0:0:0:0:
282,242,33758,1,2,0:0:0:0:
372,242,33978,2,0,L|371:132,1,90.5,2|2,1:2|0:0,0:0:0:0:
282,242,34416,1,10,0:0:0:0:
98,225,34635,1,10,0:0:0:0:
98,225,35073,6,0,L|218:227,2,90.5,2|10|2,1:2|0:0|0:0,0:0:0:0:
15,150,35730,2,0,L|13:21,1,90.5,2|2,1:2|0:0,0:0:0:0:
113,45,36168,1,10,0:0:0:0:
158,42,36277,1,2,0:0:0:0:
203,40,36386,1,2,1:2:0:0:
405,57,36606,6,0,P|411:123|389:192,1,135.75,12|12,0:0|0:0,0:0:0:0:
259,194,37263,2,0,P|171:209|181:294,1,181,12|2,0:0|1:2,0:0:0:0:
266,332,37920,1,10,0:0:0:0:
457,313,38139,1,2,1:2:0:0:
457,313,38577,5,2,1:2:0:0:
366,313,38795,1,10,0:0:0:0:
276,313,39014,1,2,0:0:0:0:
366,313,39234,2,0,L|368:204,1,90.5,2|2,1:2|0:0,0:0:0:0:
276,313,39672,2,0,L|176:309,1,90.5,10|10,0:0|0:0,0:0:0:0:
377,225,40110,6,0,P|426:198|357:133,1,181,12|2,0:0|0:0,0:0:0:0:
267,146,40767,2,0,L|70:139,1,181,2|2,1:2|1:2,0:0:0:0:
178,227,41424,1,10,0:0:0:0:
373,232,41642,1,12,0:0:0:0:
373,232,42080,6,0,L|281:232,2,90.5,2|10|2,1:2|0:0|0:0,0:0:0:0:
463,230,42737,2,0,L|463:119,1,90.5,2|10,1:2|0:0,0:0:0:0:
369,110,43175,1,10,0:0:0:0:
369,64,43284,1,8,3:0:0:0:
369,19,43393,1,8,3:0:0:0:
177,55,43613,6,0,P|122:57|103:176,1,181,6|8,1:2|3:0,0:0:0:0:
191,170,44270,2,0,P|275:172|275:266,1,181,2|0,1:2|1:0,0:0:0:0:
192,274,44927,1,8,3:0:0:0:
357,59,45365,6,0,P|412:61|431:180,1,181,8|8,3:0|3:0,0:0:0:0:
343,174,46022,2,0,L|226:182,2,90.5,2|10|0,1:2|3:2|1:0,0:0:0:0:
438,168,46679,2,0,L|441:289,1,90.5,10|2,3:0|1:2,0:0:0:0:
253,233,47117,6,0,P|183:237|190:333,1,181,6|8,0:0|3:0,0:0:0:0:
279,337,47774,2,0,P|330:313|251:244,1,181,2|0,1:2|1:0,0:0:0:0:
185,221,48431,1,8,3:0:0:0:
369,175,48869,6,0,L|370:-45,1,181,8|8,3:0|3:0,0:0:0:0:
280,59,49526,2,0,L|182:66,2,90.5,2|10|2,1:2|3:2|1:2,0:0:0:0:
375,61,50183,2,0,L|480:58,1,90.5,10|2,3:0|1:2,0:0:0:0:
268,121,50621,6,0,L|64:120,1,181,6|8,0:0|0:0,0:0:0:0:
184,173,51278,2,0,L|293:173,2,90.5,2|8|0,1:2|0:0|1:0,0:0:0:0:
95,172,51934,1,8,0:0:0:0:
174,174,52153,1,2,1:2:0:0:
95,172,52372,5,8,0:0:0:0:
13,105,52591,2,0,L|9:2,1,90.5,2|8,1:2|0:0,0:0:0:0:
107,46,53029,2,0,L|331:41,1,181,2|2,1:2|1:2,0:0:0:0:
196,117,53686,1,2,1:2:0:0:
104,122,53905,1,8,0:0:0:0:
411,54,54343,6,0,L|510:51,2,90.5,10|10|2,0:0|0:0|0:0,0:0:0:0:
318,102,55000,2,0,L|439:99,2,90.5,10|10|2,0:0|0:0|1:2,0:0:0:0:
128,240,55657,6,0,P|81:223|156:152,1,181,10|10,0:0|0:0,0:0:0:0:
224,135,56314,1,10,0:0:0:0:
146,123,56533,2,0,L|143:-5,1,90.5,2|8,1:2|0:0,0:0:0:0:
193,18,56861,1,8,0:0:0:0:
243,14,56971,1,10,0:0:0:0:
288,13,57080,1,8,0:0:0:0:
333,12,57189,1,8,0:0:0:0:
333,12,57409,1,10,0:0:0:0:
141,143,57628,6,0,L|14:139,2,90.5,14|2|10,0:0|0:0|0:0,0:0:0:0:
240,141,58285,2,0,P|297:154|236:212,1,181,2|2,1:2|1:2,0:0:0:0:
153,342,58942,1,8,0:0:0:0:
358,248,59161,6,0,L|471:239,1,90.5,2|2,1:2|1:2,0:0:0:0:
358,248,59599,2,0,L|355:117,1,90.5,2|10,0:0|0:0,0:0:0:0:
262,126,60037,2,0,L|65:117,1,181,2|2,1:2|1:2,0:0:0:0:
172,187,60694,1,8,0:0:0:0:
469,127,61132,6,0,L|337:119,2,90.5,2|2|10,1:2|0:0|0:0,0:0:0:0:
384,124,61788,2,0,L|195:114,1,181,2|2,1:2|1:2,0:0:0:0:
377,130,62664,6,0,L|379:235,1,90.5,2|2,1:2|1:2,0:0:0:0:
292,237,63102,1,2,0:0:0:0:
382,235,63320,1,10,0:0:0:0:
292,237,63539,1,0,1:0:0:0:
198,231,63759,2,0,L|197:127,1,90.5,2|2,0:0|1:2,0:0:0:0:
391,139,64197,2,0,L|394:241,1,90.5,10|2,0:0|1:2,0:0:0:0:
194,151,64635,6,0,L|85:146,2,90.5,14|2|10,0:0|0:0|0:0,0:0:0:0:
280,159,65292,2,0,L|283:33,1,90.5,2|2,1:2|0:0,0:0:0:0:
184,52,65730,2,0,L|82:52,1,90.5,2|8,1:2|0:0,0:0:0:0:
279,45,66168,6,0,L|277:158,1,90.5,2|2,1:2|1:2,0:0:0:0:
190,129,66606,2,0,L|188:260,1,90.5,2|10,0:0|0:0,0:0:0:0:
286,248,67044,2,0,L|491:239,1,181,2|2,1:2|1:2,0:0:0:0:
373,177,67701,1,8,0:0:0:0:
90,96,68139,6,0,L|211:91,2,90.5,2|2|10,1:2|0:0|0:0,0:0:0:0:
180,92,68796,2,0,P|239:93|272:217,1,181,2|2,1:2|1:2,0:0:0:0:
202,209,69453,1,8,0:0:0:0:
291,158,69672,6,0,L|293:31,1,90.5,2|2,1:2|1:2,0:0:0:0:
204,53,70110,1,2,0:0:0:0:
120,52,70329,2,0,L|116:186,1,90.5,10|2,0:0|1:2,0:0:0:0:
307,186,70767,2,0,L|437:182,1,90.5,8|8,0:0|0:0,0:0:0:0:
216,106,71205,2,0,L|122:104,1,90.5,8|8,0:0|0:0,0:0:0:0:
320,103,71642,6,0,P|399:106|408:216,1,181,14|10,0:0|0:0,0:0:0:0:
330,208,72299,2,0,L|331:313,1,90.5,2|2,1:2|0:0,0:0:0:0:
244,324,72737,2,0,L|140:316,1,90.5,2|8,1:2|0:0,0:0:0:0:
352,219,73175,6,0,P|418:222|438:329,1,181,2|2,1:2|0:0,0:0:0:0:
354,333,73832,1,10,0:0:0:0:
265,254,74051,2,0,L|268:137,1,90.5,2|2,1:2|0:0,0:0:0:0:
359,149,74489,2,0,L|361:27,1,90.5,2|8,1:2|0:0,0:0:0:0:
63,85,75146,6,0,L|184:79,2,90.5,2|2|10,1:2|0:0|0:0,0:0:0:0:
160,80,75803,2,0,L|369:68,1,181,2|2,1:2|1:2,0:0:0:0:
247,147,76460,1,8,0:0:0:0:
332,146,76679,6,0,L|333:268,1,90.5,2|2,1:2|1:2,0:0:0:0:
241,273,77117,2,0,L|142:267,2,90.5,2|10|0,0:0|0:0|1:0,0:0:0:0:
342,243,77774,2,0,L|459:246,1,90.5,2|2,0:0|1:2,0:0:0:0:
253,114,78212,2,0,L|133:116,1,90.5,10|2,0:0|1:2,0:0:0:0:
363,50,78650,6,0,L|475:51,2,90.5,14|2|10,0:0|0:0|0:0,0:0:0:0:
272,57,79307,2,0,L|68:55,1,181,2|2,1:2|1:2,0:0:0:0:
187,137,79964,1,8,0:0:0:0:
384,141,80183,6,0,L|389:265,1,90.5,2|2,1:2|1:2,0:0:0:0:
297,269,80621,2,0,L|189:261,1,90.5,2|10,0:0|0:0,0:0:0:0:
297,269,81059,2,0,L|487:263,1,181,2|2,1:2|1:2,0:0:0:0:
391,200,81715,1,8,0:0:0:0:
81,115,82153,6,0,L|210:117,2,90.5,2|2|10,1:2|0:0|0:0,0:0:0:0:
178,119,82810,2,0,L|184:248,1,90.5,2|2,1:2|0:0,0:0:0:0:
275,237,83248,2,0,L|366:231,1,90.5,2|8,1:2|0:0,0:0:0:0:
171,227,83686,6,0,P|120:209|195:142,1,181,12|0,0:0|1:0,0:0:0:0:
270,127,84343,1,8,0:0:0:0:
184,101,84562,1,0,1:0:0:0:
184,55,84671,1,8,0:0:0:0:
184,10,84780,1,0,1:0:0:0:
270,127,85000,1,0,1:0:0:0:
184,101,85219,1,8,0:0:0:0:
380,69,85438,6,0,P|442:82|380:147,1,181,12|0,0:0|1:0,0:0:0:0:
295,163,86095,2,0,L|295:270,1,90.5,8|2,0:0|1:2,0:0:0:0:
202,288,86533,1,8,0:0:0:0:
157,287,86642,1,8,0:0:0:0:
121,260,86751,1,8,0:0:0:0:
108,218,86861,1,8,0:0:0:0:
123,176,86970,1,8,0:0:0:0:
159,150,87080,1,8,0:0:0:0:
203,150,87189,1,8,0:0:0:0:
398,143,87409,5,12,0:0:0:0:
256,192,87847,12,0,90475,0:0:0:0:
