osu file format v14

[General]
AudioFilename: audio.mp3
AudioLeadIn: 0
PreviewTime: 57302
Countdown: 0
SampleSet: None
StackLeniency: 0.7
Mode: 0
LetterboxInBreaks: 0
WidescreenStoryboard: 0

[Editor]
Bookmarks: 15587,29602,36609,43616,57631,85441
DistanceSpacing: 1
BeatDivisor: 2
GridSize: 4
TimelineZoom: 1.1

[Metadata]
Title:Velonica (TV Size)
TitleUnicode:Velonica (TV Size)
Artist:Aqua Timez
ArtistUnicode:Aqua Timez
Creator:-Neipezi
Version:Normal
Source:BLEACH
Tags:γƒ–γƒͺーチ rock pop jrock j-rock Jpop J-pop Anime Japanese Opening9 OP9 Kurosaki Ichigo alankal vs shinigami
BeatmapID:4523756
BeatmapSetID:2147618

[Difficulty]
HPDrainRate:5
CircleSize:4
OverallDifficulty:5
ApproachRate:6
SliderMultiplier:1.1
SliderTickRate:1

[Events]
//Background and Video events
0,0,"bg.jpg",0,0
Video,1100,"OP9.flv"
//Break Periods
//Storyboard Layer 0 (Background)
//Storyboard Layer 1 (Fail)
//Storyboard Layer 2 (Pass)
//Storyboard Layer 3 (Foreground)
//Storyboard Layer 4 (Overlay)
//Storyboard Sound Samples

[TimingPoints]
1573,437.956204379562,4,2,0,69,1,0
8580,-100,4,2,0,69,0,0
43616,-100,4,2,0,69,0,0
50624,-100,4,2,0,69,0,0
57631,-100,4,2,0,69,0,1
87521,-100,4,2,0,5,0,0

[Colours]
Combo1 : 0,128,128
Combo2 : 128,255,255
Combo3 : 18,124,255
Combo4 : 0,255,0

[HitObjects]
500,76,1573,6,0,L|336:56,1,165,2|2,0:3|0:3,0:0:0:0:
256,132,2667,1,0,0:0:0:0:
332,212,3105,2,0,P|352:268|344:320,1,110,2|2,0:3|0:0,0:0:0:0:
292,304,3762,2,0,L|228:288,1,55,0|2,0:0|0:0,0:0:0:0:
160,212,4419,2,0,L|136:268,2,55,2|0|2,0:0|0:0|0:0,0:0:0:0:
188,164,5076,6,0,L|360:144,1,165,2|2,0:3|0:3,0:0:0:0:
428,224,6171,1,0,0:0:0:0:
380,324,6609,1,2,0:3:0:0:
280,280,7047,2,0,L|288:344,2,55,2|0|2,0:0|0:0|0:0,0:0:0:0:
268,172,7923,1,2,0:0:0:0:
268,172,8580,6,0,P|216:160|180:112,1,110,4|0,3:2|1:0,0:0:0:0:
184,8,9456,2,0,L|120:40,1,55,4|4,3:0|3:0,0:0:0:0:
88,60,9894,1,0,1:0:0:0:
88,60,10113,2,0,P|76:152|20:204,1,165,4|0,3:0|1:0,0:0:0:0:
0,304,11208,2,0,P|20:324|44:336,1,55,4|4,3:0|3:0,0:0:0:0:
84,296,11645,2,0,P|112:288|132:268,1,55,0|4,1:0|3:0,0:0:0:0:
132,216,12083,6,0,L|248:240,1,110,4|0,3:2|1:0,0:0:0:0:
292,248,12740,2,0,P|324:200|384:188,1,110,4|4,3:0|3:0,0:0:0:0:
428,188,13397,1,4,3:0:0:0:
452,140,13616,2,0,P|424:64|348:32,1,165,4|0,1:2|1:0,0:0:0:0:
236,60,14711,2,0,L|176:36,1,55,4|4,3:0|3:0,0:0:0:0:
132,24,15149,2,0,L|156:84,1,55,0|8,1:0|3:0,0:0:0:0:
176,124,15587,6,0,L|12:152,1,165,4|0,3:2|1:0,0:0:0:0:
96,224,16682,2,0,L|164:212,1,55,4|0,3:0|1:0,0:0:0:0:
204,208,17120,2,0,P|280:232|312:308,1,165,0|0,3:0|0:0,0:0:0:0:
300,352,17996,2,0,L|180:340,1,110,0|4,1:0|3:0,0:0:0:0:
136,332,18653,2,0,L|72:327,1,55,0|4,1:0|3:0,0:0:0:0:
28,320,19091,6,0,P|64:284|80:224,1,110,4|2,3:0|0:0,0:0:0:0:
72,172,19748,1,0,1:0:0:0:
152,96,20186,2,0,L|192:56,1,55,4|0,3:0|1:0,0:0:0:0:
228,24,20624,2,0,L|348:40,1,110,2|0,0:3|3:0,0:0:0:0:
392,48,21281,1,0,0:0:0:0:
392,48,21500,2,0,L|368:220,1,165,4|0,3:0|1:0,0:0:0:0:
364,265,22375,1,0,1:0:0:0:
356,320,22594,6,0,B|316:312|276:320|276:320|236:328|188:320,1,165,4|0,3:2|1:0,0:0:0:0:
84,340,23689,2,0,L|60:288,1,55,4|0,3:0|1:0,0:0:0:0:
40,240,24127,1,0,0:0:0:0:
40,240,24346,6,0,P|68:180|108:160,1,110,4|0,3:0|0:0,0:0:0:0:
140,116,25003,1,0,1:0:0:0:
236,172,25441,2,0,L|256:228,2,55,2|0|2,0:0|1:0|3:2,0:0:0:0:
268,128,26098,2,0,P|296:72|348:52,1,110,4|2,3:0|0:0,0:0:0:0:
392,48,26755,1,0,1:0:0:0:
436,80,26974,2,0,L|452:132,1,55,0|2,0:0|0:0,0:0:0:0:
472,184,27412,1,0,1:0:0:0:
452,236,27631,6,0,P|420:284|368:292,1,110,2|4,0:0|3:0,0:0:0:0:
324,264,28288,1,2,3:2:0:0:
224,300,28726,2,0,L|172:320,1,55,0|2,0:0|0:0,0:0:0:0:
120,308,29164,2,0,P|112:272|116:244,1,55,0|0,1:0|0:0,0:0:0:0:
152,216,29602,6,0,B|204:196|204:196|220:132,1,110,2|0,3:0|0:0,0:0:0:0:
236,92,30259,2,0,L|128:128,1,110,2|4,3:0|3:0,0:0:0:0:
88,160,30916,1,0,1:0:0:0:
68,212,31135,6,0,P|76:276|108:312,1,110,4|4,3:0|3:0,0:0:0:0:
148,340,31791,1,0,1:0:0:0:
256,312,32229,2,0,L|316:328,1,55,4|2,3:0|0:0,0:0:0:0:
364,340,32667,6,0,L|408:304,1,55,0|4,1:0|3:0,0:0:0:0:
496,240,33324,1,4,3:0:0:0:
452,208,33543,2,0,P|416:160|420:108,1,110,0|4,1:0|3:0,0:0:0:0:
364,16,34419,6,0,L|348:72,1,55,0|2,1:0|3:2,0:0:0:0:
316,172,35076,2,0,L|368:188,2,55,2|0|0,0:0|1:0|0:0,0:0:0:0:
284,128,35733,2,0,L|300:76,1,55,0|0,0:0|3:0,0:0:0:0:
316,24,36171,2,0,L|252:40,1,55,0|4,1:0|3:0,0:0:0:0:
212,56,36609,6,0,P|140:32|48:32,1,165,4|4,3:2|0:0,0:0:0:0:
16,136,37704,2,0,L|72:124,1,55,4|0,3:0|1:0,0:0:0:0:
124,116,38142,2,0,B|104:224,1,110,6|4,3:0|3:0,0:0:0:0:
144,256,38799,2,0,B|252:276,1,110,0|0,1:0|0:0,0:0:0:0:
360,296,39675,1,0,1:0:0:0:
324,192,40113,5,4,3:2:0:0:
428,156,40551,1,2,0:0:0:0:
428,156,40770,2,0,P|480:168|504:216,1,110,6|4,3:0|3:0,0:0:0:0:
480,264,41427,1,0,1:0:0:0:
436,288,41645,6,0,L|328:308,1,110,4|4,3:2|3:0,0:0:0:0:
272,320,42302,1,0,1:0:0:0:
164,340,42740,2,0,L|112:292,1,55,0|0,0:0|1:0,0:0:0:0:
136,248,43178,2,0,L|124:192,1,55,0|4,1:0|3:0,0:0:0:0:
116,140,43616,6,0,P|148:68|232:52,1,165,4|2,3:2|0:0,0:0:0:0:
276,76,44492,1,0,0:0:0:0:
384,100,44930,1,6,3:0:0:0:
304,176,45368,5,2,3:2:0:0:
412,204,45806,1,4,3:0:0:0:
332,280,46244,2,0,L|276:268,1,55,0|2,3:0|0:0,0:0:0:0:
236,304,46682,2,0,L|180:292,1,55,0|0,3:0|3:0,0:0:0:0:
128,280,47120,6,0,P|64:256|72:168,1,165,4|2,3:2|0:0,0:0:0:0:
116,140,47996,2,0,L|152:32,1,110,0|4,0:0|3:0,0:0:0:0:
256,64,48872,2,0,P|340:56|396:116,1,165,4|2,3:0|0:0,0:0:0:0:
432,148,49748,6,0,L|444:208,1,55,4|2,3:0|0:0,0:0:0:0:
404,240,50186,2,0,L|416:300,1,55,4|4,3:0|3:0,0:0:0:0:
380,336,50624,6,0,B|344:348|304:336|304:336|256:324|216:336,1,165,4|4,3:2|3:0,0:0:0:0:
162,335,51500,1,0,1:0:0:0:
84,257,51937,1,0,1:0:0:0:
96,204,52156,6,0,P|64:152|72:104,1,110,4|4,3:0|3:0,0:0:0:0:
96,56,52813,1,0,1:0:0:0:
148,40,53032,2,0,L|260:52,1,110,4|0,3:0|3:0,0:0:0:0:
312,60,53689,2,0,L|320:116,1,55,4|4,3:0|1:2,0:0:0:0:
336,224,54346,6,0,L|400:232,1,55,2|2,3:0|1:3,0:0:0:0:
368,124,55003,2,0,L|304:116,1,55,2|2,3:0|1:3,0:0:0:0:
208,120,55660,6,0,P|152:152|136:204,1,110,2|2,3:0|3:0,0:0:0:0:
160,244,56317,1,2,1:3:0:0:
100,336,56755,2,0,L|76:284,1,55,0|0,1:0|1:0,0:0:0:0:
24,276,57193,2,0,L|48:224,1,55,8|8,3:0|3:0,0:0:0:0:
20,180,57631,6,0,P|44:128|96:116,1,110,4|0,3:2|1:0,0:0:0:0:
200,120,58507,2,0,L|180:68,2,55,0|2|0,0:0|3:2|1:0,0:0:0:0:
168,164,59164,2,0,P|132:212|136:260,1,110,2|2,3:2|0:0,0:0:0:0:
215,335,60040,2,0,L|332:350,1,110,2|0,0:0|3:0,0:0:0:0:
360,300,60697,2,0,L|420:292,1,55,0|4,1:0|3:0,0:0:0:0:
448,248,61135,6,0,P|476:176|476:84,1,165,2|2,0:0|3:2,0:0:0:0:
384,28,62229,2,0,L|400:92,1,55,2|0,3:2|1:0,0:0:0:0:
372,124,62667,2,0,L|248:100,1,110,2|2,3:2|0:0,0:0:0:0:
208,92,63324,1,0,1:0:0:0:
184,200,63762,2,0,L|240:196,1,55,0|0,3:0|3:0,0:0:0:0:
288,220,64200,2,0,L|296:276,1,55,0|2,1:0|3:2,0:0:0:0:
308,328,64638,6,0,L|196:340,1,110,4|0,3:2|1:0,0:0:0:0:
144,348,65295,2,0,P|88:344|48:300,1,110,2|2,0:0|3:2,0:0:0:0:
24,260,65952,1,0,1:0:0:0:
36,208,66171,2,0,L|20:92,1,110,2|2,0:0|0:0,0:0:0:0:
12,44,66828,1,0,1:0:0:0:
60,20,67047,2,0,P|148:48|152:112,1,165,4|0,3:0|1:0,0:0:0:0:
96,204,68142,6,0,P|124:260|176:268,1,110,2|0,3:2|1:0,0:0:0:0:
220,256,68799,2,0,L|184:372,1,110,2|2,3:2|3:2,0:0:0:0:
242,349,69456,1,0,1:0:0:0:
296,336,69675,2,0,L|332:220,1,110,0|0,3:0|0:0,0:0:0:0:
348,180,70332,1,0,1:0:0:0:
256,116,70770,2,0,L|236:64,1,55,0|0,1:0|1:0,0:0:0:0:
188,92,71208,2,0,L|168:40,1,55,0|0,1:0|1:0,0:0:0:0:
120,68,71645,6,0,P|76:100|64:152,1,110,4|0,3:2|1:0,0:0:0:0:
76,208,72302,1,2,3:2:0:0:
184,228,72740,1,0,3:0:0:0:
220,332,73178,6,0,L|332:328,1,110,4|0,3:0|0:0,0:0:0:0:
304,280,73835,1,0,1:0:0:0:
280,232,74054,2,0,L|392:228,1,110,0|2,0:0|3:2,0:0:0:0:
444,224,74711,1,0,1:0:0:0:
468,120,75149,6,0,L|484:68,2,55,2|0|0,3:2|0:0|1:0,0:0:0:0:
416,104,75806,2,0,P|344:64|260:84,1,165,2|0,3:2|1:0,0:0:0:0:
224,40,76682,2,0,L|240:152,1,110,2|2,3:2|0:0,0:0:0:0:
248,204,77339,2,0,P|232:292|168:316,1,165,0|0,1:0|3:0,0:0:0:0:
116,296,78215,1,0,1:0:0:0:
80,180,78653,6,0,L|24:192,2,55,4|0|0,3:2|0:0|1:0,0:0:0:0:
136,168,79310,2,0,P|164:120|168:64,1,110,2|2,3:2|3:2,0:0:0:0:
216,40,79967,1,0,1:0:0:0:
268,20,80186,2,0,P|272:74|300:121,1,110,2|2,3:2|3:2,0:0:0:0:
408,140,81062,2,0,L|388:260,1,110,2|0,3:2|3:0,0:0:0:0:
380,304,81718,1,0,1:0:0:0:
272,308,82156,6,0,L|160:324,1,110,4|0,3:2|1:0,0:0:0:0:
108,316,82813,2,0,L|72:264,1,55,0|0,1:0|0:0,0:0:0:0:
28,244,83251,2,0,L|20:188,1,55,0|0,3:0|1:0,0:0:0:0:
64,152,83689,2,0,P|144:124|156:48,1,165,4|0,3:2|1:0,0:0:0:0:
256,104,84784,1,0,3:0:0:0:
354,52,85222,1,0,1:0:0:0:
354,52,85441,6,0,P|372:129|448:152,1,165,4|0,3:2|1:0,0:0:0:0:
376,236,86536,2,0,L|320:220,1,55,0|0,1:0|1:0,0:0:0:0:
280,256,86974,2,0,L|224:272,1,55,0|0,1:0|1:0,0:0:0:0:
176,248,87412,1,4,3:2:0:0:
256,192,87631,12,0,90478,0:0:0:0:
