osu file format v14

[General]
AudioFilename: audio.mp3
AudioLeadIn: 0
PreviewTime: 51494
Countdown: 0
SampleSet: Soft
StackLeniency: 0.4
Mode: 0
LetterboxInBreaks: 0
WidescreenStoryboard: 0

[Editor]
DistanceSpacing: 0.9
BeatDivisor: 6
GridSize: 8
TimelineZoom: 1.8

[Metadata]
Title:Saigo made II (TV Size)
TitleUnicode:最後までⅡ (TV Size)
Artist:Aqua Timez
ArtistUnicode:Aqua Timez
Creator:Smoke
Version:Shiroyasha
Source:銀魂゜
Tags:gintama゜ gintama 2015 white yaksha 白夜叉 male vocals times 坂田 銀時 sakata gintoki japanese anime ed ending 24 jrock j-rock rock browiec sadaharu
BeatmapID:2474574
BeatmapSetID:1187395

[Difficulty]
HPDrainRate:6
CircleSize:4
OverallDifficulty:9.2
ApproachRate:9.3
SliderMultiplier:1.8
SliderTickRate:1

[Events]
//Background and Video events
0,0,"gintoki edgy.jpg",0,0
Video,-207,"vid.mp4"
//Break Periods
//Storyboard Layer 0 (Background)
//Storyboard Layer 1 (Fail)
//Storyboard Layer 2 (Pass)
//Storyboard Layer 3 (Foreground)
//Storyboard Layer 4 (Overlay)
//Storyboard Sound Samples

[TimingPoints]
2257,338.983050847458,4,2,1,60,1,0
2257,-125,4,2,1,60,0,0
23867,-125,4,2,1,5,0,0
23951,-111.111111111111,4,2,1,70,0,0
40138,-111.111111111111,4,2,1,5,0,0
40223,-111.111111111111,4,2,1,70,0,0
45646,-99.9999999999999,4,2,1,75,0,0
48273,-99.9999999999999,4,2,1,5,0,0
48358,-99.9999999999999,4,2,1,80,0,0
51070,-86.9565217391304,4,2,1,85,0,1
58867,-105.263157894737,4,2,1,85,0,1
59121,-86.9565217391304,4,2,1,5,0,1
59206,-86.9565217391304,4,2,1,85,0,1
72765,-90.9090909090909,4,2,1,80,0,0
75477,-83.3333333333333,4,2,1,85,0,1
80816,-83.3333333333333,4,2,1,5,0,1
80901,-83.3333333333333,4,2,1,85,0,1
88867,-111.111111111111,4,2,1,70,0,0
89036,-111.111111111111,4,2,1,60,0,0
89375,-111.111111111111,4,2,1,45,0,0
89714,-111.111111111111,4,2,1,30,0,0
90053,-111.111111111111,4,2,1,15,0,0
90392,-111.111111111111,4,2,1,5,0,0

[Colours]
Combo1 : 216,20,20
Combo2 : 181,181,181
Combo3 : 250,85,67
Combo4 : 150,150,150

[HitObjects]
77,290,1579,5,8,3:3:0:0:
161,74,1748,1,8,0:0:0:0:
161,74,1833,1,8,0:0:0:0:
161,74,1918,2,0,L|170:132,3,45,8|8|8|8,0:0|0:0|0:0|0:0,0:0:0:0:
26,215,2257,6,0,P|58:199|110:206,1,72,4|0,3:1|0:0,0:0:0:0:
262,273,2595,1,8,0:0:0:0:
150,368,2765,2,0,P|165:291|185:205,1,144,0|0,3:2|3:2,0:0:0:0:
380,324,3273,2,0,P|369:286|359:244,1,72,10|0,0:0|0:0,0:0:0:0:
470,180,3612,6,0,P|438:162|391:175,1,72,2|0,0:0|3:2,0:0:0:0:
262,273,3951,2,0,P|273:235|283:193,1,72,10|0,0:0|3:2,0:0:0:0:
294,164,4206,1,8,0:0:0:0:
294,164,4290,2,0,P|280:127|272:93,1,72,2|0,3:2|3:2,0:0:0:0:
92,191,4629,1,10,0:0:0:0:
145,59,4799,1,0,3:2:0:0:
145,59,4884,1,0,3:2:0:0:
145,59,4968,6,0,P|106:49|53:31,1,72,2|0,3:2|0:0,0:0:0:0:
176,207,5307,2,0,P|193:180|195:141,1,72,10|0,0:0|3:2,0:0:0:0:
7,180,5646,2,0,P|7:215|25:246,1,72,0|0,0:0|3:2,0:0:0:0:
136,384,5985,2,0,P|144:347|160:306,1,72,8|0,0:0|0:0,0:0:0:0:
199,300,6240,1,8,0:0:0:0:
199,300,6324,6,0,P|229:321|277:318,1,72,0|0,3:2|3:2,0:0:0:0:
356,207,6663,2,0,P|365:244|379:281,1,72,8|0,0:0|3:2,0:0:0:0:
394,320,6918,1,8,0:0:0:0:
394,320,7002,2,0,P|415:324|439:332,2,36,0|8|0,3:2|0:0|3:2,0:0:0:0:
259,234,7341,1,8,0:0:0:0:
430,143,7511,1,0,3:2:0:0:
430,143,7596,1,8,0:0:0:0:
430,143,7680,6,0,P|440:104|457:53,1,72,0|0,3:2|0:0,0:0:0:0:
287,107,8019,1,8,0:0:0:0:
335,192,8189,2,0,P|299:154|200:168,1,144,0|0,3:2|3:2,0:0:0:0:
59,268,8697,2,0,P|47:233|31:193,1,72,10|0,0:0|0:0,0:0:0:0:
6,174,8951,1,8,0:0:0:0:
6,174,9036,6,0,P|8:134|37:100,1,72,2|0,3:2|3:2,0:0:0:0:
212,157,9375,2,0,P|198:190|187:224,1,72,10|0,0:0|3:2,0:0:0:0:
121,341,9714,2,0,P|153:321|206:329,1,72,2|0,3:2|3:2,0:0:0:0:
346,362,10053,2,0,P|310:360|280:341,1,72,10|0,0:0|3:2,0:0:0:0:
388,197,10392,6,0,P|418:278|435:339,1,144,2|10,3:2|0:0,0:0:0:0:
512,147,10901,2,0,P|486:125|429:127,1,72,0|0,3:2|0:0,0:0:0:0:
285,198,11240,1,0,3:2:0:0:
324,26,11409,2,0,L|305:109,1,72,8|0,0:0|0:0,0:0:0:0:
341,131,11663,1,8,0:0:0:0:
341,131,11748,6,0,P|365:157|373:201,1,72,0|0,3:2|3:2,0:0:0:0:
332,344,12087,2,0,P|342:310|376:281,1,72,8|0,0:0|0:0,0:0:0:0:
414,281,12341,1,8,0:0:0:0:
414,281,12426,2,0,P|433:285|457:293,2,36,0|8|0,3:2|0:0|3:2,0:0:0:0:
205,225,12765,1,8,0:0:0:0:
245,384,12934,1,0,3:2:0:0:
245,384,13018,1,0,3:2:0:0:
245,384,13103,6,0,L|220:289,1,72,0|0,3:2|0:0,0:0:0:0:
266,156,13443,1,8,0:0:0:0:
115,252,13612,2,0,P|27:244|2:172,1,144,0|0,3:2|3:2,0:0:0:0:
136,95,14121,2,0,P|147:130|160:162,1,72,10|0,0:0|0:0,0:0:0:0:
197,194,14375,1,8,0:0:0:0:
197,194,14460,6,0,P|226:176|273:183,1,72,2|0,0:0|3:2,0:0:0:0:
376,289,14799,2,0,P|387:253|400:221,1,72,10|0,0:0|3:2,0:0:0:0:
437,190,15053,1,8,0:0:0:0:
437,190,15138,2,0,P|466:208|513:201,1,72,2|0,3:2|3:2,0:0:0:0:
392,75,15477,1,10,0:0:0:0:
262,178,15646,1,0,3:2:0:0:
262,178,15731,1,0,3:2:0:0:
262,178,15816,6,0,P|272:211|283:250,1,72,2|0,3:2|0:0,0:0:0:0:
322,381,16155,1,10,0:0:0:0:
162,312,16324,2,0,B|120:297|78:322|107:330|60:360|23:337,1,144,0|0,3:2|3:2,0:0:0:0:
137,193,16833,2,0,P|101:184|59:170,1,72,8|0,0:0|0:0,0:0:0:0:
43,144,17087,1,8,0:0:0:0:
43,144,17172,6,0,P|40:111|68:68,1,72,0|0,3:2|3:2,0:0:0:0:
204,10,17511,2,0,P|212:44|225:82,1,72,8|0,0:0|3:2,0:0:0:0:
251,118,17765,1,8,0:0:0:0:
251,118,17850,2,0,P|243:139|238:156,2,36,0|8|0,3:2|0:0|3:2,0:0:0:0:
448,61,18189,1,8,0:0:0:0:
323,0,18358,1,0,3:2:0:0:
323,0,18443,1,8,0:0:0:0:
323,0,18528,6,0,P|336:42|348:94,1,72,0|0,3:2|0:0,0:0:0:0:
400,238,18867,1,8,0:0:0:0:
474,188,19036,2,0,P|426:152|343:169,1,144,0|0,3:2|3:2,0:0:0:0:
219,272,19545,2,0,P|209:236|193:196,1,72,10|0,0:0|0:0,0:0:0:0:
184,167,19799,1,8,0:0:0:0:
184,167,19884,6,0,P|144:164|108:133,1,72,2|0,3:2|3:2,0:0:0:0:
44,31,20223,2,0,P|34:67|18:107,1,72,10|0,0:0|3:2,0:0:0:0:
8,143,20477,1,0,3:2:0:0:
8,143,20562,2,0,P|28:177|26:222,1,72,2|0,3:2|3:2,0:0:0:0:
0,322,20901,1,10,0:0:0:0:
160,278,21070,1,0,3:2:0:0:
160,278,21155,1,0,3:2:0:0:
160,278,21240,6,0,L|78:302,1,72,2|0,3:2|0:0,0:0:0:0:
226,384,21579,2,0,P|231:347|259:314,1,72,10|0,0:0|3:2,0:0:0:0:
412,279,21918,2,0,P|377:293|334:285,1,72,0|0,0:0|3:2,0:0:0:0:
166,191,22257,2,0,P|203:203|248:215,1,72,8|0,0:0|0:0,0:0:0:0:
279,229,22511,1,8,0:0:0:0:
279,229,22595,6,0,P|306:207|363:201,1,72,0|0,3:2|3:2,0:0:0:0:
512,294,22934,2,0,P|500:261|487:213,1,72,8|0,0:0|0:0,0:0:0:0:
478,188,23188,1,8,0:0:0:0:
478,188,23273,2,0,P|497:159|498:101,1,72,0|0,3:2|3:2,0:0:0:0:
477,85,23528,1,0,3:2:0:0:
477,85,23612,2,0,B|448:65|448:65|371:83,1,108,8|0,0:0|0:0,0:0:0:0:
293,118,23951,6,0,P|252:104|203:93,1,80.9999975280763,4|0,3:2|0:0,0:0:0:0:
36,157,24290,1,8,0:0:0:0:
94,31,24460,2,0,P|120:108|141:193,1,161.999995056153,0|0,3:2|3:2,0:0:0:0:
9,348,24968,2,0,P|19:316|42:261,1,80.9999975280763,10|0,0:0|0:0,0:0:0:0:
82,249,25223,1,8,0:0:0:0:
82,249,25307,6,0,P|121:272|163:267,1,80.9999975280763,2|0,3:2|3:2,0:0:0:0:
285,159,25646,2,0,P|245:181|228:220,1,80.9999975280763,10|0,0:0|0:0,0:0:0:0:
400,295,25985,2,0,P|387:254|370:210,1,80.9999975280763,2|0,3:2|3:2,0:0:0:0:
512,111,26324,2,0,P|497:148|485:187,1,80.9999975280763,10|0,0:0|0:0,0:0:0:0:
360,58,26663,6,0,B|392:36|392:36|433:47,1,80.9999975280763,2|0,3:2|0:0,0:0:0:0:
284,158,27002,1,10,0:0:0:0:
205,29,27172,2,0,B|220:82|220:82|270:111|270:111|287:168,1,161.999995056153,0|0,3:2|3:2,0:0:0:0:
408,277,27680,2,0,P|377:253|323:257,1,80.9999975280763,8|0,0:0|0:0,0:0:0:0:
293,270,27934,1,0,3:2:0:0:
293,270,28019,6,0,P|253:283|207:294,1,80.9999975280763,0|0,3:2|3:2,0:0:0:0:
82,373,28358,2,0,P|92:333|108:286,1,80.9999975280763,8|0,0:0|0:0,0:0:0:0:
55,101,28697,1,0,3:2:0:0:
228,177,28867,1,0,3:2:0:0:
22,253,29036,2,0,P|12:213|-4:166,1,80.9999975280763,8|0,0:0|0:0,0:0:0:0:
184,65,29375,6,0,B|143:77|101:41|134:37|90:1|37:15,1,161.999995056153,0|8,3:2|0:0,0:0:0:0:
144,174,29884,2,0,P|209:155|319:135,1,161.999995056153,0|0,3:2|3:2,0:0:0:0:
495,207,30392,2,0,P|468:181|415:175,1,80.9999975280763,10|0,0:0|0:0,0:0:0:0:
382,193,30646,1,8,0:0:0:0:
382,193,30731,6,0,P|368:230|357:273,1,80.9999975280763,2|0,3:2|3:2,0:0:0:0:
484,383,31070,2,0,P|473:343|459:305,1,80.9999975280763,10|0,0:0|0:0,0:0:0:0:
287,213,31409,1,2,3:2:0:0:
494,160,31579,1,0,3:2:0:0:
380,361,31748,2,0,P|340:363|292:330,1,80.9999975280763,10|0,0:0|0:0,0:0:0:0:
257,137,32087,6,0,P|273:174|290:225,1,80.9999975280763,2|0,3:2|0:0,0:0:0:0:
164,368,32426,1,10,0:0:0:0:
357,273,32595,1,0,3:2:0:0:
156,210,32765,2,0,P|115:207|74:234,1,80.9999975280763,2|0,0:0|3:2,0:0:0:0:
304,344,33104,1,8,0:0:0:0:
257,137,33273,1,0,3:2:0:0:
257,137,33358,1,0,3:2:0:0:
257,137,33443,6,0,P|270:98|284:60,1,80.9999975280763,0|0,3:2|3:2,0:0:0:0:
499,195,33782,1,10,0:0:0:0:
357,273,33951,2,0,P|350:252|339:231,2,40.4999987640381,2|2|2,0:0|0:0|3:2,0:0:0:0:
455,60,34290,1,2,3:2:0:0:
257,137,34460,2,0,P|217:144|161:111,1,80.9999975280763,10|0,0:0|0:0,0:0:0:0:
85,7,34799,6,0,P|76:45|61:84,1,80.9999975280763,4|0,3:1|0:0,0:0:0:0:
120,287,35138,1,8,0:0:0:0:
0,213,35307,2,0,B|37:242|91:220|58:209|115:187|153:211,1,161.999995056153,0|0,3:2|3:2,0:0:0:0:
282,357,35816,2,0,P|273:317|258:279,1,80.9999975280763,10|0,0:0|0:0,0:0:0:0:
283,239,36070,1,8,0:0:0:0:
283,239,36155,6,0,P|323:233|369:261,1,80.9999975280763,2|0,3:2|3:2,0:0:0:0:
488,160,36494,2,0,B|474:193|473:197|464:237,1,80.9999975280763,10|0,0:0|0:0,0:0:0:0:
309,65,36833,1,2,3:2:0:0:
497,15,37002,1,0,3:2:0:0:
332,142,37172,2,0,B|323:102|322:98|308:64,1,80.9999975280763,10|0,0:0|0:0,0:0:0:0:
91,114,37511,6,0,P|148:90|219:162,1,161.999995056153,2|10,3:2|0:0,0:0:0:0:
67,272,38019,2,0,P|58:233|45:195,1,80.9999975280763,2|0,3:2|0:0,0:0:0:0:
0,348,38358,1,2,3:2:0:0:
163,269,38528,2,0,B|201:251|201:251|256:267,1,80.9999975280763,10|0,0:0|0:0,0:0:0:0:
407,321,38867,5,0,3:2:0:0:
407,321,39036,1,0,3:2:0:0:
292,384,39206,2,0,P|303:339|320:293,1,80.9999975280763,10|0,0:0|0:0,0:0:0:0:
460,172,39545,2,0,P|473:210|482:249,1,80.9999975280763,2|0,3:2|3:2,0:0:0:0:
265,148,39884,2,0,P|304:97|348:125,1,121.499996292114,10|0,0:0|0:0,0:0:0:0:
332,205,40223,6,0,B|283:175|283:175|156:200,1,161.999995056153,2|10,3:2|0:0,0:0:0:0:
29,222,40731,2,0,P|57:185|53:127,1,80.9999975280763,2|0,3:2|0:0,0:0:0:0:
0,22,41070,1,2,3:2:0:0:
155,58,41240,2,0,L|254:38,1,80.9999975280763,8|0,0:0|0:0,0:0:0:0:
285,33,41494,1,8,0:0:0:0:
285,33,41579,5,0,3:2:0:0:
153,171,41748,1,0,3:2:0:0:
364,243,41918,1,8,0:0:0:0:
282,138,42087,2,0,P|269:174|260:216,1,80.9999975280763,2|0,0:0|3:2,0:0:0:0:
167,345,42426,1,2,3:2:0:0:
364,243,42595,1,10,0:0:0:0:
149,171,42765,1,2,0:0:0:0:
331,334,42934,6,0,B|376:360|428:335|402:323|450:302|487:325,1,161.999995056153,2|10,3:2|0:0,0:0:0:0:
387,156,43443,2,0,P|346:155|295:193,1,80.9999975280763,2|0,3:2|0:0,0:0:0:0:
206,297,43782,2,0,P|227:261|219:198,1,80.9999975280763,2|8,3:2|0:0,0:0:0:0:
13,177,44121,6,0,P|39:255|60:343,1,161.999995056153,2|0,3:2|3:2,0:0:0:0:
171,148,44629,2,0,B|139:123|139:123|92:135,1,80.9999975280763,10|2,0:0|0:0,0:0:0:0:
206,297,44968,2,0,P|227:261|219:198,1,80.9999975280763,2|0,3:2|3:2,0:0:0:0:
145,36,45307,1,10,0:0:0:0:
346,125,45477,1,2,0:0:0:0:
138,236,45646,6,0,B|192:206|192:206|320:236,1,180,4|10,3:1|0:0,0:0:0:0:
468,355,46155,2,0,P|445:267|424:159,1,180,0|0,3:2|3:2,0:0:0:0:
499,41,46663,2,0,P|468:69|411:74,1,90,8|0,0:0|0:0,0:0:0:0:
376,68,46918,1,8,0:0:0:0:
376,68,47002,6,0,P|331:56|276:46,1,90,0|0,3:2|3:2,0:0:0:0:
113,166,47341,2,0,P|158:154|213:144,1,90,8|0,0:0|0:0,0:0:0:0:
22,94,47680,1,0,3:2:0:0:
90,271,47850,1,0,3:2:0:0:
303,170,48019,2,0,P|278:245|261:307,1,135,8|0,0:0|0:0,0:0:0:0:
247,345,48358,6,0,P|200:355|149:321,1,90,6|0,0:0|0:0,0:0:0:0:
42,158,48697,1,8,3:2:0:0:
236,222,48867,1,10,3:2:0:0:
19,280,49036,1,8,3:2:0:0:
176,112,49206,1,8,3:2:0:0:
81,362,49375,1,10,3:2:0:0:
55,69,49545,1,10,3:2:0:0:
245,329,49714,1,8,3:2:0:0:
0,169,49884,5,10,3:2:0:0:
0,169,49968,1,10,3:2:0:0:
0,169,50053,1,10,3:2:0:0:
131,347,50223,2,0,L|141:292,1,45,8|8,3:2|3:2,0:0:0:0:
263,93,50392,1,8,3:2:0:0:
303,88,50477,1,8,3:2:0:0:
341,102,50562,1,8,3:2:0:0:
368,131,50646,1,8,3:2:0:0:
376,170,50731,2,0,P|375:197|362:229,1,45,8|8,3:2|3:2,0:0:0:0:
101,149,50901,1,8,3:2:0:0:
101,149,50985,1,8,3:2:0:0:
101,149,51070,6,0,B|155:115|223:154|179:163|241:205|293:180,1,207.000003948212,4|8,3:1|0:0,0:0:0:0:
512,78,51579,1,2,0:0:0:0:
346,0,51748,2,0,P|329:50|363:109,1,103.500001974106,2|0,3:2|3:2,0:0:0:0:
512,207,52087,2,0,P|476:167|408:167,1,103.500001974106,10|0,0:0|0:0,0:0:0:0:
144,286,52426,5,2,3:2:0:0:
432,251,52595,1,2,0:0:0:0:
144,135,52765,1,10,0:0:0:0:
355,344,52934,1,2,0:0:0:0:
280,67,53104,2,0,P|260:121|243:180,1,103.500001974106,2|0,3:2|3:2,0:0:0:0:
189,366,53443,1,10,0:0:0:0:
428,160,53612,5,2,0:0:0:0:
104,226,53782,1,2,3:2:0:0:
393,340,53951,1,2,0:0:0:0:
164,94,54121,1,10,0:0:0:0:
293,375,54290,1,2,0:0:0:0:
369,61,54460,1,2,3:2:0:0:
177,351,54629,1,2,3:2:0:0:
118,21,54799,1,10,0:0:0:0:
313,288,54968,1,2,0:0:0:0:
13,140,55138,6,0,P|76:129|129:124,1,103.500001974106,2|0,3:2|0:0,0:0:0:0:
361,215,55477,2,0,B|315:178|238:206|283:228|209:254|161:215,1,207.000003948212,10|0,0:0|3:2,0:0:0:0:
13,140,55985,1,0,3:2:0:0:
174,44,56155,2,0,P|203:79|205:150,1,103.500001974106,8|0,0:0|0:0,0:0:0:0:
40,289,56494,6,0,B|91:249|91:249|248:276,1,207.000003948212,0|8,3:2|0:0,0:0:0:0:
458,310,57002,1,2,0:0:0:0:
284,185,57172,1,2,3:2:0:0:
362,380,57341,1,2,3:2:0:0:
403,174,57511,1,10,0:0:0:0:
257,364,57680,1,2,0:0:0:0:
496,214,57850,6,0,P|480:107|390:72,1,207.000003948212,0|8,3:2|0:0,0:0:0:0:
170,224,58358,1,2,0:0:0:0:
279,48,58528,1,2,3:2:0:0:
370,259,58697,1,2,3:2:0:0:
212,135,58867,2,0,P|148:125|83:183,1,128.249996575356,10|0,0:0|0:0,0:0:0:0:
30,288,59206,5,14,0:0:0:0:
137,35,59375,1,0,3:2:0:0:
289,306,59545,1,2,3:2:0:0:
18,123,59714,5,14,0:0:0:0:
361,53,59884,1,0,3:2:0:0:
138,316,60053,1,2,3:2:0:0:
236,4,60223,5,14,0:0:0:0:
398,343,60392,1,0,3:2:0:0:
90,199,60562,1,0,3:2:0:0:
488,116,60731,5,14,0:0:0:0:
219,360,60901,1,2,3:2:0:0:
236,4,61070,1,2,3:2:0:0:
512,307,61240,5,8,0:0:0:0:
512,307,61324,1,8,0:0:0:0:
512,307,61409,1,8,0:0:0:0:
90,199,61579,1,10,0:0:0:0:
409,93,61748,1,0,3:2:0:0:
148,361,61918,6,0,B|114:296|152:242|169:276|206:218|164:147,1,207.000003948212,4|8,3:1|0:0,0:0:0:0:
110,3,62426,1,0,3:2:0:0:
277,261,62595,5,8,0:0:0:0:
203,25,62765,1,0,3:2:0:0:
37,278,62934,5,10,0:0:0:0:
110,3,63104,1,0,3:2:0:0:
277,261,63273,6,0,P|324:268|377:237,1,103.500001974106,10|0,0:0|0:0,0:0:0:0:
427,6,63612,5,10,0:0:0:0:
208,175,63782,1,0,3:2:0:0:
496,152,63951,5,10,0:0:0:0:
205,43,64121,1,0,3:2:0:0:
405,274,64290,5,10,0:0:0:0:
317,0,64460,1,0,3:2:0:0:
179,271,64629,6,0,P|118:273|75:240,1,103.500001974106,8|0,0:0|0:0,0:0:0:0:
24,58,64968,5,8,0:0:0:0:
284,156,65138,1,0,3:2:0:0:
0,288,65307,5,8,0:0:0:0:
130,42,65477,1,0,3:2:0:0:
247,339,65646,5,10,0:0:0:0:
0,189,65816,1,0,3:2:0:0:
278,74,65985,6,0,P|328:60|395:51,1,103.500001974106,8|0,0:0|0:0,0:0:0:0:
132,290,66324,5,10,0:0:0:0:
221,0,66494,1,0,3:2:0:0:
319,345,66663,5,10,0:0:0:0:
191,96,66833,1,0,3:2:0:0:
449,293,67002,5,10,0:0:0:0:
161,194,67172,1,0,3:2:0:0:
486,65,67341,6,0,B|434:32|367:70|412:87|343:126|287:84,1,207.000003948212,4|10,3:1|0:0,0:0:0:0:
153,0,67850,2,0,P|137:54|120:103,1,103.500001974106,2|0,0:0|3:2,0:0:0:0:
256,256,68189,2,0,P|236:205|223:155,1,103.500001974106,2|8,3:2|0:0,0:0:0:0:
0,329,68528,6,0,P|64:266|185:313,1,207.000003948212,2|2,0:0|0:0,0:0:0:0:
281,383,69036,1,8,0:0:0:0:
476,261,69206,2,0,P|458:315|444:367,1,103.500001974106,2|0,0:0|3:2,0:0:0:0:
282,252,69545,2,0,P|268:202|251:153,1,103.500001974106,2|8,3:2|0:0,0:0:0:0:
442,76,69884,5,2,0:0:0:0:
442,76,69968,1,2,0:0:0:0:
442,76,70053,2,0,B|398:102|398:102|347:87,1,103.500001974106,2|2,3:2|0:0,0:0:0:0:
195,8,70392,2,0,P|182:57|164:106,1,103.500001974106,10|0,0:0|0:0,0:0:0:0:
80,297,70731,1,0,3:2:0:0:
251,153,70901,1,0,3:2:0:0:
3,206,71070,1,8,0:0:0:0:
212,270,71240,1,2,0:0:0:0:
63,85,71409,6,0,P|79:133|93:183,1,103.500001974106,2|0,3:2|3:2,0:0:0:0:
137,370,71748,1,10,0:0:0:0:
288,221,71918,2,0,B|343:197|408:242|362:252|425:292|476:264,1,207.000003948212,2|2,0:0|3:2,0:0:0:0:
247,381,72426,2,0,P|218:337|223:276,1,103.500001974106,10|0,0:0|3:2,0:0:0:0:
421,83,72765,6,0,P|435:128|449:183,1,99.0000030212403,4|2,3:1|0:0,0:0:0:0:
198,33,73104,2,0,P|183:80|171:128,1,99.0000030212403,10|0,0:0|3:2,0:0:0:0:
307,310,73443,1,10,0:0:0:0:
35,177,73612,1,2,3:2:0:0:
321,111,73782,1,8,0:0:0:0:
125,354,73951,1,2,0:0:0:0:
171,128,74121,5,10,3:2:0:0:
171,128,74206,1,8,0:0:0:0:
171,128,74290,2,0,L|224:144,1,49.5000015106202,10|8,0:0|0:0,0:0:0:0:
431,200,74460,1,10,0:0:0:0:
213,354,74629,2,0,L|229:301,1,49.5000015106202,10|8,0:0|0:0,0:0:0:0:
311,73,74799,1,10,0:0:0:0:
311,73,74884,1,8,0:0:0:0:
311,73,74968,2,0,L|258:57,1,49.5000015106202,8|8,3:3|3:3,0:0:0:0:
97,250,75138,1,2,3:2:0:0:
347,159,75307,1,2,3:2:0:0:
29,0,75477,6,0,B|-16:62|-16:62|19:207,1,215.999993408203,4|8,3:1|0:0,0:0:0:0:
139,379,75985,1,2,0:0:0:0:
258,127,76155,1,2,3:2:0:0:
28,318,76324,1,2,3:2:0:0:
308,241,76494,1,10,0:0:0:0:
17,197,76663,1,2,0:0:0:0:
242,356,76833,6,0,B|304:335|304:335|376:378|376:378|453:354,1,215.999993408203,2|10,3:2|0:0,0:0:0:0:
257,169,77341,2,0,P|220:212|226:281,1,107.999996704102,2|0,3:2|0:0,0:0:0:0:
512,307,77680,2,0,L|479:203,1,107.999996704102,2|8,0:0|0:0,0:0:0:0:
264,58,78019,1,2,0:0:0:0:
512,113,78189,5,2,3:2:0:0:
352,239,78358,1,2,3:2:0:0:
405,6,78528,2,0,L|380:118,1,107.999996704102,10|0,0:0|0:0,0:0:0:0:
322,349,78867,1,2,3:2:0:0:
197,119,79036,1,2,3:2:0:0:
457,206,79206,1,10,0:0:0:0:
198,349,79375,6,0,L|172:243,1,107.999996704102,2|0,0:0|3:2,0:0:0:0:
263,40,79714,1,2,3:2:0:0:
70,273,79884,1,10,0:0:0:0:
0,19,80053,1,2,3:2:0:0:
255,199,80223,2,0,P|307:205|361:166,1,107.999996704102,2|0,0:0|3:2,0:0:0:0:
163,0,80562,2,0,B|123:50|123:50|152:162,1,161.999995056153,10|0,0:0|0:0,0:0:0:0:
255,199,80901,6,0,P|314:203|366:158,1,107.999996704102,0|0,3:2|3:2,0:0:0:0:
500,22,81240,1,8,0:0:0:0:
433,235,81409,1,2,0:0:0:0:
260,8,81579,2,0,P|276:68|289:121,1,107.999996704102,2|0,3:2|3:2,0:0:0:0:
336,311,81918,1,10,0:0:0:0:
434,94,82087,1,2,0:0:0:0:
212,262,82257,6,0,B|159:292|92:251|135:240|64:193|7:238,1,215.999993408203,2|10,3:2|0:0,0:0:0:0:
157,87,82765,2,0,P|208:100|240:168,1,107.999996704102,2|0,3:2|0:0,0:0:0:0:
107,349,83104,1,2,3:2:0:0:
320,234,83273,2,0,P|371:243|432:260,1,107.999996704102,8|0,0:0|0:0,0:0:0:0:
157,87,83612,5,2,3:2:0:0:
285,357,83782,1,2,3:2:0:0:
348,47,83951,1,10,0:0:0:0:
113,269,84121,1,2,0:0:0:0:
446,170,84290,2,0,P|398:157|330:145,1,107.999996704102,2|0,3:2|3:2,0:0:0:0:
61,94,84629,1,10,0:0:0:0:
285,357,84799,6,0,P|270:298|255:250,1,107.999996704102,2|0,0:0|3:2,0:0:0:0:
187,37,85138,1,2,3:2:0:0:
43,264,85307,2,0,P|84:236|145:242,1,107.999996704102,10|0,0:0|3:2,0:0:0:0:
411,308,85646,1,2,0:0:0:0:
148,124,85816,1,2,3:2:0:0:
404,193,85985,1,8,0:0:0:0:
109,337,86155,1,2,3:2:0:0:
343,117,86324,6,0,P|392:93|455:111,1,107.999996704102,2|0,3:2|3:2,0:0:0:0:
213,260,86663,2,0,P|162:246|88:231,1,107.999996704102,10|0,0:0|0:0,0:0:0:0:
339,362,87002,1,2,3:2:0:0:
235,169,87172,2,0,P|183:154|131:143,1,107.999996704102,0|8,3:2|0:0,0:0:0:0:
395,95,87511,1,2,3:2:0:0:
173,283,87680,5,10,3:2:0:0:
258,10,87850,1,8,3:2:0:0:
400,290,88019,1,8,3:2:0:0:
105,65,88188,1,10,3:2:0:0:
464,188,88358,1,10,3:2:0:0:
84,285,88527,1,10,3:2:0:0:
388,17,88697,1,10,3:2:0:0:
250,370,88867,1,4,3:1:0:0:
256,192,88951,12,0,90392,0:0:0:0:
