osu file format v14

[General]
AudioFilename: audio.mp3
AudioLeadIn: 0
PreviewTime: 51494
Countdown: 0
SampleSet: Soft
StackLeniency: 0.4
Mode: 0
LetterboxInBreaks: 0
WidescreenStoryboard: 1

[Editor]
DistanceSpacing: 1.6
BeatDivisor: 4
GridSize: 8
TimelineZoom: 1.8

[Metadata]
Title:Saigo made II (TV Size)
TitleUnicode:最後までⅡ (TV Size)
Artist:Aqua Timez
ArtistUnicode:Aqua Timez
Creator:Smoke
Version:Hard
Source:銀魂゜
Tags:gintama゜ gintama 2015 white yaksha 白夜叉 male vocals times 坂田 銀時 sakata gintoki japanese anime ed ending 24 jrock j-rock rock browiec sadaharu
BeatmapID:2474571
BeatmapSetID:1187395

[Difficulty]
HPDrainRate:4.8
CircleSize:3.6
OverallDifficulty:6.5
ApproachRate:7.5
SliderMultiplier:1.3
SliderTickRate:1

[Events]
//Background and Video events
0,0,"gintoki edgy.jpg",0,0
Video,-207,"vid.mp4"
//Break Periods
//Storyboard Layer 0 (Background)
//Storyboard Layer 1 (Fail)
//Storyboard Layer 2 (Pass)
//Storyboard Layer 3 (Foreground)
//Storyboard Layer 4 (Overlay)
//Storyboard Sound Samples

[TimingPoints]
2257,338.983050847458,4,2,1,60,1,0
2257,-117.647058823529,4,2,1,60,0,0
23867,-117.647058823529,4,2,1,5,0,0
23951,-111.111111111111,4,2,1,70,0,0
40138,-111.111111111111,4,2,1,5,0,0
40223,-111.111111111111,4,2,1,70,0,0
45646,-99.9999999999999,4,2,1,75,0,0
48273,-99.9999999999999,4,2,1,5,0,0
48358,-99.9999999999999,4,2,1,80,0,0
51070,-86.9565217391304,4,2,1,85,0,1
58867,-90.9090909090909,4,2,1,85,0,1
59121,-86.9565217391304,4,2,1,5,0,1
59206,-86.9565217391304,4,2,1,85,0,1
72765,-90.9090909090909,4,2,1,80,0,0
75477,-83.3333333333333,4,2,1,85,0,1
80816,-83.3333333333333,4,2,1,5,0,1
80901,-83.3333333333333,4,2,1,85,0,1
88867,-111.111111111111,4,2,1,70,0,0
89036,-111.111111111111,4,2,1,60,0,0
89375,-111.111111111111,4,2,1,45,0,0
89714,-111.111111111111,4,2,1,30,0,0
90053,-111.111111111111,4,2,1,15,0,0
90392,-111.111111111111,4,2,1,5,0,0

[Colours]
Combo1 : 216,20,20
Combo2 : 181,181,181
Combo3 : 250,85,67
Combo4 : 150,150,150

[HitObjects]
442,74,1579,5,8,3:3:0:0:
359,117,1748,1,8,0:0:0:0:
359,117,1833,1,8,0:0:0:0:
359,117,1917,2,0,L|315:105,3,32.5,8|8|8|8,0:0|0:0|0:0|0:0,0:0:0:0:
284,96,2257,6,0,B|247:115|247:115|163:91,1,110.50000210762,4|8,3:1|0:0,0:0:0:0:
96,67,2765,2,0,P|47:77|19:127,1,110.50000210762,0|0,3:2|3:2,0:0:0:0:
15,209,3273,1,10,0:0:0:0:
138,335,3612,2,0,P|164:330|194:321,1,55.2500010538101,2|0,0:0|3:2,0:0:0:0:
229,241,3951,2,0,P|255:246|285:255,1,55.2500010538101,10|0,0:0|3:2,0:0:0:0:
372,278,4290,1,2,3:2:0:0:
372,278,4460,1,0,3:2:0:0:
357,186,4629,2,0,P|352:160|343:130,1,55.2500010538101,10|0,0:0|3:2,0:0:0:0:
382,52,4968,6,0,P|433:39|488:77,1,110.50000210762,2|10,3:2|0:0,0:0:0:0:
506,151,5477,2,0,P|491:205|475:272,1,110.50000210762,0|0,3:2|3:2,0:0:0:0:
507,341,5985,2,0,P|472:349|435:360,1,55.2500010538101,8|0,0:0|0:0,0:0:0:0:
366,370,6324,2,0,P|331:362|294:351,1,55.2500010538101,0|0,3:2|3:2,0:0:0:0:
248,295,6663,2,0,P|213:303|176:314,1,55.2500010538101,8|0,0:0|3:2,0:0:0:0:
107,326,7002,2,0,L|96:366,2,27.6250005269051,0|8|0,3:2|0:0|3:2,0:0:0:0:
48,267,7341,1,8,0:0:0:0:
48,267,7511,1,0,3:2:0:0:
67,181,7680,6,0,P|131:174|169:202,1,110.50000210762,0|8,3:2|0:0,0:0:0:0:
243,243,8189,2,0,P|294:229|365:215,1,110.50000210762,0|0,3:2|3:2,0:0:0:0:
409,283,8697,1,10,0:0:0:0:
504,134,9036,2,0,P|502:107|488:78,1,55.2500010538101,2|0,3:2|3:2,0:0:0:0:
404,58,9375,2,0,P|381:73|363:99,1,55.2500010538101,10|0,0:0|3:2,0:0:0:0:
291,145,9714,2,0,P|285:117|273:75,1,55.2500010538101,2|0,3:2|3:2,0:0:0:0:
213,30,10053,2,0,P|186:22|159:17,1,55.2500010538101,10|0,0:0|3:2,0:0:0:0:
78,73,10392,6,0,B|102:108|102:108|81:189,1,110.50000210762,2|10,3:2|0:0,0:0:0:0:
23,238,10901,2,0,P|76:225|114:268,1,110.50000210762,0|0,3:2|3:2,0:0:0:0:
177,321,11409,2,0,P|204:314|248:307,1,55.2500010538101,8|0,0:0|0:0,0:0:0:0:
289,242,11748,2,0,P|316:249|360:256,1,55.2500010538101,0|0,3:2|3:2,0:0:0:0:
418,299,12087,2,0,P|423:271|434:240,1,55.2500010538101,8|0,0:0|0:0,0:0:0:0:
482,172,12426,2,0,L|525:167,2,27.6250005269051,0|8|0,3:2|0:0|3:2,0:0:0:0:
418,110,12765,2,0,P|390:98|355:106,1,55.2500010538101,8|0,0:0|3:2,0:0:0:0:
287,141,13104,6,0,B|251:135|251:135|218:158|218:158|176:151,1,110.50000210762,0|8,3:2|0:0,0:0:0:0:
116,96,13612,2,0,P|135:144|90:200,1,110.50000210762,0|0,3:2|3:2,0:0:0:0:
18,181,14121,1,10,0:0:0:0:
69,11,14460,2,0,P|100:-1|141:3,1,55.2500010538101,2|0,0:0|3:2,0:0:0:0:
194,49,14799,2,0,P|225:61|266:57,1,55.2500010538101,10|0,0:0|3:2,0:0:0:0:
320,9,15138,1,2,3:2:0:0:
320,9,15307,1,0,3:2:0:0:
405,31,15477,2,0,P|418:64|427:96,1,55.2500010538101,10|0,0:0|3:2,0:0:0:0:
358,158,15816,6,0,P|340:212|328:265,1,110.50000210762,2|10,3:2|0:0,0:0:0:0:
358,347,16324,2,0,P|314:312|246:328,1,110.50000210762,0|0,3:2|3:2,0:0:0:0:
184,359,16833,2,0,P|177:333|161:297,1,55.2500010538101,8|0,0:0|0:0,0:0:0:0:
95,253,17172,2,0,P|102:227|118:191,1,55.2500010538101,0|0,3:2|3:2,0:0:0:0:
58,131,17511,2,0,P|86:123|125:103,1,55.2500010538101,8|0,0:0|3:2,0:0:0:0:
165,43,17850,2,0,L|154:6,2,27.6250005269051,0|8|0,3:2|0:0|3:2,0:0:0:0:
246,89,18189,1,8,0:0:0:0:
246,89,18358,1,0,3:2:0:0:
317,35,18528,6,0,B|354:22|354:22|445:50,1,110.50000210762,0|8,3:2|0:0,0:0:0:0:
461,122,19036,2,0,B|423:135|423:135|333:107,1,110.50000210762,0|0,3:2|3:2,0:0:0:0:
317,35,19545,1,10,0:0:0:0:
141,71,19884,2,0,L|121:137,1,55.2500010538101,2|0,3:2|3:2,0:0:0:0:
58,181,20223,2,0,L|78:247,1,55.2500010538101,10|0,0:0|3:2,0:0:0:0:
58,324,20562,1,2,3:2:0:0:
58,324,20731,1,0,3:2:0:0:
126,380,20901,2,0,P|155:377|186:354,1,55.2500010538101,10|0,0:0|3:2,0:0:0:0:
252,297,21240,6,0,B|288:299|309:323|289:323|316:350|350:346,1,110.50000210762,2|10,3:2|0:0,0:0:0:0:
431,370,21748,2,0,P|440:323|461:253,1,110.50000210762,0|0,3:2|3:2,0:0:0:0:
509,190,22257,2,0,P|509:157|487:124,1,55.2500010538101,8|0,0:0|0:0,0:0:0:0:
431,81,22595,2,0,P|398:81|365:103,1,55.2500010538101,0|0,3:2|3:2,0:0:0:0:
313,150,22934,1,8,0:0:0:0:
357,226,23104,2,0,L|400:215,2,27.6250005269051,0|8|0,0:0|0:0|3:2,0:0:0:0:
291,284,23443,1,0,3:2:0:0:
291,284,23528,1,0,3:2:0:0:
291,284,23612,2,0,B|265:273|265:273|241:286|241:286|204:273,1,82.8750015807152,8|0,0:0|0:0,0:0:0:0:
182,243,23951,6,0,L|119:255,1,58.4999982147217,4|0,3:2|0:0,0:0:0:0:
45,300,24290,1,8,0:0:0:0:
45,300,24460,2,0,B|30:259|30:259|50:163,1,116.999996429443,0|0,3:2|3:2,0:0:0:0:
4,102,24968,2,0,L|65:93,1,58.4999982147217,10|0,0:0|0:0,0:0:0:0:
100,65,25223,1,8,0:0:0:0:
100,65,25307,2,0,L|173:81,1,58.4999982147217,2|0,3:2|3:2,0:0:0:0:
238,124,25646,1,10,0:0:0:0:
389,13,25985,2,0,L|408:81,1,58.4999982147217,2|0,3:2|3:2,0:0:0:0:
483,121,26324,2,0,L|464:189,1,58.4999982147217,10|0,0:0|0:0,0:0:0:0:
495,266,26663,6,0,P|459:230|386:244,1,116.999996429443,2|10,3:2|0:0,0:0:0:0:
337,161,27172,2,0,P|301:197|228:183,1,116.999996429443,0|0,3:2|3:2,0:0:0:0:
175,122,27680,1,8,0:0:0:0:
95,163,27850,1,0,0:0:0:0:
95,163,27934,1,0,3:2:0:0:
95,163,28019,2,0,P|84:193|79:222,1,58.4999982147217,0|0,3:2|3:2,0:0:0:0:
29,298,28358,2,0,P|50:309|104:307,1,58.4999982147217,8|0,0:0|0:0,0:0:0:0:
167,265,28697,1,0,3:2:0:0:
167,265,28867,1,0,3:2:0:0:
246,314,29036,2,0,P|277:305|326:297,1,58.4999982147217,8|0,0:0|0:0,0:0:0:0:
384,346,29375,6,0,B|356:307|356:307|383:225,1,116.999996429443,0|8,3:2|0:0,0:0:0:0:
455,187,29884,2,0,L|429:68,1,116.999996429443,0|0,3:2|3:2,0:0:0:0:
348,26,30392,2,0,P|323:22|290:38,1,58.4999982147217,10|0,0:0|0:0,0:0:0:0:
254,58,30646,1,8,0:0:0:0:
254,58,30731,2,0,P|229:62|196:46,1,58.4999982147217,2|0,3:2|3:2,0:0:0:0:
114,7,31070,2,0,P|104:42|91:81,1,58.4999982147217,10|0,0:0|0:0,0:0:0:0:
101,160,31409,1,2,3:2:0:0:
101,160,31579,1,0,3:2:0:0:
29,220,31748,1,10,0:0:0:0:
189,308,32087,6,0,P|213:309|267:287,1,58.4999982147217,2|0,3:2|0:0,0:0:0:0:
272,210,32426,2,0,P|296:209|350:231,1,58.4999982147217,10|0,0:0|3:2,0:0:0:0:
401,158,32765,2,0,P|413:178|421:236,1,58.4999982147217,2|0,0:0|3:2,0:0:0:0:
506,253,33104,1,8,0:0:0:0:
441,319,33273,1,0,3:2:0:0:
441,319,33358,1,0,3:2:0:0:
441,319,33443,2,0,P|412:332|369:331,1,58.4999982147217,0|0,3:2|3:2,0:0:0:0:
298,367,33782,2,0,P|269:354|226:355,1,58.4999982147217,10|2,0:0|0:0,0:0:0:0:
157,384,34121,1,2,3:2:0:0:
157,384,34290,1,2,3:2:0:0:
94,313,34460,2,0,P|88:286|73:247,1,58.4999982147217,10|0,0:0|0:0,0:0:0:0:
0,191,34799,6,0,P|40:141|21:76,1,116.999996429443,4|8,3:1|0:0,0:0:0:0:
2,3,35307,2,0,P|47:13|134:29,1,116.999996429443,0|0,3:2|3:2,0:0:0:0:
177,98,35816,2,0,L|244:84,1,58.4999982147217,10|0,0:0|0:0,0:0:0:0:
278,66,36070,1,8,0:0:0:0:
278,66,36155,2,0,L|337:80,1,58.4999982147217,2|0,3:2|3:2,0:0:0:0:
377,162,36494,2,0,L|363:221,1,58.4999982147217,10|0,0:0|0:0,0:0:0:0:
299,288,36833,2,0,L|313:347,1,58.4999982147217,2|0,3:2|3:2,0:0:0:0:
400,378,37172,1,10,0:0:0:0:
509,226,37511,6,0,L|484:96,1,116.999996429443,2|10,3:2|0:0,0:0:0:0:
468,19,38019,2,0,B|441:19|420:43|420:43|385:51|350:25,1,116.999996429443,2|2,3:2|3:2,0:0:0:0:
283,85,38528,2,0,P|248:93|207:110,1,58.4999982147217,10|0,0:0|0:0,0:0:0:0:
283,183,38867,1,0,3:2:0:0:
283,183,39036,1,0,3:2:0:0:
204,233,39206,2,0,P|169:224|128:208,1,58.4999982147217,10|0,0:0|0:0,0:0:0:0:
93,139,39545,2,0,P|79:163|56:197,1,58.4999982147217,2|0,3:2|3:2,0:0:0:0:
7,264,39884,1,10,0:0:0:0:
160,371,40223,6,0,B|197:377|226:352|205:351|236:326|269:331,1,116.999996429443,2|10,3:2|0:0,0:0:0:0:
350,369,40731,2,0,P|361:318|384:239,1,116.999996429443,2|2,3:2|3:2,0:0:0:0:
459,206,41240,2,0,P|450:177|442:135,1,58.4999982147217,8|0,0:0|0:0,0:0:0:0:
438,107,41494,1,8,0:0:0:0:
438,107,41579,2,0,P|416:87|372:82,1,58.4999982147217,0|0,3:2|3:2,0:0:0:0:
302,118,41918,1,8,0:0:0:0:
221,60,42087,2,0,P|158:46|108:94,1,116.999996429443,2|2,0:0|3:2,0:0:0:0:
181,150,42595,1,10,0:0:0:0:
181,150,42765,1,2,0:0:0:0:
238,223,42934,6,0,P|222:290|210:351,1,116.999996429443,2|10,3:2|0:0,0:0:0:0:
124,370,43443,2,0,P|116:341|101:303,1,58.4999982147217,2|0,3:2|0:0,0:0:0:0:
37,249,43782,2,0,P|45:220|60:182,1,58.4999982147217,2|8,3:2|0:0,0:0:0:0:
16,107,44121,2,0,P|44:71|117:80,1,116.999996429443,2|0,3:2|3:2,0:0:0:0:
186,129,44629,1,10,0:0:0:0:
339,21,44968,2,0,L|400:38,1,58.4999982147217,2|0,3:2|3:2,0:0:0:0:
489,64,45307,1,10,0:0:0:0:
489,64,45477,1,2,0:0:0:0:
422,146,45646,6,0,B|447:182|447:182|428:272,1,130,4|10,3:1|0:0,0:0:0:0:
341,309,46155,2,0,P|278:299|249:244,1,130,0|0,3:2|3:2,0:0:0:0:
298,159,46663,2,0,L|282:87,1,65,8|0,0:0|0:0,0:0:0:0:
275,51,46918,1,8,0:0:0:0:
275,51,47002,2,0,P|246:32|191:32,1,65,0|0,3:2|3:2,0:0:0:0:
128,70,47341,2,0,L|113:133,1,65,8|0,0:0|0:0,0:0:0:0:
37,193,47680,1,0,3:2:0:0:
37,193,47850,1,0,3:2:0:0:
114,251,48019,2,0,L|136:360,1,97.5,8|0,0:0|0:0,0:0:0:0:
175,371,48358,6,0,B|219:355|219:355|256:369|256:369|301:356,1,130,6|8,0:0|3:2,0:0:0:0:
373,293,48867,2,0,P|383:326|398:362,2,65,10|8|8,3:2|3:2|3:2,0:0:0:0:
304,222,49375,1,10,3:2:0:0:
304,222,49545,2,0,P|316:192|333:147,1,65,10|8,3:2|3:2,0:0:0:0:
411,99,49884,6,0,L|452:85,2,32.5,10|10|10,3:2|3:2|3:2,0:0:0:0:
341,36,50223,1,10,3:2:0:0:
341,36,50307,1,10,3:2:0:0:
341,36,50392,2,0,L|329:-14,4,32.5,10|8|8|8|8,3:2|3:2|3:2|3:2|3:2,0:0:0:0:
255,92,50901,1,8,3:2:0:0:
255,92,50985,1,8,3:2:0:0:
255,92,51070,6,0,B|215:76|172:104|207:107|157:139|115:114,1,149.500002851486,4|8,3:1|0:0,0:0:0:0:
35,183,51579,1,2,0:0:0:0:
118,245,51748,2,0,P|154:251|219:227,1,74.7500014257431,2|0,3:2|3:2,0:0:0:0:
281,190,52087,2,0,P|317:184|382:208,1,74.7500014257431,10|0,0:0|0:0,0:0:0:0:
431,303,52426,5,2,3:2:0:0:
431,303,52595,1,2,0:0:0:0:
341,358,52765,2,0,P|332:324|313:259,1,74.7500014257431,10|2,0:0|0:0,0:0:0:0:
354,191,53104,2,0,P|362:157|381:92,1,74.7500014257431,2|0,3:2|3:2,0:0:0:0:
308,36,53443,1,10,0:0:0:0:
184,84,53612,6,0,P|148:89|103:60,2,74.7500014257431,2|2|2,0:0|3:2|0:0,0:0:0:0:
246,164,54121,2,0,P|235:200|227:245,1,74.7500014257431,10|2,0:0|0:0,0:0:0:0:
155,312,54460,1,2,3:2:0:0:
155,312,54629,1,2,3:2:0:0:
60,265,54799,2,0,P|38:236|35:186,1,74.7500014257431,10|2,0:0|0:0,0:0:0:0:
79,83,55138,6,0,P|122:78|181:66,1,74.7500014257431,2|0,3:2|0:0,0:0:0:0:
236,135,55477,2,0,P|298:157|367:99,1,149.500002851486,10|0,0:0|3:2,0:0:0:0:
423,27,55985,1,0,3:2:0:0:
502,95,56155,2,0,P|492:129|484:173,1,74.7500014257431,8|0,0:0|0:0,0:0:0:0:
507,297,56494,6,0,B|458:267|458:267|343:298,1,149.500002851486,0|8,3:2|0:0,0:0:0:0:
284,353,57002,2,0,L|196:335,1,74.7500014257431,2|2,0:0|3:2,0:0:0:0:
115,375,57341,1,2,3:2:0:0:
115,375,57511,1,10,0:0:0:0:
138,253,57680,6,0,L|171:92,1,149.500002851486,2|0,0:0|0:0,0:0:0:0:
254,46,58189,2,0,P|235:21|184:1,1,74.7500014257431,8|2,0:0|0:0,0:0:0:0:
96,35,58528,1,2,3:2:0:0:
96,35,58697,1,2,3:2:0:0:
168,106,58867,2,0,P|194:148|185:202,1,107.25000327301,10|0,0:0|0:0,0:0:0:0:
156,246,59206,6,0,L|175:322,1,74.7500014257431,14|0,0:0|3:2,0:0:0:0:
268,364,59545,1,2,3:2:0:0:
335,258,59714,2,0,L|316:185,1,74.7500014257431,14|0,0:0|3:2,0:0:0:0:
242,111,60053,1,2,3:2:0:0:
328,18,60223,6,0,P|388:-3|467:57,1,149.500002851486,14|0,0:0|3:2,0:0:0:0:
498,140,60731,1,14,0:0:0:0:
498,140,60901,2,0,P|477:175|477:223,1,74.7500014257431,2|2,3:2|3:2,0:0:0:0:
507,307,61240,1,8,0:0:0:0:
507,307,61324,1,8,0:0:0:0:
507,307,61409,1,8,0:0:0:0:
418,363,61579,2,0,P|386:351|344:342,1,74.7500014257431,10|0,0:0|3:2,0:0:0:0:
248,261,61918,6,0,B|205:249|166:282|199:285|156:322|115:305,1,149.500002851486,4|8,3:1|0:0,0:0:0:0:
26,359,62426,1,0,3:2:0:0:
3,257,62595,2,0,P|4:219|26:180,1,74.7500014257431,8|0,0:0|3:2,0:0:0:0:
113,139,62934,1,10,0:0:0:0:
113,139,63104,1,0,3:2:0:0:
19,53,63273,6,0,P|96:35|169:14,1,149.500002851486,10|10,0:0|0:0,0:0:0:0:
242,85,63782,1,0,3:2:0:0:
335,38,63951,2,0,P|373:41|411:70,1,74.7500014257431,10|0,0:0|3:2,0:0:0:0:
459,149,64290,1,10,0:0:0:0:
459,149,64460,1,0,3:2:0:0:
360,228,64629,6,0,B|317:217|317:217|268:247|268:247|215:235,1,149.500002851486,8|8,0:0|0:0,0:0:0:0:
160,149,65138,1,0,3:2:0:0:
234,76,65307,2,0,L|253:164,1,74.7500014257431,8|0,0:0|3:2,0:0:0:0:
217,251,65646,1,10,0:0:0:0:
217,251,65816,1,0,3:2:0:0:
319,326,65985,6,0,P|378:337|443:272,1,149.500002851486,8|10,0:0|0:0,0:0:0:0:
486,186,66494,1,0,3:2:0:0:
409,115,66663,2,0,B|372:105|372:105|326:131,1,74.7500014257431,10|0,0:0|3:2,0:0:0:0:
252,178,67002,1,10,0:0:0:0:
252,178,67172,1,0,3:2:0:0:
144,105,67341,6,0,B|99:79|99:79|0:109,1,149.500002851486,4|10,3:1|0:0,0:0:0:0:
69,191,67850,2,0,P|69:231|48:268,1,74.7500014257431,2|0,0:0|3:2,0:0:0:0:
10,371,68189,2,0,P|44:351|87:350,1,74.7500014257431,2|8,3:2|0:0,0:0:0:0:
157,279,68528,6,0,P|192:290|237:302,1,74.7500014257431,2|0,0:0|3:2,0:0:0:0:
319,351,68867,2,0,P|354:340|399:328,1,74.7500014257431,2|8,0:0|0:0,0:0:0:0:
493,351,69206,2,0,P|495:316|468:262,1,74.7500014257431,2|0,0:0|3:2,0:0:0:0:
391,225,69545,2,0,P|389:190|416:136,1,74.7500014257431,2|8,3:2|0:0,0:0:0:0:
464,71,69884,5,2,0:0:0:0:
464,71,69968,1,2,0:0:0:0:
464,71,70053,2,0,P|427:61|378:47,1,74.7500014257431,2|2,3:2|0:0,0:0:0:0:
299,0,70392,2,0,P|247:48|167:39,1,149.500002851486,10|0,0:0|3:2,0:0:0:0:
73,22,70901,1,0,3:2:0:0:
73,22,71070,2,0,P|64:58|49:109,1,74.7500014257431,8|2,0:0|0:0,0:0:0:0:
135,184,71409,6,0,B|181:151|181:151|278:172,1,149.500002851486,2|10,3:2|0:0,0:0:0:0:
354,105,71918,2,0,P|318:145|350:236,1,149.500002851486,2|2,0:0|3:2,0:0:0:0:
434,182,72426,2,0,P|440:218|453:271,1,74.7500014257431,10|0,0:0|3:2,0:0:0:0:
362,354,72765,6,0,P|325:359|283:331,1,71.5000021820069,4|2,3:1|0:0,0:0:0:0:
222,275,73104,2,0,P|187:281|145:293,1,71.5000021820069,10|0,0:0|3:2,0:0:0:0:
83,364,73443,1,10,0:0:0:0:
83,364,73612,2,0,P|56:337|55:274,1,71.5000021820069,2|8,3:2|0:0,0:0:0:0:
92,215,73951,1,2,0:0:0:0:
30,135,74121,5,10,3:2:0:0:
88,56,74290,1,10,0:0:0:0:
88,56,74375,1,8,0:0:0:0:
88,56,74460,2,0,L|165:70,1,71.5000021820069,10|10,0:0|0:0,0:0:0:0:
207,93,74714,1,8,0:0:0:0:
207,93,74799,2,0,L|303:77,1,71.5000021820069,10|8,0:0|3:3,0:0:0:0:
410,59,75138,1,2,3:2:0:0:
333,6,75307,1,2,3:2:0:0:
356,139,75477,6,0,B|405:108|405:108|513:144,1,155.999995239258,4|8,3:1|0:0,0:0:0:0:
418,214,75985,1,2,0:0:0:0:
484,307,76155,1,2,3:2:0:0:
484,307,76324,1,2,3:2:0:0:
397,374,76494,2,0,P|360:376|309:351,1,77.999997619629,10|2,0:0|0:0,0:0:0:0:
223,261,76833,6,0,P|241:312|161:371,1,155.999995239258,2|10,3:2|0:0,0:0:0:0:
119,276,77341,2,0,L|140:181,1,77.999997619629,2|0,3:2|0:0,0:0:0:0:
69,112,77680,2,0,L|164:91,1,77.999997619629,2|8,0:0|0:0,0:0:0:0:
223,18,78019,1,2,0:0:0:0:
345,67,78189,5,2,3:2:0:0:
345,67,78358,1,2,3:2:0:0:
438,9,78528,2,0,L|461:90,1,77.999997619629,10|0,0:0|0:0,0:0:0:0:
486,190,78867,1,2,3:2:0:0:
486,190,79036,1,2,3:2:0:0:
408,266,79206,1,10,0:0:0:0:
303,236,79375,6,0,B|256:224|256:224|208:254|208:254|143:240,1,155.999995239258,2|2,0:0|3:2,0:0:0:0:
64,300,79884,2,0,P|56:261|44:217,1,77.999997619629,10|2,0:0|3:2,0:0:0:0:
176,167,80223,2,0,P|165:204|158:242,1,77.999997619629,2|0,0:0|3:2,0:0:0:0:
231,323,80562,2,0,P|281:294|346:320,1,116.999996429443,10|0,0:0|0:0,0:0:0:0:
380,339,80901,6,0,P|417:343|460:320,1,77.999997619629,0|0,3:2|3:2,0:0:0:0:
505,230,81240,2,0,L|489:141,1,77.999997619629,8|2,0:0|0:0,0:0:0:0:
403,87,81579,2,0,L|389:163,1,77.999997619629,2|0,3:2|3:2,0:0:0:0:
299,227,81918,2,0,P|262:231|219:208,1,77.999997619629,10|2,0:0|0:0,0:0:0:0:
143,141,82257,2,0,B|173:93|173:93|139:-15,1,155.999995239258,2|10,3:2|0:0,0:0:0:0:
36,23,82765,2,0,P|24:61|12:108,1,77.999997619629,2|0,3:2|0:0,0:0:0:0:
55,199,83104,1,2,3:2:0:0:
10,298,83273,1,8,0:0:0:0:
219,374,83612,5,2,3:2:0:0:
219,374,83782,1,2,3:2:0:0:
199,266,83951,2,0,P|202:229|232:189,1,77.999997619629,10|2,0:0|0:0,0:0:0:0:
311,130,84290,2,0,P|319:168|332:214,1,77.999997619629,2|0,3:2|3:2,0:0:0:0:
404,284,84629,1,10,0:0:0:0:
481,206,84799,6,0,P|491:168|499:130,1,77.999997619629,2|0,0:0|3:2,0:0:0:0:
408,69,85138,1,2,3:2:0:0:
311,130,85307,2,0,B|264:108|264:108|143:143,1,155.999995239258,10|2,0:0|0:0,0:0:0:0:
79,207,85816,2,0,P|68:167|52:122,1,77.999997619629,2|8,3:2|0:0,0:0:0:0:
19,29,86155,1,2,3:2:0:0:
145,42,86324,6,0,L|222:20,1,77.999997619629,2|0,3:2|3:2,0:0:0:0:
327,53,86663,2,0,L|308:139,1,77.999997619629,10|0,0:0|0:0,0:0:0:0:
222,193,87002,1,2,3:2:0:0:
222,193,87172,2,0,P|247:227|248:278,1,77.999997619629,0|8,3:2|0:0,0:0:0:0:
205,361,87511,1,2,3:2:0:0:
341,328,87680,6,0,L|416:309,2,77.999997619629,10|8|8,3:2|3:2|3:2,0:0:0:0:
251,261,88189,1,10,3:2:0:0:
335,192,88358,2,0,P|333:144|301:103,1,77.999997619629,10|10,3:2|3:2,0:0:0:0:
227,58,88697,1,10,3:2:0:0:
353,15,88867,1,4,3:1:0:0:
256,192,88951,12,0,90392,0:0:0:0:
