osu file format v14

[General]
AudioFilename: audio.mp3
AudioLeadIn: 0
PreviewTime: 51404
Countdown: 0
SampleSet: Soft
StackLeniency: 0.7
Mode: 0
LetterboxInBreaks: 0
WidescreenStoryboard: 0

[Editor]
DistanceSpacing: 0.9
BeatDivisor: 4
GridSize: 4
TimelineZoom: 3.099999

[Metadata]
Title:Saigo made II (TV Size)
TitleUnicode:最後までⅡ (TV Size)
Artist:Aqua Timez
ArtistUnicode:Aqua Timez
Creator:Roda Totsuki
Version:Prayer
Source:銀魂゜
Tags:gintama゜ gintama 2015 white yaksha 白夜叉 male vocals times 坂田 銀時 sakata gintoki japanese anime ed ending 24 jrock j-rock rock sadaharu 2 two reisevia
BeatmapID:2760746
BeatmapSetID:1332480

[Difficulty]
HPDrainRate:5.5
CircleSize:4.2
OverallDifficulty:9
ApproachRate:9.3
SliderMultiplier:1.9
SliderTickRate:1

[Events]
//Background and Video events
0,0,"gintoki.jpg",0,0
Video,-160,"gintama.mp4"
//Break Periods
//Storyboard Layer 0 (Background)
//Storyboard Layer 1 (Fail)
//Storyboard Layer 2 (Pass)
//Storyboard Layer 3 (Foreground)
//Storyboard Layer 4 (Overlay)
//Storyboard Sound Samples

[TimingPoints]
-460,338.983050847458,4,2,1,60,1,0
2251,-125,4,2,1,60,0,0
3523,-125,4,2,1,5,0,0
3607,-125,4,2,1,60,0,0
21743,-105.263157894737,4,2,1,60,0,0
21997,-105.263157894737,4,2,1,5,0,0
22082,-105.263157894737,4,2,1,60,0,0
23946,-111.111111111111,4,2,1,70,0,0
32336,-111.111111111111,4,2,1,5,0,0
32421,-111.111111111111,4,2,1,70,0,0
38777,-111.111111111111,4,2,1,70,0,0
38862,-111.111111111111,4,2,1,70,0,0
45641,-99.9999999999999,4,2,1,75,0,0
45895,-99.9999999999999,4,2,1,5,0,0
45980,-99.9999999999999,4,2,1,75,0,0
46065,-99.9999999999999,4,2,1,5,0,0
46150,-99.9999999999999,4,2,1,75,0,0
48353,-99.9999999999999,4,2,1,80,0,0
48692,-99.9999999999999,4,2,1,60,0,0
49031,-99.9999999999999,4,2,1,70,0,0
49370,-99.9999999999999,4,2,1,80,0,0
50048,-71.4285714285714,4,2,1,80,0,0
51065,-86.9565217391304,4,2,1,85,0,1
51319,-86.9565217391304,4,2,1,5,0,1
51404,-86.9565217391304,4,2,1,85,0,1
56743,-86.9565217391304,4,2,1,5,0,1
56828,-86.9565217391304,4,2,1,85,0,1
58099,-86.9565217391304,4,2,1,5,0,1
58184,-86.9565217391304,4,2,1,85,0,1
58862,-105.263157894737,4,2,1,85,0,1
59116,-105.263157894737,4,2,1,5,0,1
59201,-105.263157894737,4,2,1,85,0,1
67336,-74.0740740740741,4,2,1,85,0,1
67590,-74.0740740740741,4,2,1,5,0,1
67675,-74.0740740740741,4,2,1,85,0,1
67845,-86.9565217391304,4,2,1,85,0,1
70641,-86.9565217391304,4,2,1,5,0,1
70726,-86.9565217391304,4,2,1,85,0,1
72760,-86.9565217391304,4,2,1,80,0,0
74455,-90.9090909090909,4,2,1,80,0,0
75472,-71.4285714285714,4,2,1,85,0,1
75726,-71.4285714285714,4,2,1,5,0,1
75811,-71.4285714285714,4,2,1,85,0,1
76828,-83.3333333333333,4,2,1,85,0,1
80895,-71.4285714285714,4,2,1,85,0,1
81150,-71.4285714285714,4,2,1,5,0,1
81234,-71.4285714285714,4,2,1,85,0,1
82251,-83.3333333333333,4,2,1,85,0,1
84540,-83.3333333333333,4,2,1,5,0,1
84624,-83.3333333333333,4,2,1,85,0,1
84709,-83.3333333333333,4,2,1,5,0,1
84794,-83.3333333333333,4,2,1,85,0,1
85048,-83.3333333333333,4,2,1,5,0,1
85133,-83.3333333333333,4,2,1,85,0,1
85217,-83.3333333333333,4,2,1,5,0,1
85302,-83.3333333333333,4,2,1,85,0,1
88862,-333.333333333333,4,2,1,70,0,0
89031,-333.333333333333,4,2,1,60,0,0
89370,-333.333333333333,4,2,1,45,0,0
89709,-333.333333333333,4,2,1,30,0,0
90048,-333.333333333333,4,2,1,15,0,0
90387,-333.333333333333,4,2,1,5,0,0

[Colours]
Combo1 : 128,128,128
Combo2 : 192,192,192
Combo3 : 133,47,54
Combo4 : 92,108,147
Combo5 : 180,158,164

[HitObjects]
32,224,1573,69,8,3:0:0:0:
32,368,1743,5,8,0:0:0:0:
32,368,1828,1,8,0:0:0:0:
32,368,1912,1,8,0:0:0:0:
32,368,1997,1,8,0:0:0:0:
32,368,2082,1,8,0:0:0:0:
32,368,2167,1,8,0:0:0:0:
32,368,2251,54,0,B|53:267|53:267|27:214,1,152,12|8,0:1|0:0,0:0:0:0:
50,149,2760,2,0,L|27:237,1,76,8|0,0:1|0:0,0:0:0:0:
72,72,3099,1,8,0:1:0:0:
147,35,3268,2,0,P|191:8|258:24,1,114,10|0,0:0|0:0,0:0:0:0:
249,18,3607,6,0,L|239:108,1,76,2|8,0:0|0:1,0:0:0:0:
398,158,3946,2,0,P|363:133|311:136,1,76,10|8,0:0|0:1,0:0:0:0:
321,140,4201,1,8,0:0:0:0:
311,150,4285,2,0,L|307:202,2,38,10|8|8,0:1|0:0|0:1,0:0:0:0:
299,290,4624,1,10,0:0:0:0:
172,363,4794,53,8,0:1:0:0:
172,363,4878,1,8,0:0:0:0:
172,363,4963,2,0,B|115:392|65:352|65:352|86:318,1,152,10|10,0:1|0:0,0:0:0:0:
155,209,5472,2,0,P|170:174|167:137,1,76,8|0,0:1|0:0,0:0:0:0:
84,320,5811,1,8,0:1:0:0:
225,287,5980,2,0,L|309:267,1,76,10|8,0:0|0:1,0:0:0:0:
308,279,6234,1,8,0:0:0:0:
318,289,6319,5,8,0:1:0:0:
318,289,6489,1,8,0:1:0:0:
496,243,6658,1,10,0:0:0:0:
411,324,6828,1,8,0:1:0:0:
408,305,6912,1,8,0:0:0:0:
406,286,6997,1,8,0:1:0:0:
404,267,7082,1,8,0:0:0:0:
402,248,7167,1,8,0:1:0:0:
396,156,7336,1,10,0:0:0:0:
395,24,7506,53,8,0:1:0:0:
395,24,7590,1,8,0:0:0:0:
395,24,7675,2,0,B|431:64|431:64|391:165,1,152,8|8,0:1|0:0,0:0:0:0:
326,171,8184,2,0,P|374:150|418:170,1,76,8|0,0:1|0:0,0:0:0:0:
272,264,8523,1,8,0:1:0:0:
200,176,8692,2,0,L|216:40,1,114,10|8,0:0|0:0,0:0:0:0:
213,62,9031,6,0,P|165:41|121:61,1,76,2|8,0:0|0:1,0:0:0:0:
320,72,9370,2,0,P|368:52|385:7,1,76,10|8,0:0|0:1,0:0:0:0:
390,24,9624,1,8,0:0:0:0:
400,14,9709,2,0,L|405:70,2,38,10|8|8,0:1|0:0|0:1,0:0:0:0:
496,104,10048,1,10,0:0:0:0:
360,248,10217,53,8,0:1:0:0:
360,248,10302,1,8,0:0:0:0:
360,248,10387,2,0,P|400:293|502:280,1,152,10|10,0:1|0:0,0:0:0:0:
377,178,10895,2,0,P|358:243|368:263,1,76,8|0,0:1|0:0,0:0:0:0:
493,299,11234,1,8,0:1:0:0:
493,299,11319,1,8,0:1:0:0:
493,299,11404,2,0,L|417:310,1,76,8|8,0:0|0:1,0:0:0:0:
407,320,11658,1,8,0:0:0:0:
397,330,11743,5,8,0:1:0:0:
397,330,11912,1,8,0:1:0:0:
264,249,12082,1,8,0:0:0:0:
169,370,12251,1,8,0:1:0:0:
150,374,12336,1,8,0:0:0:0:
131,375,12421,1,8,0:1:0:0:
112,372,12506,1,8,0:0:0:0:
95,365,12590,1,8,0:1:0:0:
232,320,12760,1,8,0:0:0:0:
113,216,12929,53,8,0:1:0:0:
113,216,13014,1,8,0:0:0:0:
113,216,13099,2,0,B|66:178|87:120|87:120|149:104,1,152,8|8,0:1|0:0,0:0:0:0:
192,72,13607,2,0,P|146:107|114:107,1,76,8|0,0:1|0:0,0:0:0:0:
240,0,13946,1,8,0:1:0:0:
344,72,14116,2,0,P|320:112|336:192,1,114,10|8,0:0|0:0,0:0:0:0:
326,176,14455,6,0,L|406:168,1,76,2|8,0:0|0:1,0:0:0:0:
288,288,14794,2,0,L|212:279,1,76,10|8,0:0|0:1,0:0:0:0:
202,289,15048,1,8,0:0:0:0:
192,299,15133,2,0,L|184:345,2,38,10|8|8,0:1|0:0|0:1,0:0:0:0:
213,167,15472,1,10,0:0:0:0:
24,242,15641,53,8,0:1:0:0:
24,242,15726,1,8,0:0:0:0:
24,242,15811,2,0,B|-19:296|16:348|16:348|48:307,1,152,10|10,0:1|0:0,0:0:0:0:
95,181,16319,2,0,P|74:124|43:106,1,76,8|0,0:1|0:0,0:0:0:0:
24,242,16658,1,8,0:1:0:0:
63,115,16828,2,0,L|73:26,1,76,10|8,0:0|0:1,0:0:0:0:
61,29,17082,1,8,0:0:0:0:
51,19,17167,5,8,0:1:0:0:
51,19,17336,1,8,0:1:0:0:
164,116,17506,1,10,0:0:0:0:
278,13,17675,1,8,0:1:0:0:
296,13,17760,1,8,0:0:0:0:
314,19,17845,1,8,0:1:0:0:
330,30,17929,1,8,0:0:0:0:
342,45,18014,1,8,0:1:0:0:
440,120,18184,1,10,0:0:0:0:
500,10,18353,53,8,0:1:0:0:
500,10,18438,1,8,0:0:0:0:
500,10,18523,2,0,P|439:46|456:138,1,152,8|8,0:1|0:0,0:0:0:0:
436,191,19031,2,0,P|447:137|431:107,1,76,8|0,0:1|0:0,0:0:0:0:
344,232,19370,1,8,0:1:0:0:
497,266,19539,2,0,P|519:316|501:390,1,114,10|8,0:0|0:0,0:0:0:0:
511,374,19878,6,0,P|459:386|427:371,1,76,2|8,0:0|0:1,0:0:0:0:
272,296,20217,2,0,P|309:300|338:323,1,76,10|8,0:0|0:1,0:0:0:0:
348,333,20472,1,8,0:0:0:0:
358,343,20556,2,0,L|362:395,2,38,10|8|8,0:1|0:0|0:1,0:0:0:0:
193,287,20895,1,10,0:0:0:0:
321,192,21065,53,8,0:1:0:0:
321,192,21150,1,8,0:0:0:0:
321,192,21234,1,10,0:1:0:0:
216,176,21404,1,2,0:0:0:0:
120,160,21573,1,10,0:0:0:0:
321,192,21743,2,0,B|376:204|414:157|414:157|403:127,1,135.375,10|0,0:1|0:0,0:0:0:0:
403,128,22082,1,10,0:1:0:0:
281,266,22251,1,10,0:0:0:0:
434,54,22421,5,8,0:1:0:0:
434,54,22506,1,8,0:0:0:0:
434,54,22590,2,0,P|364:64|338:102,1,90.2499999999999,8|10,0:1|0:1,0:0:0:0:
321,192,22929,1,10,0:0:0:0:
488,319,23099,1,8,0:1:0:0:
488,319,23184,1,8,0:0:0:0:
488,319,23268,1,8,0:1:0:0:
392,382,23438,2,0,L|401:326,1,45.1249999999999,8|8,0:1|0:1,0:0:0:0:
434,54,23607,53,12,0:0:0:0:
112,296,23946,6,0,B|85:318|81:354|81:354|19:328|37:266,1,171,12|8,0:1|0:0,0:0:0:0:
166,363,24455,2,0,P|224:306|313:318,1,171,8|8,0:1|0:1,0:0:0:0:
168,240,24963,1,10,0:0:0:0:
315,322,25133,53,8,0:1:0:0:
315,322,25217,1,8,0:0:0:0:
315,322,25302,2,0,P|352:337|403:324,1,85.4999973907472,2|8,0:0|0:1,0:0:0:0:
248,224,25641,2,0,L|238:139,1,85.4999973907472,10|8,0:0|0:1,0:0:0:0:
393,40,25980,1,10,0:1:0:0:
368,128,26150,1,8,0:1:0:0:
456,104,26319,1,10,0:0:0:0:
279,66,26489,5,8,0:1:0:0:
279,66,26573,1,8,0:0:0:0:
279,66,26658,2,0,B|218:48|179:87|179:87|144:87|119:58,1,171,10|10,0:1|0:0,0:0:0:0:
13,153,27167,2,0,B|32:122|75:120|75:120|116:166|187:168,1,171,8|8,0:1|0:1,0:0:0:0:
48,40,27675,1,10,0:0:0:0:
70,225,27845,53,8,0:1:0:0:
70,225,27929,1,8,0:0:0:0:
70,225,28014,1,10,0:1:0:0:
132,360,28184,1,8,0:1:0:0:
12,288,28353,1,10,0:0:0:0:
187,300,28523,1,8,0:1:0:0:
208,301,28607,1,8,0:0:0:0:
229,302,28692,1,10,0:1:0:0:
250,304,28777,1,8,0:0:0:0:
272,305,28862,1,8,0:1:0:0:
187,300,29031,1,10,0:0:0:0:
360,360,29201,5,8,0:1:0:0:
360,360,29285,1,8,0:0:0:0:
360,360,29370,2,0,B|410:342|410:342|471:378|529:331,1,171,10|8,0:1|0:0,0:0:0:0:
454,159,29878,2,0,B|408:224|439:275|439:275|459:293|481:277,1,171,8|8,0:1|0:1,0:0:0:0:
365,108,30387,1,10,0:0:0:0:
280,225,30556,53,8,0:1:0:0:
280,225,30641,1,8,0:0:0:0:
280,225,30726,2,0,P|264:284|283:321,1,85.5000000000001,2|8,0:0|0:1,0:0:0:0:
368,112,31065,2,0,P|376:70|359:31,1,85.5000000000001,10|8,0:0|0:1,0:0:0:0:
289,81,31404,1,10,0:1:0:0:
368,112,31573,1,8,0:1:0:0:
447,143,31743,1,10,0:0:0:0:
386,286,31912,5,8,0:1:0:0:
386,286,31997,1,8,0:0:0:0:
386,286,32082,2,0,B|312:272|312:272|280:288|266:312,1,128.25,10|0,0:1|0:0,0:0:0:0:
270,304,32421,1,10,0:0:0:0:
149,238,32590,1,10,0:1:0:0:
96,361,32760,1,2,0:0:0:0:
8,256,32929,2,0,B|-6:212|-6:212|14:170,1,85.5000000000001,10|8,0:1|0:0,0:0:0:0:
78,45,33268,53,10,0:1:0:0:
78,45,33353,1,8,0:0:0:0:
78,45,33438,1,8,0:1:0:0:
10,176,33607,1,10,0:1:0:0:
192,88,33777,2,0,B|185:51|185:51|190:34|190:34|183:-4,1,85.5000000000001,8|10,0:0|0:1,0:0:0:0:
371,148,34116,2,0,B|365:178|365:178|370:195|370:195|364:231,1,85.5000000000001,8|10,0:1|0:1,0:0:0:0:
392,32,34455,1,8,0:0:0:0:
352,317,34794,6,0,B|332:336|339:362|339:362|380:307|442:304,1,170.999994781494,14|8,0:1|0:0,0:0:0:0:
291,270,35302,2,0,B|257:307|261:362|261:362|236:343|195:341,1,170.999994781494,8|8,0:1|0:1,0:0:0:0:
371,240,35811,1,10,0:0:0:0:
184,272,35980,53,8,0:1:0:0:
184,272,36065,1,8,0:0:0:0:
184,272,36150,2,0,B|158:274|135:254|135:254|103:262,1,85.5000000000001,2|8,0:0|0:1,0:0:0:0:
291,137,36489,2,0,B|323:129|323:129|346:149|371:146,1,85.5000000000001,10|8,0:0|0:1,0:0:0:0:
160,32,36828,1,10,0:1:0:0:
99,91,36997,1,8,0:1:0:0:
128,171,37167,1,10,0:0:0:0:
376,64,37506,6,0,B|423:12|491:46|491:46|463:93,1,171,10|10,0:1|0:0,0:0:0:0:
364,143,38014,2,0,P|358:101|375:63,1,85.5000000000001,10|0,0:1|0:0,0:0:0:0:
488,224,38353,1,10,0:1:0:0:
376,304,38523,2,0,L|249:293,1,128.25,10|8,0:0|0:0,0:0:0:0:
248,292,38862,53,8,0:1:0:0:
248,292,39031,1,8,0:1:0:0:
117,357,39201,5,10,0:0:0:0:
158,227,39370,1,8,0:1:0:0:
117,97,39539,1,10,0:1:0:0:
158,227,39709,1,8,0:1:0:0:
279,165,39878,53,10,0:0:0:0:
0,8,40217,6,0,B|32:56|32:56|79:3|160:24,1,171,10|10,0:1|0:0,0:0:0:0:
136,152,40726,2,0,B|129:171|129:171|112:108,1,85.5000000000001,10|0,0:1|0:0,0:0:0:0:
255,208,41065,2,0,B|261:227|261:227|278:164,1,85.5000000000001,10|10,0:1|0:0,0:0:0:0:
82,257,41404,53,8,0:1:0:0:
82,257,41489,1,8,0:0:0:0:
82,257,41573,1,8,0:1:0:0:
43,333,41743,1,8,0:1:0:0:
159,279,41912,1,10,0:0:0:0:
249,370,42082,2,0,P|300:371|346:342,1,85.5000000000001,10|8,0:1|0:1,0:0:0:0:
411,238,42421,1,10,0:1:0:0:
330,356,42590,1,10,0:0:0:0:
268,185,42760,5,10,0:1:0:0:
268,185,42845,1,8,0:0:0:0:
268,185,42929,2,0,B|219:125|252:58|252:58|263:73|260:91,1,171,10|10,0:1|0:0,0:0:0:0:
159,279,43438,2,0,P|116:280|74:254,1,85.5000000000001,10|0,0:1|0:0,0:0:0:0:
268,185,43777,2,0,P|305:164|347:165,1,85.5000000000001,10|10,0:1|0:0,0:0:0:0:
445,308,44116,53,10,0:1:0:0:
445,308,44201,1,10,0:0:0:0:
445,308,44285,1,10,0:1:0:0:
403,231,44455,1,8,0:1:0:0:
360,351,44624,1,10,0:0:0:0:
284,208,44794,1,8,0:1:0:0:
284,208,44878,1,8,0:0:0:0:
284,208,44963,1,10,0:1:0:0:
203,358,45133,1,8,0:1:0:0:
141,245,45302,1,10,0:0:0:0:
453,35,45641,6,0,B|376:21|376:21|315:83,1,142.5,12|0,0:1|0:0,0:0:0:0:
330,66,45980,2,0,L|350:128,1,47.5000000000001,10|0,0:0|0:0,0:0:0:0:
186,33,46150,2,0,B|147:26|147:26|129:31|129:31|74:21,1,95.0000000000001,10|0,0:1|0:0,0:0:0:0:
284,208,46489,2,0,B|320:201|320:201|337:206|337:206|377:199,1,95.0000000000001,10|8,0:1|0:0,0:0:0:0:
104,116,46828,53,8,0:1:0:0:
104,116,46912,1,8,0:0:0:0:
104,116,46997,1,8,0:1:0:0:
188,159,47167,1,10,0:1:0:0:
271,204,47336,2,0,P|295:148|282:97,1,95.0000000000001,8|2,0:0|0:0,0:0:0:0:
112,200,47675,1,8,0:1:0:0:
256,320,47845,1,8,0:1:0:0:
136,384,48014,1,10,0:0:0:0:
176,296,48184,1,0,0:0:0:0:
416,376,48353,1,14,0:0:0:0:
491,39,48692,5,8,0:0:0:0:
416,176,48862,1,8,0:0:0:0:
248,220,49031,53,8,0:0:0:0:
376,104,49201,1,8,0:0:0:0:
512,384,49370,5,8,0:0:0:0:
332,192,49539,1,8,0:0:0:0:
416,176,49709,53,8,0:3:0:0:
104,319,49878,5,8,0:0:0:0:
104,319,49963,1,8,0:0:0:0:
104,319,50048,2,0,P|137:336|173:333,1,66.5,8|8,0:0|0:0,0:0:0:0:
299,256,50217,2,0,P|315:223|312:187,1,66.5,8|8,0:0|0:0,0:0:0:0:
216,40,50387,1,8,0:0:0:0:
197,20,50472,1,8,0:0:0:0:
172,9,50556,1,8,0:0:0:0:
138,5,50641,1,8,0:0:0:0:
100,18,50726,1,8,0:0:0:0:
67,51,50811,1,8,0:0:0:0:
63,103,50895,1,8,0:0:0:0:
95,153,50980,1,8,0:0:0:0:
152,192,51065,6,0,B|199:221|199:221|205:295|134:315,1,163.875,14|0,0:1|0:0,0:0:0:0:
152,192,51404,1,8,0:0:0:0:
160,32,51573,1,2,0:0:0:0:
320,208,51743,2,0,P|367:205|427:150,1,109.25,10|8,0:1|0:1,0:0:0:0:
118,106,52082,2,0,P|86:70|83:-10,1,109.25,10|2,0:0|0:0,0:0:0:0:
76,11,52336,1,2,0:0:0:0:
76,11,52421,5,10,0:1:0:0:
280,132,52590,1,2,0:0:0:0:
16,184,52760,1,10,0:0:0:0:
264,304,52929,1,2,0:0:0:0:
120,384,53099,2,0,L|132:252,1,109.25,10|8,0:1|0:1,0:0:0:0:
232,380,53438,1,10,0:0:0:0:
232,380,53607,5,2,0:0:0:0:
232,380,53692,1,2,0:0:0:0:
232,380,53777,1,10,0:1:0:0:
384,240,53946,1,2,0:0:0:0:
240,88,54116,1,10,0:0:0:0:
384,320,54285,37,2,0:0:0:0:
232,180,54455,1,10,0:1:0:0:
376,28,54624,1,10,0:1:0:0:
446,100,54794,1,10,0:0:0:0:
446,100,54963,1,2,0:0:0:0:
240,8,55133,6,0,B|200:1|200:1|182:14|182:14|136:5,1,109.25,10|0,0:1|0:0,0:0:0:0:
384,240,55472,2,0,B|338:248|338:248|319:235|319:235|280:242,1,109.25,10|8,0:0|0:1,0:0:0:0:
280,242,55726,1,8,0:1:0:0:
280,242,55811,1,8,0:1:0:0:
127,290,55980,1,8,0:1:0:0:
183,192,56150,1,8,0:0:0:0:
227,354,56319,1,0,0:0:0:0:
360,168,56489,6,0,P|378:106|332:18,1,163.875,12|0,0:1|0:0,0:0:0:0:
360,168,56828,2,0,P|333:244|356:292,1,109.25,8|2,0:0|0:0,0:0:0:0:
350,278,57082,1,2,0:0:0:0:
360,288,57167,1,10,0:1:0:0:
416,232,57336,1,10,0:1:0:0:
294,104,57506,1,10,0:0:0:0:
127,290,57675,1,2,0:0:0:0:
425,334,57845,38,0,B|396:294|343:299|343:299|324:331|286:336,1,163.875,12|0,0:1|0:0,0:0:0:0:
425,334,58184,2,0,P|483:351|514:299,1,109.25,8|2,0:0|0:0,0:0:0:0:
512,309,58438,1,2,0:0:0:0:
502,299,58523,1,10,0:1:0:0:
286,336,58692,1,10,0:1:0:0:
136,190,58862,2,0,B|103:167|61:167|37:194|37:194|59:183|81:183,1,135.375,10|0,0:0|0:0,0:0:0:0:
136,190,59201,5,14,0:0:0:0:
417,117,59370,1,8,0:1:0:0:
417,117,59539,1,10,0:1:0:0:
307,308,59709,5,14,0:0:0:0:
234,27,59878,1,8,0:1:0:0:
234,27,60048,1,10,0:1:0:0:
136,190,60217,1,14,0:0:0:0:
272,168,60387,1,10,0:1:0:0:
272,168,60472,1,2,0:0:0:0:
272,168,60556,1,10,0:1:0:0:
120,352,60726,37,14,0:0:0:0:
472,272,60895,1,10,0:1:0:0:
184,224,61065,1,10,0:1:0:0:
360,184,61234,1,10,0:0:0:0:
200,120,61404,1,10,0:1:0:0:
288,100,61573,1,10,0:0:0:0:
224,32,61743,1,10,0:1:0:0:
224,32,61912,1,12,0:0:0:0:
8,376,62251,5,8,0:0:0:0:
408,308,62590,5,8,0:0:0:0:
288,100,62760,1,8,0:1:0:0:
376,48,62929,37,10,0:0:0:0:
256,256,63099,1,8,0:1:0:0:
256,256,63184,1,8,0:1:0:0:
256,256,63268,1,14,0:0:0:0:
8,8,63607,5,10,0:0:0:0:
120,224,63777,1,8,0:1:0:0:
224,24,63946,5,10,0:0:0:0:
112,240,64116,1,8,0:1:0:0:
336,184,64285,37,10,0:0:0:0:
110,263,64455,1,8,0:1:0:0:
110,263,64539,1,8,0:1:0:0:
110,263,64624,1,12,0:0:0:0:
504,376,64963,5,8,0:0:0:0:
240,136,65302,5,8,0:0:0:0:
312,328,65472,1,8,0:1:0:0:
314,89,65641,37,10,0:0:0:0:
232,376,65811,1,8,0:1:0:0:
232,376,65895,1,8,0:1:0:0:
232,376,65980,1,14,0:0:0:0:
504,8,66319,5,10,0:0:0:0:
312,176,66489,1,8,0:1:0:0:
408,176,66658,5,10,0:0:0:0:
216,8,66828,1,8,0:1:0:0:
144,72,66997,37,10,0:0:0:0:
72,136,67167,1,8,0:1:0:0:
72,136,67336,6,0,B|132:119|132:119|157:63|140:23|116:-1,1,192.375,14|0,0:1|0:0,0:0:0:0:
70,60,67675,1,10,0:0:0:0:
201,229,67845,2,0,P|251:255|320:236,1,109.25,2|8,0:0|0:1,0:0:0:0:
264,168,68184,1,10,0:1:0:0:
240,328,68353,1,8,0:0:0:0:
388,224,68523,5,2,0:0:0:0:
388,224,68607,1,2,0:0:0:0:
388,224,68692,1,10,0:1:0:0:
167,132,68862,1,2,0:0:0:0:
201,229,69031,1,8,0:0:0:0:
376,54,69201,2,0,P|372:111|328:165,1,109.25,2|8,0:0|0:1,0:0:0:0:
84,92,69539,2,0,P|127:54|196:47,1,109.25,10|8,0:1|0:0,0:0:0:0:
270,180,69878,37,2,0:0:0:0:
270,180,69963,1,2,0:0:0:0:
270,180,70048,1,14,0:1:0:0:
116,316,70217,1,2,0:0:0:0:
334,384,70387,2,0,B|370:354|370:354|418:363|418:363|507:340,1,163.875,10|0,0:0|0:0,0:0:0:0:
334,384,70726,1,8,0:1:0:0:
334,384,70895,1,8,0:1:0:0:
203,227,71065,1,8,0:0:0:0:
343,153,71234,1,2,0:0:0:0:
168,340,71404,6,0,L|46:322,1,109.25,10|8,0:1|0:1,0:0:0:0:
202,109,71743,1,10,0:0:0:0:
202,109,71912,2,0,L|80:91,1,109.25,2|8,0:0|0:1,0:0:0:0:
128,256,72251,1,10,0:1:0:0:
136,176,72421,1,10,0:0:0:0:
256,368,72590,5,10,0:1:0:0:
256,368,72675,1,2,0:0:0:0:
256,368,72760,1,14,0:1:0:0:
330,344,73099,37,10,0:0:0:0:
198,300,73268,1,8,0:1:0:0:
132,196,73438,5,10,0:0:0:0:
384,157,73607,1,10,0:1:0:0:
439,47,73777,5,8,0:0:0:0:
16,72,74116,37,10,0:1:0:0:
8,64,74201,1,8,0:0:0:0:
48,34,74285,1,8,0:0:0:0:
98,35,74370,1,8,0:0:0:0:
140,66,74455,2,0,L|133:133,1,52.25,8|8,0:0|0:1,0:0:0:0:
8,272,74624,1,8,0:1:0:0:
8,272,74709,1,8,0:0:0:0:
8,272,74794,1,8,0:0:0:0:
35,234,74878,1,8,0:3:0:0:
74,219,74963,1,8,0:3:0:0:
109,224,75048,1,4,0:3:0:0:
123,246,75133,1,4,0:3:0:0:
112,264,75217,1,8,0:1:0:0:
98,255,75302,2,0,L|103:203,1,52.25,8|8,0:1|0:1,0:0:0:0:
384,120,75472,6,0,P|424:184|321:283,1,199.5,14|0,0:1|0:0,0:0:0:0:
267,149,75811,2,0,P|326:109|390:123,1,133,8|2,0:0|0:0,0:0:0:0:
304,344,76150,1,10,0:1:0:0:
160,152,76319,1,10,0:1:0:0:
104,384,76489,1,10,0:0:0:0:
0,232,76658,5,2,0:0:0:0:
0,232,76743,1,2,0:0:0:0:
0,232,76828,2,0,P|-16:173|4:117,1,114,10|8,0:1|0:1,0:0:0:0:
200,280,77167,1,10,0:0:0:0:
112,80,77336,2,0,B|123:42|88:1|88:1|77:29,1,113.999996520996,10|0,0:1|0:0,0:0:0:0:
40,296,77675,2,0,B|28:333|63:374|63:374|74:346,1,113.999996520996,10|8,0:1|0:0,0:0:0:0:
256,192,78014,37,2,0:0:0:0:
256,192,78099,1,2,0:0:0:0:
256,192,78184,1,14,0:1:0:0:
432,344,78353,1,10,0:1:0:0:
256,192,78523,2,0,P|229:133|245:72,1,114,10|2,0:0|0:0,0:0:0:0:
247,76,78777,1,2,0:0:0:0:
257,66,78862,1,10,0:1:0:0:
400,192,79031,1,10,0:1:0:0:
184,288,79201,1,10,0:0:0:0:
416,368,79370,6,0,B|460:374|498:341|498:341|452:332,1,114,2|8,0:0|0:1,0:0:0:0:
322,135,79709,1,10,0:1:0:0:
322,135,79878,1,10,0:0:0:0:
288,272,80048,1,10,0:1:0:0:
144,64,80217,2,0,B|91:34|91:34|24:48,1,114,2|8,0:0|0:1,0:0:0:0:
322,135,80556,2,0,B|368:120|368:120|392:128|392:128|440:112,1,114,10|2,0:0|0:0,0:0:0:0:
440,105,80811,1,2,0:0:0:0:
450,94,80895,6,0,B|379:140|414:220|414:220|481:205,1,199.5,14|0,0:1|0:0,0:0:0:0:
450,94,81234,2,0,B|484:72|483:37|483:37|441:18|444:-25,1,133,8|2,0:0|0:0,0:0:0:0:
208,144,81573,1,10,0:1:0:0:
414,220,81743,1,10,0:1:0:0:
173,338,81912,1,10,0:0:0:0:
9,258,82082,37,2,0:0:0:0:
9,258,82167,1,2,0:0:0:0:
9,258,82251,2,0,B|-16:221|5:169|5:169|17:202,1,114,10|8,0:1|0:1,0:0:0:0:
173,338,82590,1,10,0:0:0:0:
5,169,82760,2,0,P|65:128|138:140,1,114,10|0,0:1|0:0,0:0:0:0:
414,220,83099,2,0,P|358:213|314:178,1,114,10|8,0:1|0:0,0:0:0:0:
256,0,83438,5,2,0:0:0:0:
256,0,83523,1,2,0:0:0:0:
256,0,83607,1,14,0:1:0:0:
192,224,83777,1,10,0:1:0:0:
464,346,83946,1,10,0:0:0:0:
400,122,84116,1,2,0:0:0:0:
198,337,84285,6,0,B|117:320|117:320|71:357|10:335,1,171,10|0,0:1|0:0,0:0:0:0:
135,233,84624,2,0,L|194:223,1,57,10|0,0:0|0:0,0:0:0:0:
392,368,84794,38,0,P|479:343|501:266,1,171,10|0,0:1|0:0,0:0:0:0:
453,138,85133,2,0,P|425:124|391:123,1,56.9999982604981,10|0,0:1|0:0,0:0:0:0:
144,192,85302,5,10,0:0:0:0:
320,256,85472,1,10,0:1:0:0:
128,72,85641,1,2,0:0:0:0:
392,168,85811,1,10,0:1:0:0:
259,120,85980,1,10,0:0:0:0:
128,72,86150,1,2,0:0:0:0:
56,152,86319,5,14,0:1:0:0:
214,44,86489,1,10,0:1:0:0:
316,182,86658,1,10,0:0:0:0:
316,182,86828,1,0,0:0:0:0:
178,132,86997,37,10,0:1:0:0:
458,234,87167,1,10,0:1:0:0:
274,300,87336,1,8,0:0:0:0:
368,272,87506,5,10,0:1:0:0:
368,272,87590,1,10,0:1:0:0:
368,272,87675,1,14,0:0:0:0:
368,272,87845,1,10,0:0:0:0:
300,208,88014,1,10,0:0:0:0:
280,296,88184,1,10,0:0:0:0:
216,136,88353,1,10,0:0:0:0:
176,312,88523,1,10,0:0:0:0:
128,24,88692,1,10,0:0:0:0:
47,376,88862,22,0,B|-30:302|26:214|26:214|76:228|84:258,1,256.5,14|0,0:1|0:0,0:0:0:0:
