osu file format v14

[General]
AudioFilename: audio.mp3
AudioLeadIn: 0
PreviewTime: 51404
Countdown: 0
SampleSet: Soft
StackLeniency: 0.7
Mode: 0
LetterboxInBreaks: 0
WidescreenStoryboard: 1

[Editor]
DistanceSpacing: 1
BeatDivisor: 4
GridSize: 4
TimelineZoom: 1

[Metadata]
Title:Saigo made II (TV Size)
TitleUnicode:最後までⅡ (TV Size)
Artist:Aqua Timez
ArtistUnicode:Aqua Timez
Creator:Roda Totsuki
Version:Normal
Source:銀魂゜
Tags:gintama゜ gintama 2015 white yaksha 白夜叉 male vocals times 坂田 銀時 sakata gintoki japanese anime ed ending 24 jrock j-rock rock sadaharu 2 two reisevia
BeatmapID:2760835
BeatmapSetID:1332480

[Difficulty]
HPDrainRate:3
CircleSize:3.4
OverallDifficulty:4
ApproachRate:5.5
SliderMultiplier:0.999999999999999
SliderTickRate:1

[Events]
//Background and Video events
0,0,"gintoki.jpg",0,0
Video,-160,"gintama.mp4"
//Break Periods
//Storyboard Layer 0 (Background)
//Storyboard Layer 1 (Fail)
//Storyboard Layer 2 (Pass)
//Storyboard Layer 3 (Foreground)
//Storyboard Layer 4 (Overlay)
//Storyboard Sound Samples

[TimingPoints]
-460,338.983050847458,4,2,1,60,1,0
23946,-100,4,2,1,70,0,0
45641,-100,4,2,1,75,0,0
48353,-100,4,2,1,80,0,0
48692,-100,4,2,1,60,0,0
49031,-100,4,2,1,70,0,0
49370,-100,4,2,1,80,0,0
51065,-90.9090909090909,4,2,1,85,0,1
72760,-100,4,2,1,80,0,0
75472,-90.9090909090909,4,2,1,85,0,1
88862,-125,4,2,1,70,0,0
89031,-125,4,2,1,60,0,0
89370,-125,4,2,1,45,0,0
89709,-125,4,2,1,30,0,0
90048,-125,4,2,1,15,0,0
90387,-125,4,2,1,5,0,0

[Colours]
Combo1 : 128,128,128
Combo2 : 192,192,192
Combo3 : 133,47,54
Combo4 : 92,108,147
Combo5 : 180,158,164

[HitObjects]
40,88,2251,70,0,P|80:64|150:74,1,99.9999999999999,12|8,0:1|0:0,0:0:0:0:
173,94,2760,1,8,0:1:0:0:
214,184,3099,1,8,0:1:0:0:
214,184,3268,2,0,L|206:243,1,50,10|0,0:0|0:0,0:0:0:0:
178,274,3607,2,0,P|131:293|69:275,2,99.9999999999999,2|10|10,0:0|0:0|0:1,0:0:0:0:
263,325,4624,1,10,0:0:0:0:
331,252,4963,6,0,L|325:197,2,50,10|0|10,0:1|0:0|0:0,0:0:0:0:
372,281,5472,2,0,P|437:290|489:221,1,150,8|8,0:1|0:0,0:0:0:0:
465,133,6319,2,0,L|360:123,1,99.9999999999999,8|10,0:1|0:0,0:0:0:0:
327,89,6828,1,8,0:1:0:0:
327,89,6997,2,0,L|320:32,2,50,8|8|10,0:1|0:1|0:0,0:0:0:0:
257,160,7675,54,0,P|216:137|148:146,1,99.9999999999999,8|8,0:1|0:0,0:0:0:0:
119,162,8184,1,8,0:1:0:0:
35,117,8523,1,8,0:1:0:0:
35,117,8692,2,0,L|29:53,1,50,10|8,0:0|0:1,0:0:0:0:
61,27,9031,2,0,L|179:38,1,99.9999999999999,2|10,0:0|0:0,0:0:0:0:
257,62,9709,2,0,L|375:51,1,99.9999999999999,10|10,0:1|0:0,0:0:0:0:
456,48,10387,6,0,L|466:-17,2,50,10|0|10,0:1|0:0|0:0,0:0:0:0:
483,90,10895,2,0,P|466:124|497:234,1,150,8|8,0:1|0:0,0:0:0:0:
437,312,11743,2,0,L|436:374,2,50,8|8|8,0:1|0:1|0:0,0:0:0:0:
400,277,12251,1,8,0:1:0:0:
400,277,12421,2,0,P|352:257|291:278,1,99.9999999999999,8|8,0:1|0:0,0:0:0:0:
244,345,13099,54,0,L|137:335,1,99.9999999999999,8|8,0:1|0:0,0:0:0:0:
97,354,13607,1,8,0:1:0:0:
26,282,13946,1,8,0:1:0:0:
26,282,14116,2,0,L|34:219,1,50,10|8,0:0|0:1,0:0:0:0:
72,201,14455,2,0,P|47:152|55:102,2,99.9999999999999,2|10|10,0:0|0:0|0:1,0:0:0:0:
170,221,15472,1,10,0:0:0:0:
259,176,15811,6,0,L|269:115,2,50,10|0|10,0:1|0:0|0:0,0:0:0:0:
301,203,16319,2,0,P|328:244|287:326,1,150,8|8,0:1|0:0,0:0:0:0:
197,370,17167,2,0,L|86:363,1,99.9999999999999,8|10,0:1|0:0,0:0:0:0:
68,329,17675,1,8,0:1:0:0:
68,329,17845,2,0,L|12:334,2,50,8|8|10,0:1|0:1|0:0,0:0:0:0:
117,241,18523,54,0,P|156:213|213:214,1,99.9999999999999,8|8,0:1|0:0,0:0:0:0:
249,237,19031,1,8,0:1:0:0:
318,309,19370,1,8,0:1:0:0:
318,309,19539,2,0,L|373:315,1,50,10|8,0:0|0:1,0:0:0:0:
414,331,19878,2,0,P|398:244|409:219,1,99.9999999999999,2|10,0:0|0:0,0:0:0:0:
452,150,20556,2,0,P|468:63|457:38,1,99.9999999999999,10|10,0:1|0:0,0:0:0:0:
365,49,21234,6,0,L|369:-3,2,50,10|2|10,0:1|0:0|0:0,0:0:0:0:
331,86,21743,2,0,P|296:108|220:90,1,99.9999999999999,10|10,0:1|0:1,0:0:0:0:
208,71,22251,1,10,0:0:0:0:
208,71,22421,2,0,L|97:84,1,99.9999999999999,8|10,0:1|0:1,0:0:0:0:
58,84,22929,1,10,0:0:0:0:
6,169,23268,2,0,L|12:223,1,50,8|8,0:1|0:1,0:0:0:0:
18,268,23607,1,12,0:0:0:0:
10,367,23946,54,0,B|56:368|93:332|93:332|153:358,1,150,12|8,0:1|0:1,0:0:0:0:
227,296,24794,1,8,0:1:0:0:
227,296,24963,2,0,L|217:232,1,50,10|8,0:0|0:1,0:0:0:0:
249,206,25302,2,0,P|281:185|342:192,2,99.9999999999999,2|10|10,0:0|0:0|0:1,0:0:0:0:
150,185,26319,1,10,0:0:0:0:
51,168,26658,6,0,P|37:128|58:65,1,99.9999999999999,10|10,0:1|0:0,0:0:0:0:
97,53,27167,2,0,L|203:46,1,99.9999999999999,8|8,0:1|0:1,0:0:0:0:
246,42,27675,1,10,0:0:0:0:
310,118,28014,2,0,L|303:181,2,50,10|8|10,0:1|0:1|0:0,0:0:0:0:
381,47,28692,2,0,P|431:43|478:76,1,99.9999999999999,10|10,0:1|0:0,0:0:0:0:
505,162,29370,54,0,B|495:217|495:217|513:252|513:252|503:307,1,150,10|8,0:1|0:1,0:0:0:0:
420,361,30217,1,8,0:1:0:0:
420,361,30387,2,0,L|359:356,1,50,10|8,0:0|0:1,0:0:0:0:
333,323,30726,2,0,P|296:306|223:326,1,99.9999999999999,2|10,0:0|0:0,0:0:0:0:
150,361,31404,2,0,P|99:369|48:335,1,99.9999999999999,10|10,0:1|0:0,0:0:0:0:
6,260,32082,5,10,0:1:0:0:
84,197,32421,2,0,L|141:206,1,50,10|10,0:0|0:1,0:0:0:0:
176,230,32760,1,2,0:0:0:0:
176,230,32929,2,0,B|222:212|222:212|279:227,1,99.9999999999999,10|10,0:1|0:1,0:0:0:0:
317,243,33438,1,8,0:1:0:0:
388,172,33777,2,0,L|378:69,1,99.9999999999999,8|8,0:0|0:1,0:0:0:0:
374,26,34285,1,10,0:1:0:0:
374,26,34455,1,8,0:0:0:0:
277,53,34794,54,0,B|228:14|174:30|174:30|147:78,1,150,14|8,0:1|0:1,0:0:0:0:
115,158,35641,1,8,0:1:0:0:
115,158,35811,2,0,L|121:222,1,50,10|8,0:0|0:1,0:0:0:0:
164,230,36150,2,0,P|211:243|273:221,2,99.9999999999999,2|10|10,0:0|0:0|0:1,0:0:0:0:
108,313,37167,1,10,0:0:0:0:
17,270,37506,6,0,P|-6:224|11:164,1,99.9999999999999,10|10,0:1|0:0,0:0:0:0:
29,135,38014,2,0,P|52:89|35:29,1,99.9999999999999,10|10,0:1|0:1,0:0:0:0:
81,8,38523,1,10,0:0:0:0:
179,25,38862,2,0,L|243:37,1,50,8|8,0:1|0:1,0:0:0:0:
277,41,39201,1,10,0:0:0:0:
342,115,39539,1,10,0:1:0:0:
292,202,39878,1,10,0:0:0:0:
220,272,40217,54,0,P|209:325|233:373,1,99.9999999999999,10|10,0:1|0:0,0:0:0:0:
275,377,40726,1,10,0:1:0:0:
374,369,41065,2,0,B|399:315|399:315|363:279|368:227,1,150,10|8,0:1|0:1,0:0:0:0:
405,143,41912,1,10,0:0:0:0:
405,143,42082,2,0,P|424:91|402:43,1,99.9999999999999,10|10,0:1|0:1,0:0:0:0:
364,28,42590,2,0,L|314:31,1,50,10|10,0:0|0:1,0:0:0:0:
275,63,42929,6,0,P|221:45|169:63,1,99.9999999999999,10|10,0:1|0:0,0:0:0:0:
132,39,43438,1,10,0:1:0:0:
69,116,43777,1,10,0:1:0:0:
126,197,44116,2,0,B|150:234|150:268|150:268|111:296|113:348,1,150,10|10,0:1|0:0,0:0:0:0:
199,380,44963,1,10,0:1:0:0:
287,329,45302,1,10,0:0:0:0:
287,329,45472,54,0,P|329:346|390:331,1,99.9999999999999,2|2,0:0|0:0,0:0:0:0:
429,350,45980,1,10,0:0:0:0:
429,350,46150,2,0,L|416:243,1,99.9999999999999,10|10,0:1|0:1,0:0:0:0:
361,167,46828,2,0,L|369:62,2,99.9999999999999,10|10|2,0:1|0:1|0:0,0:0:0:0:
272,214,47845,1,8,0:1:0:0:
385,311,48353,6,0,P|338:308|290:348,1,99.9999999999999,14|8,0:0|0:0,0:0:0:0:
255,366,48862,1,8,0:0:0:0:
255,366,49031,2,0,L|189:360,1,50,8|8,0:0|0:0,0:0:0:0:
158,379,49370,2,0,L|115:328,1,50,8|8,0:0|0:0,0:0:0:0:
98,298,49709,1,8,0:3:0:0:
30,224,50048,2,0,B|51:177|51:177|35:124,1,99.9999999999999,8|8,0:0|0:0,0:0:0:0:
3,36,50726,1,8,0:0:0:0:
3,36,50895,1,8,0:0:0:0:
3,36,51065,6,0,B|50:44|50:44|72:35|72:35|110:42,1,110.000003356934,14|8,0:1|0:0,0:0:0:0:
158,16,51573,1,2,0:0:0:0:
158,16,51743,2,0,P|199:37|268:25,1,110.000003356934,10|10,0:1|0:0,0:0:0:0:
367,1,52421,2,0,L|438:8,1,55.0000016784668,10|2,0:1|0:0,0:0:0:0:
467,37,52760,2,0,L|460:108,1,55.0000016784668,10|2,0:0|0:0,0:0:0:0:
413,119,53099,2,0,B|385:158|385:158|409:232,1,110.000003356934,10|10,0:1|0:0,0:0:0:0:
458,313,53777,6,0,L|514:307,2,55.0000016784668,10|2|10,0:1|0:0|0:0,0:0:0:0:
415,348,54285,1,2,0:0:0:0:
415,348,54455,2,0,P|368:321|301:334,1,110.000003356934,10|10,0:1|0:0,0:0:0:0:
267,356,54963,1,2,0:0:0:0:
267,356,55133,2,0,L|256:243,1,110.000003356934,10|10,0:1|0:0,0:0:0:0:
328,163,55811,1,8,0:1:0:0:
275,66,56150,1,8,0:0:0:0:
178,13,56489,6,0,P|123:5|72:46,1,110.000003356934,12|8,0:1|0:0,0:0:0:0:
54,84,56997,1,2,0:0:0:0:
54,84,57167,2,0,L|-12:77,2,55.0000016784668,10|10|10,0:1|0:1|0:0,0:0:0:0:
91,124,57675,2,0,L|98:235,1,110.000003356934,2|0,0:0|0:0,0:0:0:0:
79,286,58184,1,8,0:0:0:0:
152,367,58523,2,0,L|212:359,1,55.0000016784668,10|10,0:1|0:1,0:0:0:0:
261,352,58862,1,10,0:0:0:0:
370,341,59201,38,0,B|388:286|388:286|364:231,1,110.000003356934,14|10,0:0|0:1,0:0:0:0:
341,189,59709,2,0,B|323:134|323:134|347:79,1,110.000003356934,14|10,0:0|0:1,0:0:0:0:
371,38,60217,1,14,0:0:0:0:
511,134,60726,1,14,0:0:0:0:
511,134,60895,2,0,L|504:194,1,55.0000016784668,10|10,0:1|0:1,0:0:0:0:
465,227,61234,2,0,L|471:281,2,55.0000016784668,10|10|10,0:0|0:1|0:0,0:0:0:0:
368,172,61912,6,0,L|248:160,1,110.000003356934,12|8,0:0|0:0,0:0:0:0:
172,230,62590,1,8,0:0:0:0:
224,326,62929,1,10,0:0:0:0:
121,367,63268,2,0,P|70:370|20:333,1,110.000003356934,14|10,0:0|0:0,0:0:0:0:
2,229,63946,2,0,B|10:182|10:182|1:160|1:160|8:122,1,110.000003356934,10|10,0:0|0:0,0:0:0:0:
65,27,64624,5,12,0:0:0:0:
157,86,64963,1,8,0:0:0:0:
260,47,65302,1,8,0:0:0:0:
322,137,65641,1,10,0:0:0:0:
247,218,65980,2,0,B|270:272|270:272|257:333,1,110.000003356934,14|10,0:0|0:0,0:0:0:0:
358,370,66658,2,0,P|415:370|463:326,1,110.000003356934,10|10,0:0|0:0,0:0:0:0:
489,233,67336,38,0,L|482:121,1,110.000003356934,14|10,0:1|0:0,0:0:0:0:
439,87,67845,2,0,P|407:71|336:95,1,110.000003356934,2|10,0:0|0:1,0:0:0:0:
282,186,68523,1,2,0:0:0:0:
186,131,68862,1,2,0:0:0:0:
117,217,69201,2,0,L|134:332,1,110.000003356934,2|10,0:0|0:1,0:0:0:0:
175,360,69709,1,8,0:0:0:0:
175,360,69878,6,0,P|222:338|284:352,1,110.000003356934,2|2,0:0|0:0,0:0:0:0:
328,369,70387,2,0,B|384:348|384:348|432:379|486:362,1,165.0000050354,10|8,0:0|0:1,0:0:0:0:
443,260,71234,1,2,0:0:0:0:
443,260,71404,2,0,P|405:232|342:239,1,110.000003356934,10|10,0:1|0:0,0:0:0:0:
296,263,71912,2,0,P|242:270|197:240,1,110.000003356934,2|10,0:0|0:1,0:0:0:0:
168,193,72421,1,10,0:0:0:0:
79,146,72760,6,0,B|62:100|62:100|81:43,1,99.9999999999999,14|10,0:1|0:0,0:0:0:0:
166,4,73438,1,10,0:0:0:0:
240,70,73777,1,8,0:0:0:0:
318,8,74116,2,0,L|375:3,1,50,10|8,0:1|0:0,0:0:0:0:
397,44,74455,2,0,L|454:49,1,50,8|8,0:0|0:1,0:0:0:0:
488,75,74794,2,0,P|502:111|476:170,1,99.9999999999999,8|4,0:0|0:3,0:0:0:0:
439,194,75302,1,8,0:1:0:0:
439,194,75472,38,0,L|433:310,1,110.000003356934,14|8,0:1|0:0,0:0:0:0:
350,376,76150,2,0,L|287:369,1,55.0000016784668,10|10,0:1|0:1,0:0:0:0:
257,329,76489,2,0,L|194:336,1,55.0000016784668,10|2,0:0|0:0,0:0:0:0:
156,305,76828,2,0,P|132:254|151:196,1,110.000003356934,10|10,0:1|0:0,0:0:0:0:
184,165,77336,2,0,P|208:114|189:56,1,110.000003356934,10|10,0:1|0:1,0:0:0:0:
105,9,78014,1,2,0:0:0:0:
105,9,78184,6,0,L|42:17,1,55.0000016784668,14|10,0:1|0:1,0:0:0:0:
8,52,78523,1,10,0:0:0:0:
60,148,78862,2,0,L|56:214,1,55.0000016784668,10|10,0:1|0:1,0:0:0:0:
22,246,79201,1,10,0:0:0:0:
22,246,79370,2,0,P|51:279|38:356,1,110.000003356934,2|10,0:0|0:1,0:0:0:0:
91,376,79878,2,0,L|158:369,1,55.0000016784668,10|10,0:0|0:1,0:0:0:0:
200,363,80217,1,2,0:0:0:0:
278,285,80556,1,10,0:0:0:0:
381,322,80895,6,0,B|389:275|389:275|380:253|380:253|387:215,1,110.000003356934,12|8,0:1|0:0,0:0:0:0:
427,177,81404,1,2,0:0:0:0:
427,177,81573,2,0,B|445:125|445:125|423:65,1,110.000003356934,10|10,0:1|0:0,0:0:0:0:
318,47,82251,2,0,P|271:72|212:63,1,110.000003356934,10|10,0:1|0:0,0:0:0:0:
165,43,82760,2,0,P|118:18|59:27,1,110.000003356934,10|10,0:1|0:1,0:0:0:0:
4,179,83607,38,0,L|-3:247,2,55.0000016784668,14|10|10,0:1|0:1|0:0,0:0:0:0:
44,141,84116,1,2,0:0:0:0:
44,141,84285,2,0,P|80:127|145:162,1,110.000003356934,10|10,0:1|0:0,0:0:0:0:
177,198,84794,2,0,P|213:212|278:177,1,110.000003356934,10|10,0:1|0:1,0:0:0:0:
312,142,85302,1,10,0:0:0:0:
378,53,85641,2,0,L|371:-4,2,55.0000016784668,2|10|10,0:0|0:1|0:0,0:0:0:0:
430,84,86150,1,2,0:0:0:0:
430,84,86319,6,0,L|420:200,1,110.000003356934,14|10,0:1|0:0,0:0:0:0:
411,307,86997,1,10,0:1:0:0:
411,307,87167,1,10,0:1:0:0:
309,343,87506,1,10,0:1:0:0:
309,343,87675,2,0,L|254:329,1,55.0000016784668,14|10,0:0|0:0,0:0:0:0:
217,289,88014,2,0,L|162:303,1,55.0000016784668,10|10,0:0|0:0,0:0:0:0:
111,319,88353,1,10,0:0:0:0:
26,248,88692,1,10,0:0:0:0:
51,204,88862,22,0,B|124:191|163:129|163:129|289:186|260:77|371:110,1,360,14|0,0:1|0:0,0:0:0:0:
