osu file format v14

[General]
AudioFilename: audio.mp3
AudioLeadIn: 0
PreviewTime:51404
Countdown: 0
SampleSet: Soft
StackLeniency: 0.7
Mode: 0
LetterboxInBreaks: 0
WidescreenStoryboard: 1

[Editor]
DistanceSpacing: 1.5
BeatDivisor: 4
GridSize: 4
TimelineZoom: 1.6

[Metadata]
Title:Saigo made II (TV Size)
TitleUnicode:最後までⅡ (TV Size)
Artist:Aqua Timez
ArtistUnicode:Aqua Timez
Creator:Roda Totsuki
Version:Hard
Source:銀魂゜
Tags:gintama゜ gintama 2015 white yaksha 白夜叉 male vocals times 坂田 銀時 sakata gintoki japanese anime ed ending 24 jrock j-rock rock sadaharu 2 two reisevia
BeatmapID:2762079
BeatmapSetID:1332480

[Difficulty]
HPDrainRate:4.5
CircleSize:3.8
OverallDifficulty:7
ApproachRate:8
SliderMultiplier:1.5
SliderTickRate:1

[Events]
//Background and Video events
0,0,"gintoki.jpg",0,0
Video,-160,"gintama.mp4"
//Break Periods
//Storyboard Layer 0 (Background)
//Storyboard Layer 1 (Fail)
//Storyboard Layer 2 (Pass)
//Storyboard Layer 3 (Foreground)
//Storyboard Layer 4 (Overlay)
//Storyboard Sound Samples

[TimingPoints]
-460,338.983050847458,4,2,1,60,1,0
2251,-125,4,2,1,60,0,0
23946,-111.111111111111,4,2,1,70,0,0
45641,-111.111111111111,4,2,1,75,0,0
48353,-100,4,2,1,80,0,0
48692,-100,4,2,1,60,0,0
49031,-100,4,2,1,70,0,0
49370,-100,4,2,1,80,0,0
51065,-90.9090909090909,4,2,1,85,0,1
55387,-90.9090909090909,4,2,1,5,0,1
55472,-90.9090909090909,4,2,1,85,0,1
59116,-90.9090909090909,4,2,1,5,0,1
59201,-90.9090909090909,4,2,1,85,0,1
61234,-100,4,2,1,85,0,1
61573,-111.111111111111,4,2,1,85,0,1
61912,-90.9090909090909,4,2,1,85,0,1
68777,-90.9090909090909,4,2,1,5,0,1
68862,-90.9090909090909,4,2,1,85,0,1
72760,-90.9090909090909,4,2,1,80,0,0
75472,-90.9090909090909,4,2,1,85,0,1
79624,-90.9090909090909,4,2,1,5,0,1
79709,-90.9090909090909,4,2,1,85,0,1
88862,-200,4,2,1,70,0,0
89031,-200,4,2,1,60,0,0
89370,-200,4,2,1,45,0,0
89709,-200,4,2,1,30,0,0
90048,-200,4,2,1,15,0,0
90387,-200,4,2,1,5,0,0

[Colours]
Combo1 : 128,128,128
Combo2 : 192,192,192
Combo3 : 133,47,54
Combo4 : 92,108,147
Combo5 : 180,158,164

[HitObjects]
56,84,1573,69,8,3:0:0:0:
90,175,1743,2,0,L|81:240,5,37.5,8|8|8|8|8|8,0:0|0:0|0:0|0:0|0:0|0:0,0:0:0:0:
72,249,2251,6,0,B|107:233|136:244|136:244|154:278|198:278,1,120,12|8,0:1|0:0,0:0:0:0:
232,332,2760,2,0,P|272:307|355:325,1,120,8|8,0:1|0:1,0:0:0:0:
392,374,3268,2,0,P|416:341|419:302,1,60,10|0,0:0|0:0,0:0:0:0:
473,266,3607,54,0,L|464:195,1,60,2|8,0:0|0:1,0:0:0:0:
400,162,3946,2,0,P|413:130|407:97,1,60,10|8,0:0|0:1,0:0:0:0:
393,69,4201,1,8,0:0:0:0:
393,69,4285,2,0,L|323:65,1,60,10|8,0:1|0:1,0:0:0:0:
278,9,4624,2,0,P|254:42|264:108,1,90,10|8,0:0|0:0,0:0:0:0:
240,126,4963,6,0,L|257:245,1,120,10|10,0:1|0:0,0:0:0:0:
310,302,5472,2,0,B|285:275|249:275|249:275|188:309,1,120,8|8,0:1|0:1,0:0:0:0:
160,364,5980,2,0,P|117:374|86:362,1,60,10|8,0:0|0:1,0:0:0:0:
41,321,6319,54,0,L|53:190,1,120,8|10,0:1|0:0,0:0:0:0:
32,125,6828,1,8,0:1:0:0:
32,125,6912,1,8,0:0:0:0:
32,125,6997,2,0,L|18:74,2,30,8|8|8,0:1|0:0|0:1,0:0:0:0:
0,28,7336,1,10,0:0:0:0:
148,75,7675,6,0,P|191:91|268:48,1,120,8|8,0:1|0:0,0:0:0:0:
308,4,8184,2,0,B|291:65|291:65|294:99|312:116,1,120,8|8,0:1|0:1,0:0:0:0:
366,173,8692,2,0,L|373:245,1,60,10|8,0:0|0:1,0:0:0:0:
436,277,9031,54,0,P|391:309|365:309,1,60,2|8,0:0|0:1,0:0:0:0:
326,357,9370,2,0,L|261:348,1,60,10|8,0:0|0:1,0:0:0:0:
231,345,9624,1,8,0:0:0:0:
231,345,9709,2,0,L|166:336,1,60,10|8,0:1|0:1,0:0:0:0:
102,300,10048,2,0,P|84:257|105:204,1,90,10|8,0:0|0:0,0:0:0:0:
124,191,10387,6,0,B|140:151|140:151|105:117|115:64,1,120,10|10,0:1|0:0,0:0:0:0:
60,23,10895,2,0,L|196:41,1,120,8|8,0:1|0:1,0:0:0:0:
250,71,11404,2,0,P|258:106|247:146,1,60,8|8,0:0|0:1,0:0:0:0:
295,196,11743,54,0,P|261:172|175:191,1,120,8|8,0:1|0:0,0:0:0:0:
120,222,12251,1,8,0:1:0:0:
120,222,12336,1,8,0:0:0:0:
120,222,12421,2,0,L|125:276,2,30,8|8|8,0:1|0:0|0:1,0:0:0:0:
136,328,12760,1,8,0:0:0:0:
370,364,13099,6,0,P|318:340|307:272,1,120,8|8,0:1|0:0,0:0:0:0:
339,213,13607,2,0,B|331:166|331:166|314:144|314:144|306:99,1,120,8|8,0:1|0:1,0:0:0:0:
338,27,14116,2,0,P|369:22|406:40,1,60,10|8,0:0|0:1,0:0:0:0:
462,71,14455,54,0,L|452:138,1,60,2|8,0:0|0:1,0:0:0:0:
411,196,14794,2,0,L|421:263,1,60,10|8,0:0|0:1,0:0:0:0:
426,293,15048,1,8,0:0:0:0:
426,293,15133,2,0,P|382:318|352:313,1,60,10|8,0:1|0:1,0:0:0:0:
304,282,15472,2,0,P|256:267|205:295,1,90,10|8,0:0|0:0,0:0:0:0:
189,303,15811,6,0,B|220:268|220:268|192:184,1,120,10|10,0:1|0:0,0:0:0:0:
138,146,16319,2,0,P|95:147|54:213,1,120,8|8,0:1|0:1,0:0:0:0:
14,274,16828,2,0,P|29:307|37:340,1,60,10|8,0:0|0:1,0:0:0:0:
108,357,17167,54,0,B|178:363|157:336|228:341,1,120,8|10,0:1|0:0,0:0:0:0:
288,294,17675,1,8,0:1:0:0:
288,294,17760,1,8,0:0:0:0:
288,294,17845,2,0,L|281:246,2,30,8|8|8,0:1|0:0|0:1,0:0:0:0:
268,188,18184,1,10,0:0:0:0:
337,48,18523,6,0,B|368:20|408:24|408:24|451:72,1,120,8|8,0:1|0:0,0:0:0:0:
502,14,19031,2,0,P|478:71|511:128,1,120,8|8,0:1|0:1,0:0:0:0:
456,184,19539,2,0,L|391:179,1,60,10|8,0:0|0:1,0:0:0:0:
327,216,19878,54,0,P|297:231|260:227,1,60,2|8,0:0|0:1,0:0:0:0:
255,307,20217,2,0,P|223:296|199:267,1,60,10|8,0:0|0:1,0:0:0:0:
188,247,20472,1,8,0:0:0:0:
188,247,20556,2,0,L|193:178,1,60,10|8,0:1|0:1,0:0:0:0:
146,123,20895,2,0,P|115:109|52:132,1,90,10|8,0:0|0:0,0:0:0:0:
47,157,21234,6,0,B|74:229|74:229|51:277,1,120,10|10,0:1|0:0,0:0:0:0:
17,337,21743,2,0,P|44:310|132:304,1,120,10|10,0:1|0:1,0:0:0:0:
183,356,22251,1,10,0:0:0:0:
183,356,22421,2,0,L|306:343,1,120,8|10,0:1|0:1,0:0:0:0:
371,306,22929,2,0,P|361:276|371:232,1,60,10|8,0:0|0:1,0:0:0:0:
373,238,23184,1,8,0:0:0:0:
383,228,23268,1,8,0:1:0:0:
451,190,23438,2,0,L|500:193,2,30,8|8|12,0:1|0:1|0:0,0:0:0:0:
492,0,23946,54,0,B|460:9|441:31|441:31|409:1|374:-1,1,134.999995880127,12|8,0:1|0:0,0:0:0:0:
334,78,24455,2,0,P|376:74|362:151,1,134.999995880127,8|8,0:1|0:1,0:0:0:0:
301,193,24963,2,0,P|256:181|224:183,1,67.4999979400635,10|8,0:0|0:1,0:0:0:0:
195,201,25217,1,8,0:0:0:0:
195,201,25302,6,0,L|189:278,1,67.4999979400635,2|8,0:0|0:1,0:0:0:0:
114,313,25641,2,0,L|108:245,1,67.4999979400635,10|8,0:0|0:1,0:0:0:0:
36,189,25980,1,10,0:1:0:0:
28,101,26150,1,8,0:1:0:0:
78,29,26319,2,0,P|127:33|167:63,1,101.249996910095,10|8,0:0|0:0,0:0:0:0:
198,94,26658,54,0,B|281:74|246:130|336:111,1,134.999995880127,10|10,0:1|0:0,0:0:0:0:
410,139,27167,2,0,P|341:142|310:207,1,134.999995880127,8|8,0:1|0:1,0:0:0:0:
336,277,27675,2,0,P|368:292|407:288,1,67.4999979400635,10|8,0:0|0:1,0:0:0:0:
446,285,27929,1,8,0:0:0:0:
446,285,28014,6,0,L|456:210,1,67.4999979400635,10|8,0:1|0:1,0:0:0:0:
410,139,28353,1,10,0:0:0:0:
479,84,28523,2,0,L|524:89,2,33.7499989700318,8|8|10,0:1|0:0|0:1,0:0:0:0:
417,20,28862,1,8,0:1:0:0:
337,56,29031,2,0,B|271:38|271:38|224:64,1,101.249996910095,10|8,0:0|0:0,0:0:0:0:
204,76,29370,54,0,P|148:61|137:122,1,134.999995880127,10|8,0:1|0:0,0:0:0:0:
177,200,29878,2,0,B|123:217|88:190|88:190|64:190|40:207,1,134.999995880127,8|8,0:1|0:1,0:0:0:0:
6,279,30387,2,0,P|-1:323|13:352,1,67.4999979400635,10|8,0:0|0:1,0:0:0:0:
41,370,30641,1,8,0:0:0:0:
41,370,30726,6,0,L|118:364,1,67.4999979400635,2|8,0:0|0:1,0:0:0:0:
194,382,31065,2,0,P|232:382|263:357,1,67.4999979400635,10|8,0:0|0:1,0:0:0:0:
294,287,31404,1,10,0:1:0:0:
267,202,31573,1,8,0:1:0:0:
188,161,31743,2,0,B|155:154|138:125|138:125|165:85,1,101.249996910095,10|8,0:0|0:0,0:0:0:0:
188,61,32082,54,0,P|240:89|308:58,1,134.999995880127,10|10,0:1|0:0,0:0:0:0:
392,78,32590,2,0,B|372:124|332:146|332:146|346:162|351:185,1,134.999995880127,10|10,0:1|0:1,0:0:0:0:
414,245,33099,2,0,P|397:280|400:311,1,67.4999979400635,8|10,0:0|0:1,0:0:0:0:
413,354,33353,1,8,0:0:0:0:
413,354,33438,6,0,L|341:359,1,67.4999979400635,8|10,0:1|0:1,0:0:0:0:
266,319,33777,1,8,0:0:0:0:
189,361,33946,1,10,0:1:0:0:
125,299,34116,2,0,P|114:266|130:218,1,67.4999979400635,8|10,0:1|0:1,0:0:0:0:
221,127,34455,2,0,P|201:154|171:168,1,67.4999979400635,8|8,0:0|0:1,0:0:0:0:
58,158,34794,54,0,P|110:132|178:185,1,134.999995880127,14|8,0:1|0:0,0:0:0:0:
231,231,35302,2,0,B|253:217|267:200|267:200|311:222|351:201,1,134.999995880127,8|8,0:1|0:1,0:0:0:0:
404,131,35811,2,0,P|447:118|484:129,1,67.4999979400635,10|8,0:0|0:1,0:0:0:0:
507,152,36065,1,8,0:0:0:0:
507,152,36150,6,0,L|504:224,1,67.4999979400635,2|8,0:0|0:1,0:0:0:0:
404,131,36489,2,0,L|401:63,1,67.4999979400635,10|8,0:0|0:1,0:0:0:0:
322,23,36828,1,10,0:1:0:0:
254,79,36997,1,8,0:1:0:0:
173,44,37167,2,0,P|126:22|60:42,1,101.249996910095,10|8,0:0|0:0,0:0:0:0:
49,62,37506,54,0,B|77:114|51:164|51:164|34:153|36:140,1,134.999995880127,10|10,0:1|0:0,0:0:0:0:
130,161,38014,2,0,B|123:208|83:230|83:230|98:255|101:287,1,134.999995880127,10|10,0:1|0:1,0:0:0:0:
60,354,38523,2,0,P|105:326|172:348,1,101.249996910095,10|8,0:0|0:0,0:0:0:0:
184,360,38862,6,0,L|264:352,1,67.4999979400635,8|8,0:1|0:1,0:0:0:0:
276,268,39201,2,0,L|208:274,1,67.4999979400635,10|8,0:0|0:1,0:0:0:0:
232,190,39539,2,0,L|312:182,1,67.4999979400635,10|8,0:1|0:1,0:0:0:0:
380,215,39878,2,0,P|396:262|381:309,1,101.249996910095,10|8,0:0|0:0,0:0:0:0:
361,349,40217,54,0,B|382:310|382:310|429:345|492:322,1,134.999995880127,10|10,0:1|0:0,0:0:0:0:
509,250,40726,2,0,B|518:212|518:212|509:183,1,67.4999979400635,10|0,0:1|0:0,0:0:0:0:
379,149,41065,2,0,B|370:176|370:176|379:214,1,67.4999979400635,10|10,0:1|0:0,0:0:0:0:
467,97,41404,5,8,0:1:0:0:
467,97,41489,1,8,0:0:0:0:
467,97,41573,2,0,P|429:62|331:63,1,134.999995880127,8|10,0:1|0:0,0:0:0:0:
283,114,42082,2,0,P|243:136|201:127,1,67.4999979400635,10|8,0:1|0:1,0:0:0:0:
139,106,42421,1,10,0:1:0:0:
67,155,42590,2,0,L|59:228,1,67.4999979400635,10|10,0:0|0:1,0:0:0:0:
11,295,42929,54,0,P|53:257|149:268,1,134.999995880127,10|10,0:1|0:0,0:0:0:0:
196,312,43438,2,0,P|202:355|188:381,1,67.4999979400635,10|0,0:1|0:0,0:0:0:0:
128,255,43777,2,0,P|142:224|170:207,1,67.4999979400635,10|10,0:1|0:0,0:0:0:0:
256,227,44116,6,0,B|339:247|304:191|394:210,1,134.999995880127,10|8,0:1|0:1,0:0:0:0:
460,163,44624,2,0,L|472:78,1,67.4999979400635,10|8,0:0|0:1,0:0:0:0:
414,27,44963,2,0,L|347:36,1,67.4999979400635,10|8,0:1|0:1,0:0:0:0:
281,94,45302,1,10,0:0:0:0:
319,173,45472,54,0,B|291:220|291:220|324:307,1,134.999995880127,2|2,0:0|0:0,0:0:0:0:
390,347,45980,2,0,B|352:319|352:319|313:326|313:326|244:312,1,134.999995880127,10|0,0:0|0:0,0:0:0:0:
182,346,46489,1,10,0:1:0:0:
105,304,46658,1,8,0:0:0:0:
22,333,46828,6,0,B|17:309|17:309|22:292|22:292|18:266,1,67.4999979400635,10|8,0:1|0:1,0:0:0:0:
93,221,47167,2,0,B|97:197|97:197|92:180|92:180|96:154,1,67.4999979400635,10|8,0:1|0:0,0:0:0:0:
29,98,47506,2,0,P|69:115|152:62,1,134.999995880127,2|8,0:0|0:1,0:0:0:0:
191,1,48014,1,10,0:0:0:0:
377,57,48353,53,14,0:0:0:0:
444,240,48692,2,0,L|456:316,1,75,8|8,0:0|0:0,0:0:0:0:
352,356,49031,2,0,L|363:281,1,75,8|8,0:0|0:0,0:0:0:0:
293,213,49370,1,8,0:0:0:0:
293,213,49539,1,8,0:0:0:0:
205,257,49709,5,8,0:3:0:0:
123,203,49878,1,8,0:0:0:0:
123,203,49963,1,8,0:0:0:0:
123,203,50048,2,0,L|132:153,3,37.5,8|8|8|8,0:0|0:0|0:0|0:0,0:0:0:0:
101,125,50387,2,0,L|142:96,3,37.5,8|8|8|8,0:0|0:0|0:0|0:0,0:0:0:0:
150,58,50726,2,0,L|200:67,3,37.5,8|8|8|8,0:0|0:0|0:0|0:0,0:0:0:0:
227,29,51065,6,0,P|270:14|368:77,1,165.000005035401,14|8,0:1|0:0,0:0:0:0:
270,120,51573,1,2,0:0:0:0:
366,167,51743,2,0,P|411:155|443:126,1,82.5000025177003,10|8,0:1|0:1,0:0:0:0:
271,207,52082,2,0,P|226:195|194:166,1,82.5000025177003,10|0,0:0|0:0,0:0:0:0:
135,85,52421,5,10,0:1:0:0:
93,185,52590,1,2,0:0:0:0:
22,111,52760,1,10,0:0:0:0:
22,111,52929,1,2,0:0:0:0:
93,185,53099,2,0,B|124:228|124:228|120:284|68:324,1,165.000005035401,10|10,0:1|0:0,0:0:0:0:
152,229,53607,6,0,P|200:210|244:223,1,82.5000025177003,2|10,0:0|0:1,0:0:0:0:
336,277,53946,1,2,0:0:0:0:
208,312,54116,1,10,0:0:0:0:
208,312,54285,1,2,0:0:0:0:
319,297,54455,2,0,L|306:395,1,82.5000025177003,10|10,0:1|0:1,0:0:0:0:
441,256,54794,2,0,L|451:337,1,82.5000025177003,10|2,0:0|0:0,0:0:0:0:
340,204,55133,38,0,B|300:174|305:131|305:131|340:104,1,123.75000377655,10|0,0:1|0:0,0:0:0:0:
335,107,55472,2,0,L|422:113,1,82.5000025177003,10|0,0:0|0:0,0:0:0:0:
369,16,55811,2,0,L|286:9,1,82.5000025177003,8|8,0:1|0:1,0:0:0:0:
210,85,56150,1,8,0:0:0:0:
117,31,56319,5,2,0:0:0:0:
117,31,56404,1,2,0:0:0:0:
117,31,56489,2,0,P|61:22|17:118,1,165.000005035401,14|8,0:1|0:0,0:0:0:0:
58,202,56997,1,2,0:0:0:0:
152,150,57167,1,10,0:1:0:0:
226,233,57336,1,10,0:1:0:0:
226,233,57506,1,10,0:0:0:0:
182,330,57675,6,0,B|117:366|62:323|62:323|80:301|112:313,1,165.000005035401,2|0,0:0|0:0,0:0:0:0:
182,330,58184,2,0,P|211:345|269:341,1,82.5000025177003,8|2,0:0|0:0,0:0:0:0:
340,273,58523,1,10,0:1:0:0:
425,336,58692,1,10,0:1:0:0:
507,266,58862,2,0,P|514:204|490:146,1,123.75000377655,10|0,0:0|0:0,0:0:0:0:
491,148,59201,38,0,B|446:141|446:141|390:168,2,82.5000025177003,14|8|10,0:0|0:1|0:1,0:0:0:0:
368,72,59709,2,0,B|330:99|330:99|310:157,2,82.5000025177003,14|8|10,0:0|0:1|0:1,0:0:0:0:
224,108,60217,2,0,B|216:153|216:153|243:209,1,82.5000025177003,14|10,0:0|0:1,0:0:0:0:
242,196,60472,1,2,0:0:0:0:
252,206,60556,6,0,L|252:294,1,82.5000025177003,10|14,0:1|0:0,0:0:0:0:
162,348,60895,1,10,0:1:0:0:
67,296,61065,1,10,0:1:0:0:
95,192,61234,2,0,P|86:145|71:110,1,75,10|10,0:0|0:1,0:0:0:0:
192,84,61573,2,0,P|179:119|172:155,1,67.4999979400635,10|10,0:0|0:1,0:0:0:0:
242,196,61912,5,12,0:0:0:0:
433,99,62251,1,8,0:0:0:0:
505,300,62590,1,8,0:0:0:0:
431,378,62760,1,8,0:1:0:0:
343,315,62929,2,0,P|344:265|363:231,1,82.5000025177003,10|8,0:0|0:1,0:0:0:0:
505,300,63268,37,14,0:0:0:0:
307,383,63607,1,10,0:0:0:0:
222,316,63777,1,8,0:1:0:0:
124,360,63946,2,0,L|35:371,1,82.5000025177003,10|8,0:0|0:1,0:0:0:0:
148,248,64285,2,0,L|59:237,1,82.5000025177003,10|8,0:0|0:1,0:0:0:0:
27,137,64624,5,12,0:0:0:0:
228,210,64963,1,8,0:0:0:0:
411,99,65302,1,8,0:0:0:0:
341,17,65472,1,8,0:1:0:0:
232,36,65641,2,0,B|217:76|217:76|235:129,1,82.5000025177003,10|8,0:0|0:1,0:0:0:0:
411,99,65980,5,14,0:0:0:0:
304,285,66319,1,10,0:0:0:0:
201,252,66489,1,8,0:1:0:0:
304,285,66658,2,0,P|344:281|381:299,1,82.5000025177003,10|8,0:0|0:1,0:0:0:0:
224,348,66997,2,0,P|187:365|146:362,1,82.5000025177003,10|8,0:0|0:1,0:0:0:0:
0,384,67336,38,0,P|41:368|29:250,1,165.000005035401,14|10,0:1|0:0,0:0:0:0:
55,179,67845,2,0,L|43:273,1,82.5000025177003,2|8,0:0|0:1,0:0:0:0:
134,201,68184,2,0,L|144:119,1,82.5000025177003,10|8,0:1|0:0,0:0:0:0:
158,15,68523,6,0,P|205:57|283:42,1,123.75000377655,2|0,0:0|0:0,0:0:0:0:
263,55,68862,2,0,P|305:24|349:25,1,82.5000025177003,2|8,0:0|0:0,0:0:0:0:
349,128,69201,2,0,P|400:136|431:168,1,82.5000025177003,2|8,0:0|0:1,0:0:0:0:
359,241,69539,2,0,L|378:333,1,82.5000025177003,10|8,0:1|0:0,0:0:0:0:
277,366,69878,6,0,B|181:388|221:324|118:346,1,165.000005035401,2|2,0:0|0:0,0:0:0:0:
25,292,70387,2,0,B|-23:238|8:182|8:182|63:200,1,165.000005035401,10|8,0:0|0:1,0:0:0:0:
153,229,70895,1,8,0:1:0:0:
219,144,71065,2,0,P|232:85|220:46,1,82.5000025177003,8|2,0:0|0:0,0:0:0:0:
65,52,71404,38,0,B|128:63|128:63|166:53|166:53|233:65,1,165.000005035401,10|10,0:1|0:0,0:0:0:0:
343,64,71912,2,0,P|263:77|218:143,1,165.000005035401,2|10,0:0|0:1,0:0:0:0:
260,243,72421,2,0,P|308:247|346:226,1,82.5000025177003,10|8,0:0|0:1,0:0:0:0:
172,216,72760,5,14,0:1:0:0:
84,327,73099,2,0,B|48:307|48:307|-12:311,1,82.5000025177003,10|8,0:0|0:1,0:0:0:0:
88,240,73438,2,0,B|76:200|76:200|31:160,1,82.5000025177003,10|10,0:0|0:1,0:0:0:0:
172,216,73777,2,0,B|202:147|202:147|171:48,1,165.000005035401,8|10,0:0|0:1,0:0:0:0:
266,4,74285,5,8,0:0:0:0:
266,4,74370,1,8,0:0:0:0:
266,4,74455,2,0,P|308:-2|351:30,1,82.5000025177003,8|8,0:0|0:3,0:0:0:0:
432,52,74794,1,8,0:0:0:0:
389,138,74963,1,8,0:3:0:0:
389,138,75048,1,8,0:3:0:0:
389,138,75133,2,0,L|394:190,3,41.2500012588501,4|8|8|8,0:3|0:1|0:1|0:1,0:0:0:0:
431,223,75472,38,0,P|388:191|287:258,1,165.000005035401,14|8,0:1|0:0,0:0:0:0:
233,319,75980,1,2,0:0:0:0:
138,266,76150,1,10,0:1:0:0:
48,321,76319,1,10,0:1:0:0:
48,321,76489,2,0,P|33:279|42:220,1,82.5000025177003,10|2,0:0|0:0,0:0:0:0:
51,135,76828,6,0,B|82:162|115:161|115:161|162:126|220:130,1,165.000005035401,10|10,0:1|0:0,0:0:0:0:
247,227,77336,2,0,P|192:204|152:284,1,165.000005035401,10|10,0:1|0:1,0:0:0:0:
225,365,77845,2,0,L|317:358,1,82.5000025177003,8|2,0:0|0:0,0:0:0:0:
327,368,78099,1,2,0:0:0:0:
347,378,78184,6,0,P|359:344|345:290,1,82.5000025177003,14|10,0:1|0:1,0:0:0:0:
247,227,78523,2,0,L|259:32,1,165.000005035401,10|10,0:0|0:1,0:0:0:0:
356,16,79031,1,10,0:1:0:0:
356,16,79201,1,10,0:0:0:0:
451,63,79370,38,0,B|415:106|424:156|424:156|471:193,1,123.75000377655,2|0,0:0|0:0,0:0:0:0:
442,170,79709,2,0,L|452:269,2,82.5000025177003,10|10|10,0:1|0:0|0:1,0:0:0:0:
335,153,80217,2,0,B|284:162|256:208|256:208|272:164|263:131,1,165.000005035401,2|10,0:0|0:0,0:0:0:0:
30,107,80895,6,0,B|78:141|77:181|77:181|36:210|44:265,1,165.000005035401,12|8,0:1|0:0,0:0:0:0:
98,331,81404,1,2,0:0:0:0:
98,331,81573,1,10,0:1:0:0:
195,376,81743,1,10,0:1:0:0:
286,321,81912,2,0,B|321:314|321:314|343:323|343:323|373:317,1,82.5000025177003,10|2,0:0|0:0,0:0:0:0:
504,371,82251,6,0,P|451:333|460:222,1,165.000005035401,10|10,0:1|0:0,0:0:0:0:
484,136,82760,2,0,P|451:159|379:149,1,82.5000025177003,10|0,0:1|0:0,0:0:0:0:
323,98,83099,2,0,L|126:69,1,165.000005035401,10|0,0:1|0:0,0:0:0:0:
70,131,83607,37,14,0:1:0:0:
70,131,83777,1,10,0:1:0:0:
140,211,83946,2,0,P|154:258|137:309,1,82.5000025177003,10|2,0:0|0:0,0:0:0:0:
19,351,84285,6,0,P|44:305|163:299,1,165.000005035401,10|10,0:1|0:0,0:0:0:0:
231,357,84794,2,0,B|278:388|332:363|332:363|341:323|386:305,1,165.000005035401,10|10,0:1|0:1,0:0:0:0:
512,383,85302,2,0,L|493:276,1,82.5000025177003,10|10,0:0|0:1,0:0:0:0:
419,235,85641,1,2,0:0:0:0:
419,235,85811,2,0,L|403:323,1,82.5000025177003,10|10,0:1|0:0,0:0:0:0:
308,266,86150,1,2,0:0:0:0:
231,357,86319,6,0,P|177:369|116:266,1,165.000005035401,14|10,0:1|0:0,0:0:0:0:
74,197,86828,1,0,0:0:0:0:
74,197,86997,2,0,B|36:169|36:169|-24:178,2,82.5000025177003,10|10|8,0:1|0:1|0:0,0:0:0:0:
172,145,87506,37,10,0:1:0:0:
172,145,87590,1,8,0:1:0:0:
172,145,87675,1,14,0:0:0:0:
270,220,87845,1,10,0:0:0:0:
388,184,88014,2,0,L|401:83,1,82.5000025177003,10|10,0:0|0:0,0:0:0:0:
270,220,88353,2,0,L|280:301,1,82.5000025177003,10|10,0:0|0:0,0:0:0:0:
424,328,88692,1,10,0:0:0:0:
424,328,88862,38,0,B|492:312|457:221|396:241|344:272|344:276|328:348|328:352|272:368|220:347,1,337.5,14|0,0:1|0:0,0:0:0:0:
