osu file format v14

[General]
AudioFilename: brave final.mp3
AudioLeadIn: 0
PreviewTime: 80401
Countdown: 0
SampleSet: Soft
StackLeniency: 0.7
Mode: 0
LetterboxInBreaks: 0
WidescreenStoryboard: 0

[Editor]
DistanceSpacing: 1.4
BeatDivisor: 4
GridSize: 8
TimelineZoom: 2.7

[Metadata]
Title:Ketsui no Asa ni
TitleUnicode:決意の朝に
Artist:Aqua Timez
ArtistUnicode:Aqua Timez
Creator:Monstrata
Version:Courage
Source:ブレイブ・ストーリー
Tags:brave story wataru mitani mitsuru ashikawa aqua times anime movie film 2006 adventure 1/3
BeatmapID:1474246
BeatmapSetID:695867

[Difficulty]
HPDrainRate:5
CircleSize:4
OverallDifficulty:7.5
ApproachRate:9
SliderMultiplier:1.7
SliderTickRate:1

[Events]
//Background and Video events
0,0,"brave_story_345_1680.jpg",0,0
//Break Periods
//Storyboard Layer 0 (Background)
//Storyboard Layer 1 (Fail)
//Storyboard Layer 2 (Pass)
//Storyboard Layer 3 (Foreground)
//Storyboard Sound Samples

[TimingPoints]
572,356.718192627824,4,2,2,45,1,0
572,-200,4,2,2,45,0,0
11958,359.582883854728,4,2,2,45,1,0
11958,-200,4,2,2,45,0,0
13396,364.586498146685,4,2,2,45,1,0
13396,-200,4,2,2,45,0,0
14854,346.480337240862,4,2,2,45,1,0
14854,-200,4,2,2,45,0,0
16239,364.564345607,4,2,2,45,1,0
16239,-200,4,2,2,45,0,0
17697,355.450236966825,4,2,2,45,1,0
17697,-200,4,2,2,45,0,0
19118,363.74658987572,4,2,2,45,1,0
19118,-200,4,2,2,45,0,0
20572,357.398141529664,4,2,2,45,1,0
20572,-200,4,2,2,45,0,0
21822,-198.412698412698,4,2,2,45,0,0
22001,348.69529842506,4,2,2,45,1,0
22001,-200,4,2,2,45,0,0
23308,-200,4,2,2,5,0,0
23395,357.185379211811,4,2,2,45,1,0
23395,-166.666666666667,4,2,2,45,0,0
24823,355.071606107232,4,2,2,45,1,0
24823,-166.666666666667,4,2,2,45,0,0
26243,355.155676571564,4,2,2,45,1,0
26243,-166.666666666667,4,2,2,45,0,0
27663,355.745286374956,4,2,2,45,1,0
27663,-166.666666666667,4,2,2,45,0,0
29085,355.6609365738,4,2,2,45,1,0
29085,-166.666666666667,4,2,2,45,0,0
31930,356.01969975672,4,2,2,65,1,0
31930,-166.666666666667,4,2,2,65,0,0
33888,-166.666666666667,4,2,1,65,0,0
34796,356.987737471218,4,2,1,65,1,0
34796,-133.333333333333,4,2,1,65,0,0
80401,-133.333333333333,4,2,1,5,0,0
80490,-133.333333333333,4,2,1,80,0,0
80609,-133.333333333333,4,2,1,5,0,0
80728,-133.333333333333,4,2,1,80,0,0
81680,-133.333333333333,4,2,1,5,0,0
81799,-133.333333333333,4,2,1,80,0,0
82751,-133.333333333333,4,2,1,5,0,0
82870,-133.333333333333,4,2,1,80,0,0
83227,-133.333333333333,4,2,1,5,0,0
83346,-133.333333333333,4,2,1,80,0,0
85369,-133.333333333333,4,2,1,5,0,0
85488,-133.333333333333,4,2,1,80,0,0
86321,-133.333333333333,4,2,1,5,0,0
86440,-133.333333333333,4,2,1,80,0,0
87392,-133.333333333333,4,2,1,5,0,0
87511,-133.333333333333,4,2,1,80,0,0
88463,-133.333333333333,4,2,1,5,0,0
88582,-133.333333333333,4,2,1,80,0,0
88939,-133.333333333333,4,2,1,5,0,0
89058,-133.333333333333,4,2,1,80,0,0
91081,-133.333333333333,4,2,1,5,0,0
91200,-133.333333333333,4,2,1,80,0,0
92033,-133.333333333333,4,2,1,5,0,0
92152,-133.333333333333,4,2,1,80,0,0
93103,-133.333333333333,4,2,1,5,0,0
93222,-133.333333333333,4,2,1,80,0,0
94174,-133.333333333333,4,2,1,5,0,0
94293,-133.333333333333,4,2,1,80,0,0
94650,-133.333333333333,4,2,1,5,0,0
94769,-133.333333333333,4,2,1,80,0,0
96792,-133.333333333333,4,2,1,5,0,0
96911,-133.333333333333,4,2,1,80,0,0
97744,-133.333333333333,4,2,1,5,0,0
97863,-133.333333333333,4,2,1,80,0,0
98815,-133.333333333333,4,2,1,5,0,0
98934,-133.333333333333,4,2,1,80,0,0
99886,-133.333333333333,4,2,1,5,0,0
100005,-133.333333333333,4,2,1,80,0,0
100362,-133.333333333333,4,2,1,5,0,0
100481,-133.333333333333,4,2,1,80,0,0
102504,-133.333333333333,4,2,1,5,0,0
102623,-133.333333333333,4,2,1,80,0,0
102861,-133.333333333333,4,2,1,5,0,0
102980,-133.333333333333,4,2,1,80,0,0
103218,-133.333333333333,4,2,1,5,0,0
103337,-133.333333333333,4,2,1,65,0,0
103456,-133.333333333333,4,2,1,5,0,0
103575,-133.333333333333,4,2,1,65,0,0
103813,-133.333333333333,4,2,1,5,0,0
103932,-133.333333333333,4,2,1,65,0,0
104170,-133.333333333333,4,2,1,5,0,0
104408,-133.333333333333,4,2,1,65,0,0
104527,-133.333333333333,4,2,1,5,0,0
104646,-133.333333333333,4,2,1,65,0,0
104884,-133.333333333333,4,2,1,5,0,0
105003,-133.333333333333,4,2,1,65,0,0
105241,-133.333333333333,4,2,1,5,0,0
105479,-133.333333333333,4,2,1,65,0,0
105717,-133.333333333333,4,2,1,5,0,0
105836,-133.333333333333,4,2,1,65,0,0
106193,-117.647058823529,4,2,1,65,0,0
106312,-117.647058823529,4,2,1,5,0,0
106431,-117.647058823529,4,2,1,65,0,0
106669,-117.647058823529,4,2,1,5,0,0
106788,-117.647058823529,4,2,1,65,0,0
107026,-117.647058823529,4,2,1,5,0,0
107145,-117.647058823529,4,2,1,65,0,0
107383,-117.647058823529,4,2,1,5,0,0
107502,-117.647058823529,4,2,1,65,0,0
107740,-117.647058823529,4,2,1,5,0,0
107859,-117.647058823529,4,2,1,65,0,0
108097,-117.647058823529,4,2,1,5,0,0
108335,-117.647058823529,4,2,1,65,0,0
108573,-117.647058823529,4,2,1,5,0,0
108692,-117.647058823529,4,2,1,65,0,0
109049,-105.263157894737,4,2,1,65,0,0
109168,-105.263157894737,4,2,1,5,0,0
109287,-105.263157894737,4,2,1,65,0,0
109525,-105.263157894737,4,2,1,5,0,0
109644,-105.263157894737,4,2,1,65,0,0
109882,-105.263157894737,4,2,1,5,0,0
110001,-105.263157894737,4,2,1,65,0,0
110239,-105.263157894737,4,2,1,5,0,0
110358,-105.263157894737,4,2,1,65,0,0
110477,-105.263157894737,4,2,1,70,0,0
110596,-105.263157894737,4,2,1,5,0,0
110715,-105.263157894737,4,2,1,70,0,0
110834,-105.263157894737,4,2,1,80,0,0
110953,-105.263157894737,4,2,1,5,0,0
111191,-105.263157894737,4,2,1,80,0,0
111429,-105.263157894737,4,2,1,5,0,0
111548,-105.263157894737,4,2,1,80,0,0
111786,-105.263157894737,4,2,1,5,0,0
111905,-95.2380952380952,4,2,1,80,0,0
114761,-133.333333333333,4,2,1,65,0,0
143320,-153.846153846154,4,2,1,65,0,0
143855,-153.846153846154,4,2,2,45,0,0
154743,-133.333333333333,4,2,1,55,0,0
160455,-117.647058823529,4,2,1,65,0,0
166167,-117.647058823529,4,2,1,80,0,0
166286,-117.647058823529,4,2,1,5,0,0
166405,-117.647058823529,4,2,1,80,0,0
167119,-117.647058823529,4,2,1,5,0,0
167238,-117.647058823529,4,2,1,80,0,0
167357,-117.647058823529,4,2,1,5,0,0
167476,-117.647058823529,4,2,1,80,0,0
168190,-117.647058823529,4,2,1,5,0,0
168309,-117.647058823529,4,2,1,80,0,0
168428,-117.647058823529,4,2,1,5,0,0
168547,-117.647058823529,4,2,1,80,0,0
168904,-117.647058823529,4,2,1,5,0,0
169023,-117.647058823529,4,2,1,80,0,0
171046,-117.647058823529,4,2,1,5,0,0
171165,-117.647058823529,4,2,1,80,0,0
171403,-117.647058823529,4,2,1,5,0,0
171522,-117.647058823529,4,2,1,80,0,0
171641,-117.647058823529,4,2,1,5,0,0
171760,-117.647058823529,4,2,1,80,0,0
171998,-117.647058823529,4,2,1,5,0,0
172117,-117.647058823529,4,2,1,80,0,0
173069,-117.647058823529,4,2,1,5,0,0
173188,-117.647058823529,4,2,1,80,0,0
173902,-117.647058823529,4,2,1,5,0,0
174021,-117.647058823529,4,2,1,80,0,0
174140,-117.647058823529,4,2,1,5,0,0
174259,-117.647058823529,4,2,1,80,0,0
174616,-117.647058823529,4,2,1,5,0,0
174735,-117.647058823529,4,2,1,80,0,0
176758,-117.647058823529,4,2,1,5,0,0
176877,-117.647058823529,4,2,1,80,0,0
177115,-117.647058823529,4,2,1,5,0,0
177234,-117.647058823529,4,2,1,80,0,0
177472,-117.647058823529,4,2,1,5,0,0
177591,-117.647058823529,4,2,1,80,0,0
177710,-117.647058823529,4,2,1,5,0,0
177829,-117.647058823529,4,2,1,80,0,0
178543,-117.647058823529,4,2,1,5,0,0
178662,-117.647058823529,4,2,1,80,0,0
178781,-117.647058823529,4,2,1,5,0,0
178900,-117.647058823529,4,2,1,80,0,0
179138,-117.647058823529,4,2,1,5,0,0
179257,-117.647058823529,4,2,1,80,0,0
179495,-117.647058823529,4,2,1,5,0,0
179614,-117.647058823529,4,2,1,80,0,0
179852,-117.647058823529,4,2,1,5,0,0
179971,-117.647058823529,4,2,1,80,0,0
180328,-117.647058823529,4,2,1,5,0,0
180446,-117.647058823529,4,2,1,80,0,0
182469,-117.647058823529,4,2,1,5,0,0
182588,-117.647058823529,4,2,1,80,0,0
182826,-117.647058823529,4,2,1,5,0,0
182945,-117.647058823529,4,2,1,80,0,0
183183,-117.647058823529,4,2,1,5,0,0
183302,-117.647058823529,4,2,1,80,0,0
183421,-117.647058823529,4,2,1,5,0,0
183540,-117.647058823529,4,2,1,80,0,0
184254,-117.647058823529,4,2,1,5,0,0
184373,-117.647058823529,4,2,1,80,0,0
184492,-117.647058823529,4,2,1,5,0,0
184611,-117.647058823529,4,2,1,80,0,0
185325,-117.647058823529,4,2,1,5,0,0
185444,-117.647058823529,4,2,1,80,0,0
185563,-117.647058823529,4,2,1,5,0,0
185682,-117.647058823529,4,2,1,80,0,0
186039,-117.647058823529,4,2,1,5,0,0
186158,-117.647058823529,4,2,1,80,0,0
189014,-153.846153846154,4,2,1,65,0,0
209719,-153.846153846154,4,2,1,70,0,0
210433,-153.846153846154,4,2,1,75,0,0
211147,-153.846153846154,4,2,1,80,0,0
211861,-153.846153846154,4,2,2,55,0,0
213289,-153.846153846154,4,2,2,65,0,0
213646,-153.846153846154,4,2,2,75,0,0
214003,-153.846153846154,4,2,2,80,0,0
214539,-153.846153846154,4,2,2,10,0,0
214728,406.972800651156,4,2,2,50,1,0
214728,-200,4,2,2,50,0,0
215911,312.695434646654,4,2,2,50,1,0
215911,-200,4,2,2,50,0,0
216536,393.184796854522,4,2,2,50,1,0
216536,-200,4,2,2,50,0,0
217322,310.591158505021,4,2,2,50,1,0
217322,-200,4,2,2,50,0,0
217632,362.122035125837,4,2,2,50,1,0
217632,-200,4,2,2,50,0,0
218718,362.406378352259,4,2,2,50,1,0
218718,-200,4,2,2,50,0,0
219805,352.133341158519,4,2,2,50,1,0
219805,-200,4,2,2,50,0,0
220509,346.24040625541,4,2,2,50,1,0
220509,-200,4,2,2,50,0,0
221547,383.288616328095,4,2,2,50,1,0
221547,-200,4,2,2,50,0,0
222313,360.144057623049,4,2,2,50,1,0
222313,-200,4,2,2,50,0,0
222673,338.868180277872,4,2,2,50,1,0
222673,-200,4,2,2,50,0,0
223350,370.713623725672,4,2,2,50,1,0
223350,-200,4,2,2,50,0,0
224462,318.403735937168,4,2,2,50,1,0
224462,-200,4,2,2,50,0,0
225098,352.71295044383,4,2,2,50,1,0
225098,-200,4,2,2,50,0,0
226172,356.987737471218,4,2,1,50,1,0
226172,-153.846153846153,4,2,1,50,0,0
236881,-153.846153846153,4,2,1,65,0,0
237595,-76.9230769230769,4,2,1,80,0,1
237714,-76.9230769230769,4,2,1,5,0,1
237833,-76.9230769230769,4,2,1,80,0,1
238547,-76.9230769230769,4,2,1,5,0,1
238666,-76.9230769230769,4,2,1,80,0,1
238785,-76.9230769230769,4,2,1,5,0,1
238904,-76.9230769230769,4,2,1,80,0,1
239499,-76.9230769230769,4,2,1,5,0,1
239618,-76.9230769230769,4,2,1,80,0,1
239856,-76.9230769230769,4,2,1,5,0,1
239975,-76.9230769230769,4,2,1,80,0,1
240213,-76.9230769230769,4,2,1,5,0,1
240332,-76.9230769230769,4,2,1,80,0,1
240570,-76.9230769230769,4,2,1,5,0,1
240689,-76.9230769230769,4,2,1,80,0,1
240927,-76.9230769230769,4,2,1,5,0,1
241046,-76.9230769230769,4,2,1,80,0,1
242474,-76.9230769230769,4,2,1,5,0,1
242593,-76.9230769230769,4,2,1,80,0,1
243426,-76.9230769230769,4,2,1,5,0,1
243545,-76.9230769230769,4,2,1,80,0,1
244259,-76.9230769230769,4,2,1,5,0,1
244378,-76.9230769230769,4,2,1,80,0,1
244497,-76.9230769230769,4,2,1,5,0,1
244616,-76.9230769230769,4,2,1,80,0,1
245330,-76.9230769230769,4,2,1,5,0,1
245449,-76.9230769230769,4,2,1,80,0,1
246044,-76.9230769230769,4,2,1,5,0,1
246163,-76.9230769230769,4,2,1,80,0,1
248186,-76.9230769230769,4,2,1,5,0,1
248305,-76.9230769230769,4,2,1,80,0,1
248543,-76.9230769230769,4,2,1,5,0,1
248662,-76.9230769230769,4,2,1,80,0,1
249971,-76.9230769230769,4,2,1,5,0,1
250090,-76.9230769230769,4,2,1,80,0,1
251042,-76.9230769230769,4,2,1,5,0,1
251161,-76.9230769230769,4,2,1,80,0,1
254850,-76.9230769230769,4,2,1,5,0,1
254969,-76.9230769230769,4,2,1,80,0,1
255207,-76.9230769230769,4,2,1,5,0,1
255325,-76.9230769230769,4,2,1,80,0,1
255682,-76.9230769230769,4,2,1,5,0,1
255801,-76.9230769230769,4,2,1,80,0,1
255920,-76.9230769230769,4,2,1,5,0,1
256039,-76.9230769230769,4,2,1,80,0,1
256277,-76.9230769230769,4,2,1,5,0,1
256396,-76.9230769230769,4,2,1,80,0,1
256634,-76.9230769230769,4,2,1,5,0,1
256753,-76.9230769230769,4,2,1,80,0,1
256991,-76.9230769230769,4,2,1,5,0,1
257110,-76.9230769230769,4,2,1,80,0,1
257467,-76.9230769230769,4,2,1,5,0,1
257586,-76.9230769230769,4,2,1,80,0,1
260442,366.725750259764,4,2,1,65,1,0
260564,-100,4,2,1,5,0,0
260686,-100,4,2,1,65,0,0
260930,-100,4,2,1,5,0,0
261053,-100,4,2,1,65,0,0
261297,-100,4,2,1,5,0,0
261542,-100,4,2,1,65,0,0
261664,-100,4,2,1,5,0,0
261786,-100,4,2,1,65,0,0
261908,347.584289190129,4,2,1,65,1,0
262023,-100,4,2,1,5,0,0
262139,-100,4,2,1,65,0,0
262371,-100,4,2,1,5,0,0
262603,-100,4,2,1,65,0,0
262834,-100,4,2,1,5,0,0
262950,-100,4,2,1,65,0,0
263179,-100,4,2,1,5,0,0
263298,354.003186028674,4,2,1,65,1,0
263298,-90.9090909090909,4,2,1,65,0,0
263416,-90.9090909090909,4,2,1,5,0,0
263534,-90.9090909090909,4,2,1,65,0,0
263770,-90.9090909090909,4,2,1,5,0,0
263888,-90.9090909090909,4,2,1,65,0,0
264124,-90.9090909090909,4,2,1,5,0,0
264360,-90.9090909090909,4,2,1,65,0,0
264478,-90.9090909090909,4,2,1,5,0,0
264596,-90.9090909090909,4,2,1,65,0,0
264714,360.967392612201,4,2,1,65,1,0
264714,-90.9090909090909,4,2,1,65,0,0
264834,-90.9090909090909,4,2,1,5,0,0
264954,-90.9090909090909,4,2,1,65,0,0
265195,-90.9090909090909,4,2,1,5,0,0
265435,-90.9090909090909,4,2,1,65,0,0
265676,-90.9090909090909,4,2,1,5,0,0
265796,-90.9090909090909,4,2,1,65,0,0
265917,-90.9090909090909,4,2,1,5,0,0
266037,-90.9090909090909,4,2,1,65,0,0
266157,361.532899493854,4,2,1,65,1,0
266157,-83.3333333333333,4,2,1,65,0,0
266277,-83.3333333333333,4,2,1,5,0,0
266398,-83.3333333333333,4,2,1,65,0,0
266639,-83.3333333333333,4,2,1,5,0,0
266759,-83.3333333333333,4,2,1,65,0,0
267121,-83.3333333333333,4,2,1,5,0,0
267241,-83.3333333333333,4,2,1,65,0,0
267362,-83.3333333333333,4,2,1,5,0,0
267484,-83.3333333333333,4,2,1,65,0,0
267603,356.252226576416,4,2,1,70,1,0
267603,-83.3333333333333,4,2,1,70,0,0
267721,-83.3333333333333,4,2,1,5,0,0
267840,-83.3333333333333,4,2,1,70,0,0
267959,-83.3333333333333,4,2,1,80,0,0
268196,-83.3333333333333,4,2,1,5,0,0
268315,-83.3333333333333,4,2,1,80,0,0
268553,-83.3333333333333,4,2,1,5,0,0
268671,-83.3333333333333,4,2,1,80,0,0
268909,-83.3333333333333,4,2,1,5,0,0
269028,355.724195174008,4,2,1,80,1,0
269028,-76.9230769230769,4,2,1,80,0,0
271873,370.874026455681,4,2,2,40,1,0
271873,-153.846153846154,4,2,2,40,0,0
273356,350.467289719626,4,2,2,40,1,0
273356,-153.846153846154,4,2,2,40,0,0
274757,360.208921174281,4,2,2,45,1,0
274757,-153.846153846154,4,2,2,45,0,0
276197,361.01083032491,4,2,2,45,1,0
276197,-153.846153846154,4,2,2,45,0,0
277641,350.242250890199,4,2,2,45,1,0
277641,-153.846153846154,4,2,2,45,0,0
279041,351.370344342937,4,2,2,45,1,0
279041,-153.846153846154,4,2,2,45,0,0
280446,362.253214997283,4,2,2,45,1,0
280446,-153.846153846154,4,2,2,45,0,0
283344,354.505169867061,4,2,2,45,1,0
283344,-153.846153846154,4,2,2,45,0,0
284762,363.218112476542,4,2,2,45,1,0
284762,-153.846153846154,4,2,2,45,0,0
286214,348.533255881499,4,2,2,45,1,0
286214,-153.846153846154,4,2,2,45,0,0
287608,357.504617767979,4,2,2,45,1,0
287608,-153.846153846154,4,2,2,45,0,0
289038,364.830353885443,4,2,2,45,1,0
289038,-153.846153846154,4,2,2,45,0,0
290497,359.690666027217,4,2,2,45,1,0
290497,-153.846153846154,4,2,2,45,0,0
291935,353.77358490566,4,2,2,45,1,0
291935,-153.846153846154,4,2,2,45,0,0
293703,325.326682210053,4,2,2,45,1,0
293703,-153.846153846154,4,2,2,45,0,0
294028,402.549480040255,4,2,2,45,1,0
294028,-153.846153846154,4,2,2,45,0,0
294833,360.663621062755,4,2,2,45,1,0
294833,-200,4,2,2,45,0,0
295193,-200,4,2,2,10,0,0
300603,-200,4,2,2,5,0,0

[Colours]
Combo1 : 255,128,128
Combo2 : 62,158,255
Combo3 : 255,255,106
Combo4 : 128,128,255

[HitObjects]
157,163,572,6,0,P|198:157|238:170,2,85,2|2|2,0:0|0:0|0:0,0:0:0:0:
283,188,1642,2,0,P|314:159|329:120,1,85,2|0,0:0|0:0,0:0:0:0:
244,112,2355,1,0,0:0:0:0:
245,217,2712,2,0,P|254:258|281:291,1,85,2|0,0:0|0:0,0:0:0:0:
412,215,3425,6,0,P|370:208|330:221,2,85,2|2|2,0:0|0:0|0:0,0:0:0:0:
285,239,4495,2,0,P|253:210|238:171,1,85,2|0,0:0|0:0,0:0:0:0:
325,163,5208,1,0,0:0:0:0:
323,268,5565,2,0,P|314:309|287:341,1,85,2|0,0:0|0:0,0:0:0:0:
151,179,6279,5,2,0:0:0:0:
325,163,6636,2,0,L|369:176,1,42.5
261,225,6992,1,0,0:0:0:0:
438,131,7349,1,6,0:0:0:0:
169,179,11958,6,0,P|178:197|184:218,1,42.5,6|0,0:0|0:0,0:0:0:0:
229,118,12317,2,0,P|234:97|244:78,1,42.5
328,64,12677,1,0,0:0:0:0:
328,64,13036,2,0,P|368:74|410:67,1,85,2|0,0:0|0:0,0:0:0:0:
305,195,13760,6,0,P|314:213|320:234,1,42.5
238,245,14125,2,0,P|228:263|222:284,1,42.5
310,351,14489,2,0,P|304:330|294:311,1,42.5
149,317,14854,6,0,P|108:328|66:319,1,85,2|0,0:0|0:0,0:0:0:0:
172,277,15373,2,0,P|192:240|194:198,1,85
126,146,15893,2,0,P|117:122|115:94,1,42.5,2|0,0:0|0:0,0:0:0:0:
184,64,16239,6,0,P|225:57|272:67,1,85
302,228,16968,2,0,P|260:220|219:227,1,85,2|0,0:0|0:0,0:0:0:0:
168,295,17514,1,0,0:0:0:0:
168,295,17697,6,0,P|181:330|181:347,1,42.5,2|0,0:0|0:0,0:0:0:0:
253,367,18052,2,0,P|257:346|267:328,1,42.5
343,289,18407,1,0,0:0:0:0:
343,289,18763,2,0,P|385:284|423:303,1,85,2|0,0:0|0:0,0:0:0:0:
302,160,19481,6,0,P|292:142|288:115,1,42.5
381,74,19845,2,0,P|376:94|365:112,1,42.5
287,199,20209,2,0,P|291:178|302:160,1,42.5
432,154,20572,6,0,L|490:159,1,42.5,2|0,0:0|0:0,0:0:0:0:
379,272,20929,2,0,L|336:268,1,42.5,2|0,0:0|0:0,0:0:0:0:
454,234,21286,2,0,L|466:332,1,85,2|2,0:0|0:0,0:0:0:0:
261,306,21822,6,0,L|249:208,1,85
168,203,22349,2,0,P|148:199|127:202,1,42.5
301,155,22698,2,0,P|321:150|342:153,1,42.5,2|0,0:0|0:0,0:0:0:0:
221,140,23047,2,0,P|209:109|211:78,1,63.75
219,58,23395,6,0,P|270:64|317:47,1,101.999996887207,2|0,3:2|3:0,0:0:0:0:
384,1,23930,1,0,3:0:0:0:
445,54,24109,2,0,L|457:125,1,50.9999984436036,0|0,3:0|3:0,0:0:0:0:
372,111,24466,1,2,3:2:0:0:
372,111,24645,6,0,L|360:182,1,50.9999984436036,0|0,3:0|3:0,0:0:0:0:
447,202,25000,2,0,P|413:166|363:160,1,101.999996887207,0|0,3:0|3:0,0:0:0:0:
328,244,25533,2,0,L|378:235,1,50.9999984436036,0|0,3:0|3:0,0:0:0:0:
251,219,25888,2,0,L|200:227,1,50.9999984436036,0|0,3:0|3:0,0:0:0:0:
266,297,26243,5,2,3:2:0:0:
266,297,26598,2,0,L|255:351,1,50.9999984436036,0|0,3:0|3:0,0:0:0:0:
328,243,26953,2,0,P|355:200|344:143,1,101.999996887207,0|2,3:0|3:2,0:0:0:0:
296,47,27486,2,0,L|287:98,1,50.9999984436036,0|0,3:0|3:0,0:0:0:0:
401,91,27840,6,0,P|449:77|499:88,1,101.999996887207,0|0,3:0|3:0,0:0:0:0:
478,172,28374,2,0,P|453:176|427:173,1,50.9999984436036,0|0,3:0|3:0,0:0:0:0:
350,202,28730,2,0,P|345:177|348:151,1,50.9999984436036,0|0,3:0|3:0,0:0:0:0:
413,254,29085,6,0,L|464:298,1,50.9999984436036,2|0,3:2|3:0,0:0:0:0:
273,230,29440,2,0,L|209:252,1,50.9999984436036,0|0,3:0|3:0,0:0:0:0:
350,202,29796,1,0,3:0:0:0:
164,296,30151,6,0,P|146:245|166:194,1,101.999996887207,2|0,3:2|3:0,0:0:0:0:
224,149,30685,1,0,3:0:0:0:
224,149,30863,2,0,L|272:132,1,50.9999984436036,0|0,3:0|3:0,0:0:0:0:
160,201,31218,1,0,3:0:0:0:
240,52,31574,2,0,L|314:58,1,50.9999984436036,0|0,3:0|3:0,0:0:0:0:
152,19,31930,6,0,P|161:69|147:118,1,101.999996887207,2|2,3:2|3:2,0:0:0:0:
50,188,32464,1,8,0:0:0:0:
97,123,32642,2,0,P|121:116|147:118,1,50.9999984436036,0|0,0:0|3:0,0:0:0:0:
251,281,32998,5,8,0:0:0:0:
369,173,33888,2,8,L|374:211,2,25.4999992218018
305,122,34244,1,8,0:3:0:0:
444,143,34422,2,0,P|456:120|457:94,1,50.9999984436036,4|0,0:3|0:0,0:0:0:0:
225,79,34796,6,0,L|99:99,1,127.500004863739,6|0,0:0|0:0,0:0:0:0:
99,99,35331,1,2,0:0:0:0:
278,142,35509,2,0,P|286:172|283:204,1,63.7500024318696,8|0,0:0|0:0,0:0:0:0:
210,242,35866,2,0,P|201:211|204:179,1,63.7500024318696,2|0,0:0|0:0,0:0:0:0:
278,142,36223,6,0,L|361:145,1,63.7500024318696
313,66,36580,2,0,L|249:68,1,63.7500024318696,2|0,0:0|0:0,0:0:0:0:
393,80,36937,2,0,P|393:48|381:18,1,63.7500024318696,8|0,0:0|0:0,0:0:0:0:
422,158,37294,2,0,P|449:173|481:177,1,63.7500024318696
341,144,37651,6,0,L|330:288,1,127.500004863739,2|0,0:0|0:0,0:0:0:0:
331,271,38187,1,2,0:0:0:0:
245,138,38365,2,0,L|250:210,1,63.7500024318696,8|0,0:0|0:0,0:0:0:0:
295,73,38722,2,0,P|325:61|357:61,1,63.7500024318696,2|0,0:0|0:0,0:0:0:0:
213,61,39079,6,0,P|188:40|172:13,1,63.7500024318696
181,134,39436,2,0,L|244:137,1,63.7500024318696,2|0,0:0|0:0,0:0:0:0:
50,195,39793,2,0,L|16:249,1,63.7500024318696,8|0,0:0|0:0,0:0:0:0:
98,127,40150,2,0,P|94:95|77:67,1,63.7500024318696,2|0,0:0|0:0,0:0:0:0:
134,202,40507,6,0,L|264:209,1,127.500004863739,2|0,0:0|0:0,0:0:0:0:
261,209,41043,1,2,0:0:0:0:
127,309,41221,2,0,L|46:313,1,63.7500024318696,8|0,0:0|0:0,0:0:0:0:
199,283,41578,2,0,P|203:315|195:346,1,63.7500024318696,2|0,0:0|0:0,0:0:0:0:
134,202,41935,6,0,P|130:170|138:139,1,63.7500024318696
200,84,42292,2,0,P|231:80|262:88,1,63.7500024318696,2|0,0:0|0:0,0:0:0:0:
362,194,42649,2,0,P|393:197|424:189,1,63.7500024318696,8|0,0:0|0:0,0:0:0:0:
282,169,43006,2,0,P|278:200|286:231,1,63.7500024318696
424,189,43363,6,0,L|444:43,1,127.500004863739,2|0,0:0|0:0,0:0:0:0:
441,62,43899,1,2,0:0:0:0:
315,36,44077,2,0,L|330:98,1,63.7500024318696,8|0,0:0|0:0,0:0:0:0:
214,136,44434,2,0,L|199:74,1,63.7500024318696,2|0,0:0|0:0,0:0:0:0:
289,168,44791,6,0,P|319:179|358:175,1,63.7500024318696
147,185,45148,2,0,P|123:205|107:240,1,63.7500024318696,2|0,0:0|0:0,0:0:0:0:
286,317,45505,2,0,L|271:255,1,63.7500024318696,8|0,0:0|0:0,0:0:0:0:
187,254,45862,2,0,L|202:316,1,63.7500024318696,2|0,0:0|0:0,0:0:0:0:
377,358,46219,6,0,P|388:295|424:243,1,127.500004863739,6|0,0:0|0:0,0:0:0:0:
424,243,46755,1,2,0:0:0:0:
268,133,46933,2,0,P|299:142|330:136,1,63.7500024318696,8|0,0:0|0:0,0:0:0:0:
196,173,47290,2,0,P|173:195|162:225,1,63.7500024318696,2|0,0:0|0:0,0:0:0:0:
195,360,47647,6,0,L|202:297,1,63.7500024318696
88,239,48004,2,0,L|24:232,1,63.7500024318696,2|0,0:0|0:0,0:0:0:0:
196,173,48361,2,0,P|259:169|316:203,1,127.500004863739,8|0,0:0|0:0,0:0:0:0:
358,270,48897,1,0,0:0:0:0:
440,274,49075,6,0,L|527:248,1,63.7500024318696,2|0,0:0|0:0,0:0:0:0:
313,200,49432,2,0,L|251:218,1,63.7500024318696,0|2,0:0|0:0,0:0:0:0:
387,73,49789,1,8,0:0:0:0:
125,73,50146,6,0,P|96:86|77:111,1,63.7500024318696,2|0,0:0|0:0,0:0:0:0:
123,180,50503,2,0,P|136:208|161:227,1,63.7500024318696
230,182,50860,2,0,P|258:168|277:143,1,63.7500024318696,2|0,0:0|0:0,0:0:0:0:
40,183,51217,1,8,0:0:0:0:
40,183,51574,2,0,L|32:251,1,63.7500024318696,2|0,0:0|0:0,0:0:0:0:
154,290,51931,6,0,L|161:226,1,63.7500024318696,2|0,0:0|0:0,0:0:0:0:
47,119,52288,2,0,L|39:182,1,63.7500024318696,0|2,0:0|0:0,0:0:0:0:
230,182,52645,2,0,P|258:168|277:143,1,63.7500024318696,8|0,0:0|0:0,0:0:0:0:
262,16,53002,6,0,L|278:156,1,127.500004863739,2|0,0:0|0:0,0:0:0:0:
352,177,53537,1,0,0:0:0:0:
427,211,53716,2,0,L|419:274,1,63.7500024318696,2|0,0:0|0:0,0:0:0:0:
208,240,54073,2,0,L|200:176,1,63.7500024318696,8|0,0:0|0:0,0:0:0:0:
352,177,54430,2,0,L|344:240,1,63.7500024318696
131,274,54787,6,0,L|123:210,1,63.7500024318696,2|0,0:0|0:0,0:0:0:0:
134,128,55144,1,0,0:0:0:0:
200,176,55322,1,2,0:0:0:0:
218,29,55501,2,0,L|211:93,1,63.7500024318696,8|0,0:0|0:0,0:0:0:0:
351,177,55858,6,0,P|343:115|296:74,1,127.500004863739,2|0,0:0|0:0,0:0:0:0:
108,232,56572,2,0,P|137:219|168:222,1,63.7500024318696,2|0,0:0|3:0,0:0:0:0:
244,256,56839,1,0,3:0:0:0:
244,256,56929,2,8,P|275:258|304:246,1,63.7500024318696
351,177,57286,1,8,0:3:0:0:
301,110,57464,1,4,0:3:0:0:
347,40,57643,6,0,P|376:28|408:30,2,63.7500024318696,6|0|0,0:0|0:0|0:0,0:0:0:0:
219,99,58178,2,0,P|194:79|179:51,1,63.7500024318696,8|0,0:0|0:0,0:0:0:0:
259,28,58535,1,0,0:0:0:0:
261,170,58714,2,0,L|261:240,1,63.7500024318696,2|0,0:0|0:0,0:0:0:0:
261,233,59428,6,0,L|261:303,1,63.7500024318696
399,203,59785,2,0,L|384:265,1,63.7500024318696,8|0,0:0|0:0,0:0:0:0:
338,146,60142,2,0,P|364:127|395:119,1,63.7500024318696,2|0,0:0|0:0,0:0:0:0:
450,323,60499,6,0,L|434:384,2,63.7500024318696,2|0|0,0:0|0:0|0:0,0:0:0:0:
325,197,61034,2,0,L|340:258,1,63.7500024318696,8|0,0:0|0:0,0:0:0:0:
366,337,61391,1,0,0:0:0:0:
486,185,61570,2,0,L|470:246,1,63.7500024318696,2|0,0:0|0:0,0:0:0:0:
470,246,62284,6,0,P|440:235|408:237,1,63.7500024318696
258,217,62641,2,0,P|247:246|249:278,1,63.7500024318696,8|0,0:0|0:0,0:0:0:0:
337,194,62998,2,0,P|347:164|345:132,1,63.7500024318696
173,77,63355,6,0,L|25:106,1,127.500004863739,2|0,0:0|0:0,0:0:0:0:
195,229,63890,2,0,L|257:216,1,63.7500024318696,8|0,0:0|0:0,0:0:0:0:
121,165,64247,1,0,0:0:0:0:
69,301,64425,2,0,L|6:313,1,63.7500024318696,2|0,0:0|0:0,0:0:0:0:
69,301,65139,6,0,L|131:288,1,63.7500024318696
287,253,65496,2,0,P|291:285|281:315,1,63.7500024318696,8|0,0:0|0:0,0:0:0:0:
136,205,65853,1,2,0:0:0:0:
392,168,66210,6,0,P|395:230|366:286,1,127.500004863739,2|0,0:0|0:0,0:0:0:0:
224,197,66746,2,0,P|194:141|198:78,1,127.500004863739,8|0,0:0|0:0,0:0:0:0:
392,168,67281,2,0,L|460:155,1,63.7500024318696,2|0,0:0|0:0,0:0:0:0:
454,156,67995,6,0,P|436:130|429:99,1,63.7500024318696
385,251,68352,1,8,0:0:0:0:
467,238,68531,1,8,0:3:0:0:
329,192,68709,2,0,P|310:217|303:248,1,63.7500024318696,4|0,0:3|0:0,0:0:0:0:
161,226,69066,6,0,P|192:218|224:222,1,63.7500024318696,2|0,0:0|0:0,0:0:0:0:
114,294,69423,1,0,0:0:0:0:
68,155,69602,2,0,P|98:146|130:150,1,63.7500024318696,8|0,0:0|0:0,0:0:0:0:
20,222,69959,1,0,0:0:0:0:
49,59,70137,2,0,L|61:121,1,63.7500024318696,2|0,0:0|0:0,0:0:0:0:
61,121,70851,6,0,L|73:183,1,63.7500024318696
311,55,71208,2,0,L|298:117,1,63.7500024318696,8|0,0:0|0:0,0:0:0:0:
201,55,71565,2,0,L|213:117,1,63.7500024318696,2|0,0:0|0:0,0:0:0:0:
438,183,71922,6,0,L|451:121,1,63.7500024318696,2|0,0:0|0:0,0:0:0:0:
399,55,72279,1,0,0:0:0:0:
294,182,72458,2,0,L|356:195,1,63.7500024318696,8|0,0:0|0:0,0:0:0:0:
331,107,72815,1,0,0:0:0:0:
221,227,72993,2,0,L|158:239,1,63.7500024318696,2|0,0:0|0:0,0:0:0:0:
159,240,73707,6,0,P|136:262|128:292,1,63.7500024318696,2|8,0:0|0:0,0:0:0:0:
191,346,73975,1,8,0:0:0:0:
191,346,74064,1,8,0:0:0:0:
255,293,74243,1,8,0:0:0:0:
317,346,74421,1,8,0:0:0:0:
373,218,74600,1,8,0:0:0:0:
405,384,74778,6,0,P|435:372|458:350,1,63.7500024318696,6|0,0:0|0:0,0:0:0:0:
386,300,75135,1,0,0:0:0:0:
317,346,75314,1,0,0:0:0:0:
260,229,75492,2,0,L|254:292,1,63.7500024318696,8|0,0:0|0:0,0:0:0:0:
60,355,75849,2,0,L|187:344,1,127.500004863739,12|0,0:0|0:0,0:0:0:0:
435,129,76563,6,0,L|351:136,1,63.7500024318696,2|0,0:0|0:0,0:0:0:0:
209,37,76920,2,0,L|216:120,1,63.7500024318696,12|0,0:0|0:0,0:0:0:0:
293,201,77277,2,0,L|287:137,1,63.7500024318696,2|0,0:0|0:0,0:0:0:0:
104,229,77634,6,0,L|40:234,1,63.7500024318696,6|0,0:0|0:0,0:0:0:0:
159,166,77991,1,8,0:0:0:0:
295,340,78170,2,0,L|358:345,1,63.7500024318696,2|0,0:0|0:0,0:0:0:0:
241,182,78526,1,2,0:0:0:0:
139,384,78705,1,8,0:0:0:0:
358,143,79062,6,0,L|437:153,1,63.7500024318696
159,166,79419,1,8,0:0:0:0:
269,262,79597,1,8,0:0:0:0:
269,262,79687,1,8,0:0:0:0:
269,262,79776,1,8,0:0:0:0:
241,182,79954,1,8,0:3:0:0:
131,312,80133,2,0,L|25:325,1,95.6250036478044,4|0,0:3|0:0,0:0:0:0:
101,238,80490,6,0,P|109:219|112:198,1,42.5000016212464,6|0,0:0|0:0,0:0:0:0:
52,146,80728,1,0,0:0:0:0:
52,146,80847,2,0,P|30:105|36:59,1,85.0000032424928
128,124,81204,1,8,0:0:0:0:
128,124,81561,6,0,L|186:135,1,42.5000016212464,6|0,0:0|0:0,0:0:0:0:
243,88,81799,1,0,0:0:0:0:
243,88,81918,2,0,L|326:103,1,85.0000032424928
226,8,82275,1,2,0:0:0:0:
226,8,82632,6,0,P|203:14|177:46,1,42.5000016212464,8|0,0:0|0:0,0:0:0:0:
109,42,82870,1,0,0:0:0:0:
109,42,82989,2,0,P|102:84|115:124,1,85.0000032424928
188,216,83346,6,0,P|167:157|114:124,1,127.500004863739,6|0,0:0|0:0,0:0:0:0:
138,330,84060,2,0,P|172:306|214:305,1,85.0000032424928,8|0,0:0|0:0,0:0:0:0:
378,329,84417,6,0,P|316:320|270:361,1,127.500004863739,6|0,0:0|0:0,0:0:0:0:
446,112,85131,2,0,P|468:147|472:189,1,85.0000032424928,2|0,0:0|0:0,0:0:0:0:
268,176,85488,2,0,P|327:162|394:176,1,127.500004863739,12|2,0:0|0:0,0:0:0:0:
82,46,86202,6,0,P|84:67|94:85,1,42.5000016212464,6|0,0:0|0:0,0:0:0:0:
58,158,86440,1,0,0:0:0:0:
57,157,86559,2,0,P|101:165|139:153,1,85.0000032424928
20,229,86916,1,8,0:0:0:0:
20,229,87273,6,0,L|35:283,1,42.5000016212464,6|0,0:0|0:0,0:0:0:0:
116,243,87511,1,0,0:0:0:0:
116,243,87630,2,0,L|99:326,1,85.0000032424928
193,217,87987,1,2,0:0:0:0:
193,217,88344,6,0,P|244:215|264:227,1,42.5000016212464,8|0,0:0|0:0,0:0:0:0:
293,267,88582,1,0,0:0:0:0:
293,267,88701,2,0,P|366:288|394:278,1,85.0000032424928
351,160,89058,6,0,L|374:300,1,127.500004863739,6|0,0:0|0:0,0:0:0:0:
479,74,89772,2,0,P|436:73|399:93,1,85.0000032424928,8|0,0:0|0:0,0:0:0:0:
261,76,90129,6,0,P|294:129|350:159,1,127.500004863739,6|0,0:0|0:0,0:0:0:0:
130,42,90843,2,0,P|87:41|50:61,1,85.0000032424928,2|0,0:0|0:0,0:0:0:0:
93,248,91200,2,0,L|109:102,1,127.500004863739,12|2,0:0|0:0,0:0:0:0:
276,360,91795,1,0,0:0:0:0:
276,360,91914,6,0,L|349:346,1,42.5000016212464,6|0,0:0|0:0,0:0:0:0:
360,282,92152,1,0,0:0:0:0:
360,282,92271,2,0,L|442:300,1,85.0000032424928
324,208,92628,1,8,0:0:0:0:
323,207,92985,6,0,P|316:188|312:167,1,42.5000016212464,6|0,0:0|0:0,0:0:0:0:
233,148,93222,1,0,0:0:0:0:
232,148,93341,2,0,P|235:190|216:227,1,85.0000032424928
289,88,93698,1,2,0:0:0:0:
289,88,94055,6,0,L|370:95,1,42.5000016212464,8|0,0:0|0:0,0:0:0:0:
411,78,94293,1,0,0:0:0:0:
411,78,94412,2,0,L|400:196,1,85.0000032424928
264,164,94769,6,0,L|274:291,1,127.500004863739,6|0,0:0|0:0,0:0:0:0:
95,145,95483,2,0,L|102:229,1,85.0000032424928,8|0,0:0|0:0,0:0:0:0:
138,76,95840,6,0,P|198:51|263:76,1,127.500004863739,6|0,0:0|0:0,0:0:0:0:
407,263,96554,2,0,P|375:290|366:331,1,85.0000032424928,2|0,0:0|0:0,0:0:0:0:
486,268,96911,2,0,P|499:206|482:145,1,127.500004863739,12|2,0:0|0:0,0:0:0:0:
253,145,97506,1,0,0:0:0:0:
252,145,97625,6,0,P|248:165|249:187,1,42.5000016212464,6|0,0:0|0:0,0:0:0:0:
313,90,97863,1,0,0:0:0:0:
313,90,97982,2,0,P|278:66|231:66,1,85.0000032424928
372,33,98339,1,8,0:0:0:0:
372,33,98696,6,0,L|394:101,1,42.5000016212464,6|0,0:0|0:0,0:0:0:0:
365,152,98934,1,0,0:0:0:0:
365,152,99053,2,0,L|396:248,1,85.0000032424928
444,128,99410,1,2,0:0:0:0:
444,127,99767,6,0,P|464:122|485:124,1,42.5000016212464,8|0,0:0|0:0,0:0:0:0:
385,73,100005,1,0,0:0:0:0:
385,72,100124,2,0,P|344:82|302:75,1,85.0000032424928
156,132,100481,6,0,P|219:124|276:152,1,127.500004863739,6|0,0:0|0:0,0:0:0:0:
76,159,101195,2,0,P|55:196|55:238,1,85.0000032424928,8|0,0:0|0:0,0:0:0:0:
146,295,101552,2,0,P|83:287|27:315,1,127.500004863739,6|0,0:0|0:0,0:0:0:0:
302,349,102266,6,0,L|386:340,1,85.0000032424928,8|0,0:0|0:0,0:0:0:0:
320,269,102623,2,0,L|382:191,1,85.0000032424928,12|0,0:0|0:0,0:0:0:0:
276,199,102980,2,0,L|265:99,1,85.0000032424928,2|0,0:0|0:0,0:0:0:0:
188,96,103337,6,0,L|195:168,1,42.5000016212464,12|0,0:0|0:0,0:0:0:0:
139,200,103575,1,0,0:0:0:0:
139,200,103694,2,0,L|146:272,1,42.5000016212464
90,304,103932,1,0,0:0:0:0:
90,304,104051,2,0,L|97:376,1,42.5000016212464,2|0,0:0|0:0,0:0:0:0:
252,317,104408,6,0,P|273:310|294:309,1,42.5000016212464
329,236,104646,1,0,0:0:0:0:
329,236,104765,2,0,P|308:229|287:228,1,42.5000016212464,2|0,0:0|0:0,0:0:0:0:
252,154,105003,1,0,0:0:0:0:
252,154,105122,2,0,P|272:147|293:146,1,42.5000016212464
436,222,105479,6,0,L|450:305,1,85.0000032424928,2|0,0:0|0:0,0:0:0:0:
493,164,105836,1,12,0:0:0:0:
207,59,106193,6,0,P|184:63|163:75,1,48.1666675853729,12|0,0:0|0:0,0:0:0:0:
109,149,106431,1,0,0:0:0:0:
109,149,106550,2,0,P|132:152|153:164,1,48.1666675853729
207,238,106788,1,0,0:0:0:0:
207,238,106907,2,0,P|183:241|162:253,1,48.1666675853729,2|0,0:0|0:0,0:0:0:0:
343,285,107145,1,0,0:0:0:0:
343,285,107264,6,0,L|424:282,1,48.1666675853729
425,197,107502,1,0,0:0:0:0:
425,197,107621,2,0,L|376:198,1,48.1666675853729,2|0,0:0|0:0,0:0:0:0:
335,116,107859,1,0,0:0:0:0:
335,116,107978,2,0,L|383:113,1,48.1666675853729
190,162,108335,6,0,P|189:209|213:250,1,96.3333351707459,2|0,0:0|0:0,0:0:0:0:
249,97,108692,1,12,0:0:0:0:
71,43,109049,6,0,L|30:95,1,53.8333318958283,12|0,0:0|0:0,0:0:0:0:
88,174,109287,1,0,0:0:0:0:
88,174,109406,2,0,L|47:226,1,53.8333318958283
105,305,109644,1,0,0:0:0:0:
105,305,109763,2,0,L|64:357,1,53.8333318958283,2|0,0:0|0:0,0:0:0:0:
271,305,110001,1,0,0:0:0:0:
271,305,110120,6,0,P|297:296|324:296,1,53.8333318958283,8|0,0:0|0:0,0:0:0:0:
406,234,110358,1,0,0:0:0:0:
406,234,110477,2,0,P|380:225|353:225,1,53.8333318958283,10|0,0:0|0:0,0:0:0:0:
271,162,110715,1,0,0:0:0:0:
271,162,110834,2,0,P|296:153|323:153,1,53.8333318958283,8|0,0:0|0:0,0:0:0:0:
190,12,111191,6,0,P|190:71|211:156,1,107.666663791657,8|0,0:0|0:0,0:0:0:0:
109,42,111548,2,0,P|103:100|117:187,1,107.666663791657,12|0,0:0|0:0,0:0:0:0:
273,54,111905,6,0,P|334:34|459:110,1,178.499994552612,12|0,0:0|0:0,0:0:0:0:
383,245,112440,1,8,0:0:0:0:
325,176,112619,2,0,P|365:157|410:160,1,89.2499972763062,2|0,0:0|0:0,0:0:0:0:
440,313,112976,2,0,P|399:331|355:329,1,89.2499972763062,12|0,0:0|0:0,0:0:0:0:
237,192,113333,5,2,0:0:0:0:
325,176,113511,1,8,0:0:0:0:
325,176,113601,1,8,0:0:0:0:
325,176,113690,1,8,0:0:0:0:
206,276,113868,1,8,0:0:0:0:
149,208,114047,1,8,0:0:0:0:
237,192,114225,1,8,0:3:0:0:
118,292,114404,2,0,L|25:277,1,89.2499972763062,4|4,0:3|0:3,0:0:0:0:
179,124,114761,6,0,P|202:60|178:0,1,127.500004863739,6|0,0:0|0:0,0:0:0:0:
114,63,115296,1,2,0:0:0:0:
93,149,115475,2,0,L|99:218,1,63.7500024318696,8|0,0:0|0:0,0:0:0:0:
181,247,115832,2,0,P|239:225|300:241,1,127.500004863739,2|0,0:0|0:0,0:0:0:0:
453,158,116546,1,2,0:0:0:0:
333,42,116903,2,0,L|354:181,1,127.500004863739,8|0,0:0|0:0,0:0:0:0:
153,108,117617,6,0,L|133:234,1,127.500004863739,2|0,0:0|0:0,0:0:0:0:
133,234,118152,1,2,0:0:0:0:
228,159,118331,2,0,L|237:222,1,63.7500024318696,8|0,0:0|0:0,0:0:0:0:
208,32,118688,1,2,0:0:0:0:
208,32,119223,5,8,0:0:0:0:
269,88,119402,1,8,0:3:0:0:
348,63,119580,2,8,L|378:19,2,31.8750012159348
332,143,119937,2,8,P|361:200|364:272,1,127.500004863739
153,262,120473,6,0,L|229:245,1,63.7500024318696,6|0,0:0|0:0,0:0:0:0:
287,301,120830,1,0,0:0:0:0:
205,336,121008,1,2,0:0:0:0:
76,306,121187,2,0,L|0:289,1,63.7500024318696,8|0,0:0|0:0,0:0:0:0:
128,380,121544,1,2,0:0:0:0:
164,199,121722,6,0,L|152:261,1,63.7500024318696
221,135,122079,2,0,P|248:119|280:118,1,63.7500024318696,0|2,0:0|0:0,0:0:0:0:
368,133,122436,1,0,0:0:0:0:
498,95,122614,2,0,P|470:79|439:78,1,63.7500024318696,8|0,0:0|0:0,0:0:0:0:
477,240,122971,2,0,P|492:212|493:180,1,63.7500024318696
330,214,123328,6,0,L|337:277,1,63.7500024318696,2|0,0:0|0:0,0:0:0:0:
368,133,123685,1,0,0:0:0:0:
368,133,123864,1,2,0:0:0:0:
242,201,124042,2,0,P|210:204|180:193,1,63.7500024318696,8|0,0:0|0:0,0:0:0:0:
224,115,124399,1,2,0:0:0:0:
294,7,124578,6,0,L|302:71,1,63.7500024318696
368,133,124935,1,0,0:0:0:0:
439,81,125113,2,0,P|471:77|502:83,1,63.7500024318696,2|0,0:0|0:0,0:0:0:0:
402,215,125470,2,0,P|431:227|454:248,1,63.7500024318696,8|0,0:0|0:0,0:0:0:0:
313,203,125827,2,0,L|306:266,1,63.7500024318696,2|0,0:0|0:0,0:0:0:0:
253,78,126184,6,0,L|247:142,2,63.7500024318696,2|0|0,0:0|0:0|0:0,0:0:0:0:
172,39,126720,1,2,0:0:0:0:
106,182,126898,2,0,P|135:169|167:168,1,63.7500024318696,8|0,0:0|0:0,0:0:0:0:
313,203,127255,1,2,0:0:0:0:
247,263,127434,6,0,P|215:261|186:248,1,63.7500024318696
124,312,127791,1,0,0:0:0:0:
1,262,127969,2,0,P|30:251|62:252,1,63.7500024318696,2|0,0:0|0:0,0:0:0:0:
116,128,128326,2,0,L|122:191,1,63.7500024318696,8|0,0:0|0:0,0:0:0:0:
42,335,128683,1,0,0:0:0:0:
42,335,129040,5,2,0:0:0:0:
115,285,129219,2,0,P|147:284|176:297,1,63.7500024318696
68,209,129576,1,2,0:0:0:0:
239,240,129754,2,0,P|270:240|299:227,1,63.7500024318696,8|0,0:0|0:0,0:0:0:0:
141,159,130111,1,2,0:0:0:0:
194,50,130290,6,0,P|210:77|213:108,1,63.7500024318696
141,159,130647,1,0,0:0:0:0:
58,125,130825,2,0,P|73:97|99:78,1,63.7500024318696,2|0,0:0|0:0,0:0:0:0:
296,142,131182,2,0,L|359:134,1,63.7500024318696,8|0,0:0|0:0,0:0:0:0:
194,50,131539,2,0,L|220:129,1,63.7500024318696
125,285,131896,6,0,L|140:158,1,127.500004863739,6|0,0:0|0:0,0:0:0:0:
220,199,132432,1,2,0:0:0:0:
204,325,132610,2,0,L|267:317,1,63.7500024318696,8|0,0:0|0:0,0:0:0:0:
355,303,132967,1,2,0:0:0:0:
333,152,133146,6,0,L|341:215,1,63.7500024318696
425,243,133503,1,0,0:0:0:0:
446,156,133681,2,0,L|509:164,1,63.7500024318696,2|0,0:0|0:0,0:0:0:0:
421,69,134038,2,0,L|484:77,1,63.7500024318696,8|0,0:0|0:0,0:0:0:0:
351,12,134395,2,0,L|343:75,1,63.7500024318696
335,164,134752,6,0,P|303:164|274:177,1,63.7500024318696,2|0,0:0|0:0,0:0:0:0:
233,94,135109,1,0,0:0:0:0:
233,94,135288,1,2,0:0:0:0:
92,120,135466,2,0,P|124:120|153:134,1,63.7500024318696,8|0,0:0|0:0,0:0:0:0:
193,214,135823,1,2,0:0:0:0:
269,261,136002,6,0,P|300:260|329:247,1,63.7500024318696
367,166,136359,1,0,0:0:0:0:
415,238,136537,2,0,P|413:270|398:298,1,63.7500024318696,2|0,0:0|0:0,0:0:0:0:
224,333,136894,2,0,P|199:314|185:285,1,63.7500024318696,8|0,0:0|0:0,0:0:0:0:
276,197,137251,2,0,L|268:260,1,63.7500024318696,2|0,0:0|0:0,0:0:0:0:
349,72,137608,6,0,L|342:136,2,63.7500024318696,2|0|0,0:0|0:0|0:0,0:0:0:0:
274,22,138143,1,2,0:0:0:0:
212,87,138322,2,0,P|180:80|149:87,1,63.7500024318696,8|0,0:0|0:0,0:0:0:0:
96,159,138679,2,0,P|102:190|96:221,1,63.7500024318696,2|0,0:0|0:0,0:0:0:0:
116,307,139036,6,0,L|170:342,1,63.7500024318696
235,280,139393,2,0,L|181:245,1,63.7500024318696,2|0,0:0|0:0,0:0:0:0:
321,255,139750,1,8,0:0:0:0:
278,345,139928,2,0,L|279:188,1,127.500004863739
362,328,140464,6,0,P|416:331|441:322,1,63.7500024318696,2|0,0:0|0:0,0:0:0:0:
471,245,140821,2,0,P|417:248|392:239,1,63.7500024318696,0|2,0:0|0:0,0:0:0:0:
310,136,141178,2,0,P|335:193|320:254,1,127.500004863739,8|2,0:0|0:0,0:0:0:0:
176,218,141713,6,0,P|144:213|113:218,1,63.7500024318696
236,284,142070,1,0,0:0:0:0:
188,187,142249,2,0,P|183:155|188:124,1,63.7500024318696,2|0,0:0|3:0,0:0:0:0:
227,102,142517,1,0,3:0:0:0:
227,102,142606,6,0,L|293:108,1,63.7500024318696,8|8,0:0|0:3,0:0:0:0:
320,254,142963,2,0,L|386:260,1,63.7500024318696,4|4,0:3|0:3,0:0:0:0:
265,186,143320,6,0,L|289:306,1,110.499994941712,6|0,0:0|0:0,0:0:0:0:
193,228,143855,2,0,L|215:337,1,110.499994941712,2|0,0:0|0:0,0:0:0:0:
121,270,144391,1,2,0:0:0:0:
121,270,145105,2,0,P|96:258|68:256,1,55.2499974708558
139,188,145462,2,0,P|109:154|89:146,1,55.2499974708558
193,125,145819,2,0,P|191:97|179:72,1,55.2499974708558
270,154,146176,6,0,P|323:168|381:152,1,110.499994941712,2|0,0:0|0:0,0:0:0:0:
398,234,146711,2,0,P|451:219|504:233,1,110.499994941712,2|0,0:0|0:0,0:0:0:0:
387,316,147247,1,2,0:0:0:0:
387,316,147961,5,0,0:0:0:0:
305,304,148139,2,0,L|281:172,1,110.499994941712
358,154,148675,2,0,L|365:84,1,55.2499974708558
280,105,149032,6,0,P|234:135|176:135,1,110.499994941712,2|0,0:0|0:0,0:0:0:0:
109,180,149567,2,0,P|152:213|210:217,1,110.499994941712,2|0,0:0|0:0,0:0:0:0:
123,284,150103,1,2,0:0:0:0:
122,283,150817,6,0,P|120:311|112:337,1,55.2499974708558
189,239,151174,2,0,P|197:265|199:292,1,55.2499974708558
276,281,151530,2,0,P|273:308|265:334,1,55.2499974708558
341,236,151887,6,0,P|395:222|449:230,1,110.499994941712,2|0,0:0|0:0,0:0:0:0:
288,171,152423,2,0,P|233:162|180:176,1,110.499994941712,2|0,0:0|0:0,0:0:0:0:
338,104,152958,1,2,0:0:0:0:
338,104,153672,6,0,L|391:91,1,55.2499974708558
314,183,154029,2,0,L|368:189,1,55.2499974708558
244,228,154386,2,0,P|229:251|224:278,1,55.2499974708558
149,240,154743,6,0,P|177:297|175:361,1,127.500004863739,6|0,0:0|0:0,0:0:0:0:
69,263,155279,2,0,P|70:326|43:383,1,127.500004863739
3,211,155814,1,2,0:0:0:0:
3,211,156528,6,0,L|45:143,1,63.7500024318696
23,74,156885,2,0,L|100:55,1,63.7500024318696
117,136,157242,2,0,L|194:154,1,63.7500024318696,2|0,0:0|0:0,0:0:0:0:
296,60,157599,6,0,P|359:53|416:102,1,127.500004863739,2|0,0:0|0:0,0:0:0:0:
251,130,158135,2,0,L|239:-4,1,127.500004863739,2|0,0:0|0:0,0:0:0:0:
336,137,158670,1,2,0:0:0:0:
336,137,159384,6,0,P|400:133|407:136,1,63.7500024318696,2|8,0:0|0:0,0:0:0:0:
435,151,159652,1,8,0:0:0:0:
435,151,159741,1,8,0:0:0:0:
413,231,159920,1,8,0:0:0:0:
284,208,160098,1,8,0:0:0:0:
306,288,160277,1,8,0:0:0:0:
336,137,160455,6,0,L|321:34,1,72.2500013780594,6|0,0:0|0:0,0:0:0:0:
232,48,160812,2,0,L|242:119,1,72.2500013780594
407,26,161169,2,0,P|442:20|476:30,1,72.2500013780594,8|0,0:0|0:0,0:0:0:0:
394,204,161526,6,0,P|445:252|452:322,1,144.500002756119,12|0,0:0|0:0,0:0:0:0:
128,251,162240,1,2,0:0:0:0:
393,118,162597,1,12,0:0:0:0:
75,73,162954,1,0,0:0:0:0:
480,72,163311,6,0,P|486:143|416:212,1,144.500002756119,8|2,0:3|0:0,0:0:0:0:
299,283,163847,2,0,P|257:226|265:156,1,144.500002756119,4|2,0:3|0:0,0:0:0:0:
398,285,164382,2,0,P|432:294|468:292,1,72.2500013780594,8|0,0:0|0:0,0:0:0:0:
352,202,164739,5,8,0:0:0:0:
180,258,164918,1,8,0:0:0:0:
124,86,165096,1,0,0:0:0:0:
296,30,165275,1,8,0:0:0:0:
238,144,165453,6,0,L|157:167,2,48.1666675853729,8|8|8,0:0|0:0|0:3,0:0:0:0:
352,202,165810,2,0,L|433:225,2,48.1666675853729,8|4|4,0:3|0:3|0:3,0:0:0:0:
268,334,166167,6,0,P|260:312|257:288,1,48.1666675853729,6|0,0:0|0:0,0:0:0:0:
277,217,166405,1,0,0:0:0:0:
352,201,166524,2,0,P|371:158|363:111,1,96.3333351707459
266,16,166881,2,0,L|147:50,1,96.3333351707459,8|0,0:0|0:0,0:0:0:0:
334,43,167238,6,0,L|354:-1,1,48.1666675853729,6|0,0:0|0:0,0:0:0:0:
277,88,167476,1,0,0:0:0:0:
283,159,167595,2,0,L|298:272,1,96.3333351707459
414,176,167952,2,0,P|418:129|399:86,1,96.3333351707459,2|0,0:0|0:0,0:0:0:0:
277,88,168309,6,0,L|192:104,1,48.1666675853729,8|0,0:0|0:0,0:0:0:0:
169,138,168547,1,0,0:0:0:0:
162,209,168666,2,0,P|173:259|223:312,1,96.3333351707459
169,138,169023,6,0,L|-4:170,1,144.500002756119,6|0,0:0|0:0,0:0:0:0:
252,218,169737,2,0,L|359:229,1,96.3333351707459,8|0,0:0|0:0,0:0:0:0:
142,280,170094,6,0,L|174:107,1,144.500002756119,6|0,0:0|0:0,0:0:0:0:
367,50,170808,2,0,L|474:61,1,96.3333351707459,2|0,0:0|0:0,0:0:0:0:
307,112,171165,2,0,P|283:72|283:24,1,96.3333351707459,12|0,0:0|0:0,0:0:0:0:
392,132,171522,2,0,L|397:219,1,48.1666675853729,2|0,0:0|0:0,0:0:0:0:
362,256,171760,1,0,0:0:0:0:
292,299,171879,6,0,L|243:298,1,48.1666675853729,6|0,0:0|0:0,0:0:0:0:
182,243,172117,1,0,0:0:0:0:
169,162,172236,2,0,P|233:178|261:226,1,96.3333351707459
110,293,172593,2,0,L|-1:291,1,96.3333351707459,8|0,0:0|0:0,0:0:0:0:
48,119,172950,6,0,L|96:119,1,48.1666675853729,6|0,0:0|0:0,0:0:0:0:
169,162,173188,1,0,0:0:0:0:
98,210,173307,2,0,P|83:165|95:119,1,96.3333351707459
239,113,173664,2,0,P|253:158|241:204,1,96.3333351707459,2|0,0:0|0:0,0:0:0:0:
110,293,174021,6,0,L|31:311,1,48.1666675853729,8|0,0:0|0:0,0:0:0:0:
175,247,174259,1,0,0:0:0:0:
247,283,174378,2,0,P|291:267|318:228,1,96.3333351707459
237,64,174735,6,0,B|222:99|222:99|247:232,1,144.500002756119,6|0,0:0|0:0,0:0:0:0:
416,17,175449,2,0,L|512:13,1,96.3333351707459,8|0,0:0|0:0,0:0:0:0:
445,104,175806,6,0,P|375:92|310:122,1,144.500002756119,6|0,0:0|0:0,0:0:0:0:
89,28,176520,2,0,P|83:51|111:133,1,96.3333351707459,2|0,0:0|0:0,0:0:0:0:
31,164,176877,2,0,P|48:180|132:197,1,96.3333351707459,12|0,0:0|0:0,0:0:0:0:
80,304,177234,2,0,P|97:287|181:270,1,96.3333351707459,2|0,0:0|0:0,0:0:0:0:
203,142,177591,6,0,L|195:190,1,48.1666675853729,6|0,0:0|0:0,0:0:0:0:
241,258,177829,1,0,0:0:0:0:
308,304,177948,2,0,P|354:315|401:308,1,96.3333351707459
384,213,178305,2,0,L|403:325,1,96.3333351707459,8|0,0:0|0:0,0:0:0:0:
463,194,178662,6,0,L|476:269,1,48.1666675853729,6|0,0:0|0:0,0:0:0:0:
368,131,178900,1,0,0:0:0:0:
368,131,179019,2,0,L|359:83,1,48.1666675853729
320,265,179257,1,0,0:0:0:0:
320,265,179376,2,0,L|311:312,1,48.1666675853729,2|0,0:0|0:0,0:0:0:0:
162,319,179614,1,0,0:0:0:0:
162,319,179733,6,0,L|100:318,1,48.1666675853729,8|0,0:0|0:0,0:0:0:0:
145,239,179971,1,0,0:0:0:0:
224,265,180090,2,0,L|339:266,1,96.3333351707459
327,124,180446,6,0,B|302:190|350:190|320:266,1,144.500002756119,6|0,0:0|0:0,0:0:0:0:
378,57,181160,2,0,P|425:55|464:82,1,96.3333351707459,8|0,0:0|0:0,0:0:0:0:
327,124,181517,6,0,L|165:112,1,144.500002756119,6|0,0:0|0:0,0:0:0:0:
368,201,182231,2,0,L|464:208,1,96.3333351707459,2|0,0:0|0:0,0:0:0:0:
324,280,182588,2,0,L|420:287,1,96.3333351707459,12|0,0:0|0:0,0:0:0:0:
281,206,182945,2,0,P|249:240|240:287,1,96.3333351707459,2|0,0:0|0:0,0:0:0:0:
368,201,183302,6,0,L|373:124,1,48.1666675853729,6|0,0:0|0:0,0:0:0:0:
311,96,183540,1,0,0:0:0:0:
240,137,183659,2,0,B|197:160|197:160|126:160,1,96.3333351707459
245,35,184016,2,0,B|288:12|288:12|359:12,1,96.3333351707459,8|0,0:0|0:0,0:0:0:0:
444,127,184373,6,0,L|492:130,1,48.1666675853729,6|0,0:0|0:0,0:0:0:0:
406,53,184611,1,0,0:0:0:0:
363,122,184730,2,0,P|372:169|408:199,1,96.3333351707459
286,115,185087,2,0,L|179:107,1,96.3333351707459,2|0,0:0|0:0,0:0:0:0:
245,215,185444,6,0,L|206:188,1,48.1666675853729,8|0,0:0|0:0,0:0:0:0:
162,258,185682,1,0,0:0:0:0:
220,314,185801,2,0,L|315:267,1,96.3333351707459
397,155,186158,6,0,P|376:223|399:290,1,144.500002756119,6|0,0:0|0:0,0:0:0:0:
381,66,186872,2,0,L|490:51,1,96.3333351707459,8|0,0:0|0:0,0:0:0:0:
314,122,187229,2,0,L|139:97,1,144.500002756119,6|0,0:0|0:0,0:0:0:0:
233,284,187943,6,0,L|361:302,1,96.3333351707459,8|0,0:3|3:0,0:0:0:0:
406,271,188300,1,8,0:0:0:0:
406,271,188479,1,8,0:3:0:0:
334,171,188657,1,4,0:3:0:0:
334,171,188836,1,4,0:3:0:0:
426,33,189014,6,0,L|410:143,1,110.499994941712,6|0,0:0|0:0,0:0:0:0:
334,171,189550,1,2,0:0:0:0:
282,80,189728,2,0,L|337:88,1,55.2499974708558,8|0,0:0|0:0,0:0:0:0:
409,142,190085,6,0,P|464:140|508:107,1,110.499994941712,2|0,0:0|0:0,0:0:0:0:
282,80,190799,1,2,0:0:0:0:
315,256,191156,2,0,L|331:147,1,110.499994941712,8|0,0:0|0:0,0:0:0:0:
141,330,191870,6,0,L|156:220,1,110.499994941712,2|0,0:0|0:0,0:0:0:0:
239,210,192406,1,2,0:0:0:0:
224,320,192584,2,0,L|303:310,1,55.2499974708558,8|0,0:0|0:0,0:0:0:0:
319,241,192941,6,0,P|359:258|438:229,1,110.499994941712,2|0,0:0|0:0,0:0:0:0:
316,46,193655,1,2,0:0:0:0:
215,243,194012,2,0,P|255:226|334:255,1,110.499994941712,8|0,0:0|0:0,0:0:0:0:
268,308,194548,1,8,0:0:0:0:
140,276,194726,6,0,L|120:396,1,110.499994941712,2|0,0:0|0:0,0:0:0:0:
51,340,195261,1,2,0:0:0:0:
76,207,195440,2,0,L|67:262,1,55.2499974708558,8|0,0:0|0:0,0:0:0:0:
37,143,195797,6,0,P|85:167|140:165,1,110.499994941712,2|0,0:0|0:0,0:0:0:0:
256,46,196511,1,2,0:0:0:0:
475,143,196868,2,0,P|426:167|371:165,1,110.499994941712,8|0,0:0|0:0,0:0:0:0:
187,225,197582,6,0,P|170:277|181:330,1,110.499994941712,2|0,0:0|0:0,0:0:0:0:
256,366,198117,1,2,0:0:0:0:
322,275,198296,2,0,L|330:330,1,55.2499974708558,8|0,0:0|0:0,0:0:0:0:
187,225,198653,1,12,0:0:0:0:
275,155,198831,6,0,L|268:210,1,55.2499974708558,2|0,0:0|0:0,0:0:0:0:
194,138,199188,1,8,0:0:0:0:
242,21,199367,2,0,L|250:76,1,55.2499974708558,6|0,0:0|0:0,0:0:0:0:
187,225,199724,5,8,0:0:0:0:
115,175,199902,1,8,0:0:0:0:
29,301,200081,1,8,0:0:0:0:
36,213,200259,1,8,0:0:0:0:
180,313,200438,6,0,L|299:325,1,110.499994941712,6|2,0:0|0:0,0:0:0:0:
240,106,201152,2,0,L|359:118,1,110.499994941712,8|0,0:0|0:0,0:0:0:0:
231,186,201687,2,0,L|225:245,1,55.2499974708558,8|2,0:0|0:0,0:0:0:0:
357,36,202223,1,2,0:0:0:0:
164,1,202580,1,8,0:0:0:0:
231,186,202937,1,2,0:0:0:0:
357,36,203294,6,0,L|238:48,1,110.499994941712,6|2,0:0|0:0,0:0:0:0:
105,283,204008,2,0,L|214:271,1,110.499994941712,8|0,0:0|0:0,0:0:0:0:
281,222,204543,1,0,0:0:0:0:
354,261,204722,6,0,L|360:326,1,55.2499974708558,2|8,0:0|0:0,0:0:0:0:
281,222,205079,2,0,L|274:156,1,55.2499974708558,2|2,0:0|0:0,0:0:0:0:
420,211,205436,1,12,0:0:0:0:
214,271,205793,1,8,0:0:0:0:
281,222,205971,1,8,0:0:0:0:
197,136,206150,6,0,L|203:191,1,55.2499974708558,6|0,0:0|0:0,0:0:0:0:
120,182,206507,2,0,L|114:236,1,55.2499974708558,2|0,0:0|0:0,0:0:0:0:
208,325,206864,2,0,L|213:270,1,55.2499974708558,8|0,0:0|0:0,0:0:0:0:
28,240,207221,1,12,0:0:0:0:
68,316,207399,6,0,L|122:321,1,55.2499974708558,2|0,0:0|0:0,0:0:0:0:
74,160,207756,1,8,0:0:0:0:
114,236,207934,2,0,L|168:241,1,55.2499974708558,2|2,0:0|0:0,0:0:0:0:
119,80,208292,2,0,P|118:52|104:28,1,55.2499974708558,12|2,0:0|0:0,0:0:0:0:
228,178,208649,2,0,P|246:157|253:131,1,55.2499974708558,12|0,0:0|0:0,0:0:0:0:
158,314,209006,6,0,P|186:312|211:323,1,55.2499974708558,6|0,0:0|0:0,0:0:0:0:
273,264,209363,2,0,P|300:265|325:254,1,55.2499974708558,8|0,0:0|0:0,0:0:0:0:
136,176,209719,2,0,P|150:199|153:226,1,55.2499974708558,8|0,0:0|0:0,0:0:0:0:
253,131,210076,2,0,P|238:154|235:181,1,55.2499974708558,8|0,0:0|0:0,0:0:0:0:
73,118,210433,6,0,L|3:121,1,55.2499974708558,8|0,0:0|0:0,0:0:0:0:
217,266,210790,2,0,L|272:263,1,55.2499974708558,8|0,0:0|0:0,0:0:0:0:
187,55,211147,2,0,L|184:-15,1,55.2499974708558,8|0,0:0|0:0,0:0:0:0:
103,329,211504,2,0,L|106:399,1,55.2499974708558,8|0,0:0|0:0,0:0:0:0:
145,192,211861,5,4,0:0:0:0:
256,192,212665,12,0,214539,0:0:0:0:
213,155,214728,6,0,L|207:233,1,56.6666666666667,6|0,0:0|0:0,0:0:0:0:
159,282,215134,2,0,P|178:292|199:297,1,42.5
277,266,215541,1,0,0:0:0:0:
277,266,215911,6,0,P|299:249|326:241,1,56.6666666666667,2|0,0:0|0:0,0:0:0:0:
306,160,216223,2,0,P|333:156|361:163,1,56.6666666666667
409,233,216536,1,0,0:0:0:0:
409,233,216929,6,0,L|420:308,1,56.6666666666667,2|0,0:0|0:0,0:0:0:0:
496,250,217322,2,0,L|487:193,1,56.6666666666667,2|0,0:0|0:0,0:0:0:0:
413,147,217632,2,0,P|371:147|335:124,1,85,2|2,0:0|0:0,0:0:0:0:
114,84,218356,2,0,P|85:81|59:91,1,56.6666666666667,2|0,0:0|0:0,0:0:0:0:
18,165,218718,6,0,L|34:271,1,85,2|0,0:0|0:0,0:0:0:0:
256,304,219442,1,2,0:0:0:0:
401,44,219805,2,0,P|443:35|482:51,1,85,2|0,0:0|0:0,0:0:0:0:
260,151,220509,6,0,P|218:143|197:125,1,56.6666666666667,2|0,0:0|0:0,0:0:0:0:
169,208,220855,2,0,P|136:180|127:153,1,56.6666666666667
56,201,221201,1,0,0:0:0:0:
56,201,221547,6,0,P|14:208|-6:226,1,56.6666666666667,2|0,0:0|0:0,0:0:0:0:
53,288,221930,2,0,P|60:329|78:351,1,56.6666666666667
149,373,222313,1,0,0:0:0:0:
149,373,222673,6,0,L|230:373,1,56.6666666666667,2|0,0:0|0:0,0:0:0:0:
225,287,223011,2,0,L|168:286,1,56.6666666666667,2|0,0:0|0:0,0:0:0:0:
289,346,223350,6,0,P|336:327|391:336,1,85,2|2,0:0|0:0,0:0:0:0:
468,147,224091,2,0,P|478:121|478:91,1,56.6666666666667,2|0,0:0|0:0,0:0:0:0:
392,102,224462,6,0,P|349:102|311:84,1,85,2|0,0:0|0:0,0:0:0:0:
144,192,225098,1,2,0:0:0:0:
311,299,225450,2,0,P|349:281|392:282,1,85,2|0,0:0|0:0,0:0:0:0:
248,360,226038,1,0,0:0:0:0:
247,360,226172,6,0,P|212:366|177:355,1,73.6666632944744,6|0,0:0|0:0,0:0:0:0:
220,281,226528,2,0,P|231:246|224:210,1,73.6666632944744
157,157,226885,1,0,0:0:0:0:
157,157,227242,6,0,P|122:145|86:152,1,73.6666632944744
10,113,227599,2,0,P|-1:147|5:183,1,73.6666632944744
69,240,227956,1,0,0:0:0:0:
69,240,228313,6,0,P|75:275|64:310,1,73.6666632944744
0,341,228670,2,0,P|28:317|64:310,1,73.6666632944744,2|0,0:0|0:0,0:0:0:0:
180,354,229027,6,0,P|232:367|284:350,1,110.499994941712,2|0,0:0|0:0,0:0:0:0:
149,115,229741,2,0,P|133:147|139:183,1,73.6666632944744
95,45,230098,6,0,P|146:27|199:41,1,110.499994941712
404,192,230812,1,0,0:0:0:0:
199,342,231169,2,0,P|146:356|95:339,1,110.499994941712
180,192,231764,1,0,0:0:0:0:
180,192,231883,6,0,L|265:203,1,73.6666632944744,2|0,0:0|0:0,0:0:0:0:
307,267,232240,2,0,L|391:256,1,73.6666632944744
435,192,232597,1,0,0:0:0:0:
435,192,232954,6,0,L|519:181,1,73.6666632944744
476,103,233311,2,0,L|402:112,1,73.6666632944744
331,159,233668,1,0,0:0:0:0:
331,159,234025,6,0,L|321:85,1,73.6666632944744
233,194,234382,2,0,L|243:121,1,73.6666632944744,2|0,0:0|0:0,0:0:0:0:
309,249,234739,6,0,P|345:251|379:238,1,73.6666632944744,2|0,0:0|0:0,0:0:0:0:
223,281,235096,2,0,P|190:326|186:380,1,110.499994941712,8|0,0:3|0:0,0:0:0:0:
272,150,235632,2,0,P|304:194|308:248,1,110.499994941712,4|0,0:3|0:0,0:0:0:0:
187,132,236167,6,0,P|150:130|116:143,1,73.6666632944744,2|0,0:0|0:0,0:0:0:0:
272,0,236524,2,0,P|266:36|246:66,1,73.6666632944744,8|0,0:0|0:0,0:0:0:0:
69,33,236881,5,8,0:0:0:0:
99,22,236999,1,8,0:0:0:0:
131,17,237118,1,8,0:0:0:0:
163,19,237237,1,8,0:0:0:0:
194,28,237356,1,8,0:0:0:0:
222,44,237475,1,8,0:0:0:0:
245,66,237595,6,0,L|235:153,1,73.6666632944744,6|0,0:0|0:0,0:0:0:0:
176,205,237833,1,0,0:0:0:0:
106,149,237952,2,0,P|169:115|236:139,1,147.333326588949
292,309,238309,2,0,P|359:332|422:298,1,147.333326588949,8|0,0:0|0:0,0:0:0:0:
343,168,238666,6,0,L|351:241,1,73.6666632944744,6|0,0:0|0:0,0:0:0:0:
264,224,238904,1,0,0:0:0:0:
316,83,239023,2,0,L|493:123,1,147.333326588949
236,139,239380,2,0,L|129:162,1,73.6666632944744,2|0,0:0|0:0,0:0:0:0:
227,41,239618,1,0,0:0:0:0:
325,181,239737,6,0,L|431:204,1,73.6666632944744,8|0,0:0|0:0,0:0:0:0:
316,83,239975,1,0,0:0:0:0:
245,237,240094,2,0,L|138:260,1,73.6666632944744
236,139,240332,1,0,0:0:0:0:
334,279,240451,6,0,L|440:302,1,73.6666632944744,6|0,0:0|0:0,0:0:0:0:
325,181,240689,1,0,0:0:0:0:
254,335,240808,2,0,L|147:358,1,73.6666632944744
245,237,241046,1,0,0:0:0:0:
343,377,241165,6,0,L|391:226,1,147.333326588949,8|0,0:0|0:0,0:0:0:0:
299,69,241522,2,0,P|386:129|387:236,1,220.999989883423,6|0,0:0|0:0,0:0:0:0:
387,236,242236,6,0,B|496:255|496:255|459:217,1,147.333326588949,2|0,0:0|0:0,0:0:0:0:
336,165,242593,2,0,P|305:264|390:323,1,220.999989883423,12|2,0:0|0:0,0:0:0:0:
160,158,243307,6,0,P|195:160|239:188,1,73.6666632944744,6|0,0:0|0:0,0:0:0:0:
171,246,243545,1,0,0:0:0:0:
64,357,243664,2,0,L|91:195,1,147.333326588949
259,259,244021,2,0,P|308:210|295:120,1,147.333326588949,8|0,0:0|0:0,0:0:0:0:
76,139,244378,6,0,L|96:263,1,73.6666632944744,6|0,0:0|0:0,0:0:0:0:
171,246,244616,1,0,0:0:0:0:
304,135,244735,2,0,L|449:159,1,147.333326588949
316,270,245092,2,0,L|170:245,1,147.333326588949,2|0,0:0|0:0,0:0:0:0:
219,49,245449,6,0,P|253:111|232:180,1,147.333326588949,8|0,0:0|0:0,0:0:0:0:
26,126,245806,2,0,B|63:103|63:103|165:120,1,147.333326588949
382,222,246163,6,0,P|379:112|318:22,1,220.999989883423,6|0,0:0|0:0,0:0:0:0:
333,295,246877,2,0,P|391:252|464:254,1,147.333326588949,8|0,0:0|0:0,0:0:0:0:
333,295,247234,6,0,P|234:334|136:290,1,220.999989883423,6|0,0:0|0:0,0:0:0:0:
463,253,247948,2,0,P|496:188|492:115,1,147.333326588949,2|0,0:0|0:0,0:0:0:0:
332,19,248305,2,0,P|328:91|361:156,1,147.333326588949,8|0,0:0|0:0,0:0:0:0:
463,253,248662,1,2,0:0:0:0:
49,253,249019,6,0,P|15:188|19:115,1,147.333326588949,8|0,0:0|0:0,0:0:0:0:
256,12,249376,2,0,L|256:160,1,147.333326588949,4|0,0:3|0:0,0:0:0:0:
463,253,249733,2,0,P|496:188|492:115,1,147.333326588949,4|0,0:3|0:0,0:0:0:0:
138,351,250090,6,0,P|65:354|0:323,1,147.333326588949,6|0,0:0|0:0,0:0:0:0:
374,351,250447,2,0,P|446:354|512:323,1,147.333326588949
256,160,250804,2,0,L|256:307,1,147.333326588949,2|0,0:0|0:0,0:0:0:0:
463,253,251161,5,8,0:0:0:0:
481,183,251280,1,8,0:0:0:0:
430,132,251399,1,8,0:3:0:0:
360,151,251518,1,8,0:3:0:0:
308,99,251637,1,4,0:3:0:0:
327,29,251756,1,4,0:3:0:0:
397,8,251875,6,0,P|450:102|412:202,1,220.999989883423,6|0,0:0|0:0,0:0:0:0:
150,377,252410,2,0,L|101:373,3,36.8333316472372,8|8|8|4,0:3|0:3|0:3|0:3,0:0:0:0:
99,181,252946,6,0,P|61:281|114:375,1,220.999989883423,6|0,0:0|0:0,0:0:0:0:
348,81,253660,2,0,L|470:101,1,110.499994941712,2|0,0:0|0:0,0:0:0:0:
256,192,254017,1,8,0:0:0:0:
164,80,254195,2,0,L|383:116,1,220.999989883423,6|0,0:0|0:0,0:0:0:0:
73,163,254731,6,0,P|56:196|54:242,1,73.6666632944744,6|0,0:0|0:0,0:0:0:0:
105,303,254969,1,0,0:0:0:0:
190,274,255088,2,0,P|170:243|141:222,1,73.6666632944744
16,313,255325,1,0,0:0:0:0:
171,360,255444,2,0,P|223:354|275:251,1,147.333326588949,8|0,0:0|0:0,0:0:0:0:
230,127,255801,6,0,L|237:201,1,73.6666632944744,6|0,0:0|0:0,0:0:0:0:
190,274,256039,1,0,0:0:0:0:
143,117,256158,2,0,L|150:191,1,73.6666632944744
102,264,256396,1,0,0:0:0:0:
56,107,256515,6,0,L|62:180,1,73.6666632944744,2|0,0:0|0:0,0:0:0:0:
14,254,256753,1,0,0:0:0:0:
183,347,256872,2,0,L|189:273,1,73.6666632944744,8|0,0:0|0:0,0:0:0:0:
150,191,257110,1,0,0:0:0:0:
102,264,257229,2,0,L|279:283,1,147.333326588949
421,198,257586,6,0,P|315:196|247:279,1,220.999989883423,6|0,0:0|0:0,0:0:0:0:
490,141,258300,2,0,P|508:182|441:286,1,147.333326588949,8|0,0:0|0:0,0:0:0:0:
247,279,258657,2,0,P|353:276|421:359,1,220.999989883423,6|0,0:0|0:0,0:0:0:0:
506,31,259371,6,0,L|485:166,1,110.499994941712,12|0,0:0|0:0,0:0:0:0:
286,130,259728,2,0,L|306:265,1,110.499994941712,12|0,0:0|0:0,0:0:0:0:
98,30,260085,2,0,L|82:140,1,110.499994941712,2|0,0:0|0:0,0:0:0:0:
53,321,260442,6,0,P|81:322|106:334,1,56.6666666666667,12|0,0:0|0:0,0:0:0:0:
166,274,260686,1,0,0:0:0:0:
166,274,260808,2,0,P|194:273|219:261,1,56.6666666666667
278,321,261053,1,0,0:0:0:0:
278,321,261175,2,0,P|306:321|331:333,1,56.6666666666667,2|0,0:0|0:0,0:0:0:0:
424,190,261542,6,0,P|395:190|370:202,1,56.6666666666667
311,142,261786,1,0,0:0:0:0:
311,142,261908,2,0,P|282:141|257:129,1,56.6666666666667,2|0,0:0|0:0,0:0:0:0:
199,189,262139,1,0,0:0:0:0:
199,189,262255,2,0,P|170:189|145:201,1,56.6666666666667
299,29,262603,6,0,L|315:181,1,113.333333333333,2|0,0:0|0:0,0:0:0:0:
210,301,262950,2,0,L|194:149,1,113.333333333333,12|0,0:0|0:0,0:0:0:0:
391,77,263298,6,0,P|422:78|451:90,1,62.3333352355958,12|0,0:0|0:0,0:0:0:0:
495,158,263534,1,0,0:0:0:0:
451,225,263652,2,0,P|422:237|391:238,1,62.3333352355958
347,305,263888,1,0,0:0:0:0:
391,370,264006,2,0,P|419:382|450:383,1,62.3333352355958,2|0,0:0|0:0,0:0:0:0:
121,370,264360,6,0,P|92:382|61:383,1,62.3333352355958
16,315,264596,1,0,0:0:0:0:
61,246,264714,2,0,P|92:248|121:260,1,62.3333352355958,2|0,0:0|0:0,0:0:0:0:
180,315,264954,1,0,0:0:0:0:
239,370,265074,2,0,P|269:368|298:356,1,62.3333352355958
132,139,265435,6,0,P|113:220|135:289,1,124.666670471192,2|0,0:0|0:0,0:0:0:0:
391,259,265796,2,0,P|398:229|394:197,1,62.3333352355958,12|0,0:0|0:0,0:0:0:0:
345,133,266037,1,0,0:0:0:0:
314,280,266157,6,0,L|205:299,1,67.9999979248048,12|0,0:0|0:0,0:0:0:0:
200,216,266398,1,0,0:0:0:0:
345,133,266518,2,0,L|454:152,1,67.9999979248048
459,69,266759,1,0,0:0:0:0:
278,71,266880,2,0,P|256:134|280:195,1,135.99999584961,2|0,0:0|0:0,0:0:0:0:
492,219,267241,6,0,L|503:152,1,67.9999979248048,8|0,0:0|0:0,0:0:0:0:
459,69,267482,1,0,0:0:0:0:
281,196,267603,2,0,L|292:262,1,67.9999979248048,10|0,0:0|0:0,0:0:0:0:
343,339,267840,1,0,0:0:0:0:
416,181,267959,2,0,L|280:195,1,135.99999584961,8|0,0:0|0:0,0:0:0:0:
86,356,268315,2,0,L|221:341,1,135.99999584961,8|0,0:0|0:0,0:0:0:0:
467,118,268671,2,0,L|452:253,1,135.99999584961,12|0,0:0|0:0,0:0:0:0:
45,266,269028,6,0,L|71:24,1,220.999989883423,12|0,0:0|0:0,0:0:0:0:
256,192,269561,1,8,0:0:0:0:
162,338,269739,2,0,L|149:228,1,110.499994941712,2|0,0:0|0:0,0:0:0:0:
374,46,270095,2,0,L|361:155,1,110.499994941712,12|0,0:0|0:0,0:0:0:0:
442,337,270450,6,0,L|457:205,1,110.499994941712,2|8,0:0|0:0,0:0:0:0:
348,264,270717,1,8,0:0:0:0:
348,264,270806,2,0,P|322:257|255:177,1,110.499994941712,8|8,0:0|0:3,0:0:0:0:
163,119,271162,2,0,P|190:127|257:207,1,110.499994941712,4|4,0:3|0:3,0:0:0:0:
69,337,271518,2,0,L|54:205,1,110.499994941712,8|0,0:0|0:0,0:0:0:0:
255,367,271873,6,0,P|309:377|358:353,1,110.499994941712,2|0,0:0|0:0,0:0:0:0:
411,256,272614,1,2,0:0:0:0:
307,216,272985,2,0,L|290:89,1,110.499994941712,2|0,0:0|0:0,0:0:0:0:
388,51,273706,1,0,0:0:0:0:
484,105,274056,2,0,P|446:145|394:161,1,110.499994941712,2|2,0:0|0:0,0:0:0:0:
302,217,274757,6,0,P|289:270|304:322,2,110.499994941712,2|2|2,0:0|0:0|0:0,0:0:0:0:
298,108,275837,2,0,P|258:70|205:57,1,110.499994941712,2|0,0:0|0:0,0:0:0:0:
110,120,276558,1,2,0:0:0:0:
116,228,276919,2,0,P|155:265|208:278,1,110.499994941712,2|2,0:0|0:0,0:0:0:0:
307,221,277641,6,0,L|300:340,1,110.499994941712,2|2,0:0|0:0,0:0:0:0:
400,377,278341,1,2,0:0:0:0:
491,314,278691,2,0,P|450:277|396:266,1,110.499994941712,2|0,0:0|0:0,0:0:0:0:
300,331,279392,1,0,0:0:0:0:
195,279,279743,2,0,P|178:227|190:174,1,110.499994941712,2|2,0:0|0:0,0:0:0:0:
280,116,280446,6,0,P|297:168|286:222,2,110.499994941712,2|2|2,0:0|0:0|0:0,0:0:0:0:
183,64,281532,2,0,L|57:57,1,110.499994941712,2|0,0:0|0:0,0:0:0:0:
13,151,282257,1,2,0:0:0:0:
88,230,282619,2,0,P|140:211|193:221,1,110.499994941712
267,306,283344,6,0,P|318:324|371:314,1,110.499994941712,2|0,0:0|0:0,0:0:0:0:
454,241,284053,1,2,0:0:0:0:
371,167,284407,2,0,P|318:157|267:176,1,110.499994941712,2|0,0:0|0:0,0:0:0:0:
205,268,285125,1,0,0:0:0:0:
95,260,285488,2,0,P|53:225|35:174,1,110.499994941712,2|2,0:0|0:0,0:0:0:0:
93,74,286214,6,0,L|219:87,1,110.499994941712,2|2,0:0|0:0,0:0:0:0:
264,177,286911,1,2,0:0:0:0:
361,229,287259,2,0,L|487:216,1,110.499994941712,2|0,0:0|0:0,0:0:0:0:
511,114,287965,1,2,0:0:0:0:
436,32,288323,2,0,P|405:76|401:131,1,110.499994941712,2|2,0:0|0:0,0:0:0:0:
470,217,289038,6,0,P|501:261|505:315,2,110.499994941712,2|2|2,0:0|0:0|0:0,0:0:0:0:
360,232,290132,2,0,L|243:249,1,110.499994941712,2|0,0:0|0:0,0:0:0:0:
166,319,290856,1,0,0:0:0:0:
75,255,291216,2,0,P|58:203|76:152,1,110.499994941712,2|2,0:0|0:0,0:0:0:0:
171,91,291935,6,0,L|288:108,1,110.499994941712,2|2,0:0|0:0,0:0:0:0:
389,121,292642,1,2,0:0:0:0:
429,223,292996,2,0,P|364:228|309:197,1,110.499994941712,2|0,0:0|0:0,0:0:0:0:
280,106,293703,1,2,0:0:0:0:
348,18,294028,2,0,P|413:13|468:44,1,110.499994941712
504,136,294833,6,0,B|457:149|416:194|416:194|419:219|440:245|440:245|407:251|384:200|351:206|351:206|332:242|332:242|-21:372|-21:372|305:184|305:184|344:192|344:192|370:171|346:120|372:100|372:100|378:132|396:150|396:150|457:149|497:121,1,1360,6|0,0:0|0:0,0:0:0:0:
