osu file format v14

[General]
AudioFilename: audio.mp3
AudioLeadIn: 0
PreviewTime: 66063
Countdown: 0
SampleSet: Soft
StackLeniency: 0.7
Mode: 0
LetterboxInBreaks: 0
WidescreenStoryboard: 0

[Editor]
Bookmarks: 26811
DistanceSpacing: 1.2
BeatDivisor: 2
GridSize: 32
TimelineZoom: 1.9

[Metadata]
Title:ALONES (TV Size)
TitleUnicode:ALONES (TV Size)
Artist:Aqua Timez
ArtistUnicode:Aqua Timez
Creator:mnyui
Version:Solitude
Source:BLEACH
Tags:gelidium anime opening theme op 6 six japanese rock arrancar hueco mundo ブリーチ ダレカの地上絵 dareka no chijou e times
BeatmapID:3623866
BeatmapSetID:1770247

[Difficulty]
HPDrainRate:6
CircleSize:4
OverallDifficulty:9
ApproachRate:9.3
SliderMultiplier:1.8
SliderTickRate:1

[Events]
//Background and Video events
0,0,"r.jpg",0,0
Video,-645,"opening.mp4"
//Break Periods
//Storyboard Layer 0 (Background)
//Storyboard Layer 1 (Fail)
//Storyboard Layer 2 (Pass)
//Storyboard Layer 3 (Foreground)
//Storyboard Layer 4 (Overlay)
//Storyboard Sound Samples

[TimingPoints]
1278,315.258511979823,4,2,1,50,1,0
1278,-125,4,2,1,50,0,0
11366,-125,4,2,1,50,0,0
12627,-125,4,2,1,50,0,0
12863,-125,4,2,1,5,0,0
12942,-125,4,2,1,50,0,0
15385,-125,4,2,1,5,0,0
15464,-125,4,2,1,50,0,0
19168,-125,4,2,1,5,0,0
19247,-125,4,2,1,50,0,0
21454,-100,4,2,1,80,0,0
26498,-111.111111111111,4,2,1,70,0,0
29020,-111.111111111111,4,2,1,70,0,0
29257,-111.111111111111,4,2,1,5,0,0
29336,-111.111111111111,4,2,1,70,0,0
31464,-111.111111111111,4,2,1,5,0,0
31542,-111.111111111111,4,2,1,70,0,0
32804,-111.111111111111,4,2,1,70,0,0
34064,-111.111111111111,4,2,1,70,0,0
36192,-111.111111111111,4,2,1,5,0,0
36272,-111.111111111111,4,2,1,70,0,0
36586,-111.111111111111,4,2,1,70,0,0
38084,-111.111111111111,4,2,1,5,0,0
38163,-111.111111111111,4,2,1,70,0,0
39109,-111.111111111111,4,2,1,70,0,0
40921,-111.111111111111,4,2,1,5,0,0
41000,-111.111111111111,4,2,1,70,0,0
41631,-111.111111111111,4,2,1,70,0,0
41867,-111.111111111111,4,2,1,5,0,0
41946,-111.111111111111,4,2,1,70,0,0
44153,-111.111111111111,4,2,1,70,0,0
44389,-111.111111111111,4,2,1,5,0,0
44468,-111.111111111111,4,2,1,70,0,0
46675,-100,4,2,1,80,0,0
51719,-111.111111111111,4,2,1,50,0,0
56763,-99.9999999999999,4,2,1,80,0,0
61807,-99.9999999999999,4,2,1,70,0,0
62044,-100,4,2,1,5,0,0
62122,-100,4,2,1,70,0,0
66851,-90.9090909090909,4,2,1,90,0,0
68664,-90.9090909090909,4,2,1,5,0,0
68743,-90.9090909090909,4,2,1,90,0,0
69610,-90.9090909090909,4,2,1,5,0,0
69689,-90.9090909090909,4,2,1,90,0,0
74654,-90.9090909090909,4,2,1,5,0,0
74733,-90.9090909090909,4,2,1,90,0,0
76940,-111.111111111111,4,2,1,70,0,0
78437,-111.111111111111,4,2,1,5,0,0
78516,-111.111111111111,4,2,1,70,0,0
79462,-111.111111111111,4,2,1,70,0,0
80959,-111.111111111111,4,2,1,5,0,0
81038,-111.111111111111,4,2,1,70,0,0
81984,-90.9090909090909,4,2,1,90,0,0
84742,-90.9090909090909,4,2,1,5,0,0
84821,-90.9090909090909,4,2,1,90,0,0
89550,-90.9090909090909,4,2,1,5,0,0

[Colours]
Combo1 : 128,128,192
Combo2 : 158,62,255
Combo3 : 210,150,243

[HitObjects]
7,112,1278,6,0,P|72:118|127:65,1,144,2|0,0:2|0:2,0:2:0:0:
217,11,1750,2,0,L|192:163,1,144,2|0,0:2|0:2,0:2:0:0:
108,205,2223,1,0,0:2:0:0:
254,375,2539,5,2,0:2:0:0:
310,316,2854,1,2,0:2:0:0:
394,333,3169,1,2,0:2:0:0:
445,271,3484,1,2,0:2:0:0:
508,162,3800,6,0,P|418:149|394:99,1,144,2|0,0:2|0:2,0:2:0:0:
450,13,4272,2,0,L|301:47,1,144,2|0,0:2|0:2,0:2:0:0:
312,130,4745,1,2,0:2:0:0:
189,11,5061,5,2,0:2:0:0:
132,72,5376,1,2,0:2:0:0:
60,24,5691,1,2,0:2:0:0:
9,92,6006,2,0,L|17:153,2,36,2|0|0,0:2|0:2|0:2,0:2:0:0:
5,232,6322,6,0,B|82:237|69:197|163:210,1,144,2|0,0:2|0:2,0:2:0:0:
201,264,6795,1,0,0:2:0:0:
296,167,6952,6,0,L|315:9,1,144,2|0,0:2|0:2,0:2:0:0:
118,67,7583,2,0,L|147:220,1,144,2|0,0:2|0:2,0:2:0:0:
329,296,8213,2,0,L|405:307,1,72,2|0,0:2|0:2,0:2:0:0:
502,364,8528,2,0,L|419:383,1,72,2|0,0:2|0:2,0:2:0:0:
438,230,8844,6,0,L|460:54,1,144,2|0,0:2|0:2,0:2:0:0:
345,2,9474,2,0,P|279:37|286:117,1,144,2|0,0:2|0:2,0:2:0:0:
300,227,10105,6,0,B|221:231|244:198|146:209,1,144,2|0,0:2|0:2,0:2:0:0:
93,263,10578,1,0,0:2:0:0:
21,158,10735,2,0,P|90:147|127:79,1,144,2|0,0:2|0:2,0:2:0:0:
348,5,11366,5,2,0:2:0:0:
348,5,11681,1,0,0:2:0:0:
348,5,11996,1,0,0:2:0:0:
348,5,12312,1,0,0:2:0:0:
426,109,12627,6,0,B|414:166|454:162|438:231,1,108,2|0,0:2|0:2,0:2:0:0:
433,223,12942,2,0,L|339:241,1,72,2|0,0:2|0:2,0:2:0:0:
435,308,13257,2,0,L|513:325,1,72,2|0,0:2|0:2,0:2:0:0:
378,378,13573,1,2,0:2:0:0:
277,200,13888,5,2,0:2:0:0:
277,200,14203,1,0,0:2:0:0:
277,200,14518,1,0,0:2:0:0:
277,200,14834,1,0,0:2:0:0:
183,362,15149,6,0,P|118:353|97:298,1,108,2|0,0:2|0:2,0:2:0:0:
86,309,15464,2,0,L|101:232,1,72,2|0,0:2|0:2,0:2:0:0:
174,153,15779,2,0,P|179:191|190:235,1,72,2|0,0:2|0:2,0:2:0:0:
42,155,16095,1,2,0:2:0:0:
102,57,16410,5,2,0:2:0:0:
102,57,16725,1,0,0:2:0:0:
102,57,17040,1,0,0:2:0:0:
184,13,17356,1,0,0:2:0:0:
267,151,17671,6,0,P|337:154|389:107,1,144,2|0,0:2|0:2,0:2:0:0:
462,61,18301,1,0,0:2:0:0:
512,132,18617,1,0,0:2:0:0:
400,217,18932,6,0,L|422:329,1,108,2|0,0:2|0:2,0:2:0:0:
429,331,19247,2,0,L|344:349,1,72,2|0,0:2|0:2,0:2:0:0:
242,257,19562,2,0,L|312:271,1,72,2|0,0:2|0:2,0:2:0:0:
277,384,19878,1,2,0:2:0:0:
153,292,20193,5,2,0:2:0:0:
352,184,20508,1,2,0:2:0:0:
165,119,20824,2,0,L|182:193,1,72,2|0,0:2|0:2,0:2:0:0:
325,33,21139,2,0,L|308:107,1,72,2|0,0:2|0:2,0:2:0:0:
360,264,21454,6,0,P|454:262|516:327,1,180,4|0,3:2|0:2,0:2:0:0:
383,371,21927,1,0,0:2:0:0:
253,230,22085,2,0,P|269:271|278:315,1,90,2|0,3:2|0:2,0:2:0:0:
363,213,22400,1,8,0:2:0:0:
164,124,22557,6,0,L|136:324,1,180,2|0,0:2|0:2,0:2:0:0:
242,173,23030,1,0,0:2:0:0:
50,275,23188,1,0,3:2:0:0:
249,377,23346,2,0,L|229:264,1,90,8|0,0:2|0:2,0:2:0:0:
57,147,23661,1,0,0:2:0:0:
139,304,23818,1,0,0:2:0:0:
389,204,23976,6,0,L|497:167,1,90,10|0,0:2|3:2,0:2:0:0:
324,69,24291,1,0,0:2:0:0:
442,308,24449,2,0,P|369:233|288:246,1,180,2|0,0:2|0:2,0:2:0:0:
6,189,24922,6,0,P|60:120|147:120,1,180,10|0,0:2|0:2,0:2:0:0:
260,19,25395,1,8,0:2:0:0:
318,151,25552,2,0,L|299:238,1,90,0|0,0:2|0:2,0:2:0:0:
168,295,25868,1,8,0:2:0:0:
412,207,26025,5,0,3:2:0:0:
412,207,26104,1,0,3:2:0:0:
412,207,26183,2,0,L|462:217,1,45,8|0,0:2|0:2,0:2:0:0:
511,328,26341,2,0,L|432:342,1,45,0|8,3:2|0:2,0:2:0:0:
235,384,26498,6,0,P|313:325|376:333,1,161.999995056153,4|8,3:2|0:2,0:2:0:0:
257,242,26971,1,2,3:2:0:0:
257,242,27050,1,0,3:2:0:0:
257,242,27129,2,0,P|249:202|236:163,1,80.9999975280763,0|0,3:2|0:2,0:2:0:0:
338,239,27444,1,2,0:2:0:0:
179,306,27602,6,0,L|99:290,1,80.9999975280763,8|0,0:2|0:2,0:2:0:0:
21,192,27917,1,2,3:2:0:0:
173,103,28074,2,0,P|157:141|147:180,1,80.9999975280763,10|2,0:2|0:2,0:2:0:0:
153,184,28311,1,0,3:2:0:0:
158,189,28390,1,0,3:2:0:0:
74,105,28547,1,2,3:2:0:0:
259,204,28705,1,10,0:2:0:0:
79,306,28863,1,2,0:2:0:0:
244,328,29020,6,0,L|390:362,1,121.499996292114,6|0,3:2|0:2,0:2:0:0:
396,356,29336,2,0,L|409:253,1,80.9999975280763,10|0,0:2|0:2,0:2:0:0:
381,194,29651,1,0,3:2:0:0:
381,194,29808,1,0,3:2:0:0:
310,261,29966,1,2,0:2:0:0:
467,177,30124,1,10,0:2:0:0:
358,116,30281,6,0,L|380:193,1,80.9999975280763,2|2,0:2|3:2,0:2:0:0:
491,96,30597,2,0,L|512:17,1,80.9999975280763,10|0,0:2|0:2,0:2:0:0:
507,12,30833,1,0,3:2:0:0:
502,7,30912,1,2,3:2:0:0:
351,105,31069,1,0,3:2:0:0:
474,225,31227,2,0,P|432:183|373:182,1,121.499996292114,10|0,0:2|0:2,0:2:0:0:
307,237,31542,6,0,L|146:266,2,161.999995056153,6|10|0,3:2|0:2|3:2,0:2:0:0:
384,349,32330,2,0,L|304:332,1,80.9999975280763,0|0,3:2|0:2,0:2:0:0:
214,205,32646,1,8,0:2:0:0:
112,380,32803,5,2,0:2:0:0:
49,327,32961,2,0,L|63:247,1,80.9999975280763,2|8,3:2|0:2,0:2:0:0:
137,90,33276,2,0,P|78:142|0:137,1,161.999995056153,2|2,0:2|3:2,0:2:0:0:
117,0,33749,2,0,L|195:17,1,80.9999975280763,10|0,0:2|0:2,0:2:0:0:
315,136,34064,5,6,3:2:0:0:
181,178,34222,1,2,0:2:0:0:
216,28,34380,2,0,L|235:106,1,80.9999975280763,10|0,0:2|0:2,0:2:0:0:
404,171,34695,2,0,P|411:129|423:92,1,80.9999975280763,2|2,3:2|3:2,0:2:0:0:
290,217,35010,1,2,0:2:0:0:
290,217,35168,1,10,0:2:0:0:
417,289,35325,6,0,L|513:309,1,80.9999975280763,2|0,0:2|3:2,0:2:0:0:
369,377,35641,1,10,0:2:0:0:
212,242,35798,1,2,0:2:0:0:
354,170,35956,2,0,L|330:289,1,121.499996292114,2|0,3:2|0:2,0:2:0:0:
320,305,36271,2,0,L|224:325,1,80.9999975280763,10|0,0:2|0:2,0:2:0:0:
4,260,36586,5,4,3:2:0:0:
4,260,36902,1,10,0:2:0:0:
153,348,37059,1,2,0:2:0:0:
63,372,37217,2,0,L|90:275,1,80.9999975280763,2|0,3:2|3:2,0:2:0:0:
173,252,37532,1,2,0:2:0:0:
240,321,37690,1,8,0:2:0:0:
198,155,37847,6,0,P|159:200|100:210,1,121.499996292114,2|0,0:2|0:2,0:2:0:0:
82,201,38163,2,0,L|61:122,1,80.9999975280763,10|0,0:2|0:2,0:2:0:0:
160,6,38478,2,0,P|145:43|138:83,1,80.9999975280763,0|0,3:2|3:2,0:2:0:0:
263,211,38793,2,0,L|355:194,1,80.9999975280763,8|0,0:2|3:2,0:2:0:0:
347,191,39030,1,0,3:2:0:0:
351,186,39109,6,0,P|436:187|483:258,1,161.999995056153,6|10,3:2|0:2,0:2:0:0:
325,327,39581,1,2,0:2:0:0:
423,348,39739,2,0,L|401:269,1,80.9999975280763,2|2,3:2|3:2,0:2:0:0:
484,140,40054,1,2,0:2:0:0:
480,243,40212,1,10,0:2:0:0:
312,127,40370,6,0,L|391:142,1,80.9999975280763,2|2,0:2|0:2,0:2:0:0:
249,272,40685,2,0,L|102:300,1,121.499996292114,10|0,0:2|0:2,0:2:0:0:
115,314,41000,2,0,L|77:216,1,80.9999975280763,2|0,3:2|3:2,0:2:0:0:
247,60,41315,1,10,0:2:0:0:
247,60,41631,6,0,L|223:187,1,121.499996292114,4|0,3:2|0:2,0:2:0:0:
245,187,41946,2,0,L|165:202,1,80.9999975280763,10|0,0:2|0:2,0:2:0:0:
139,99,42261,1,0,3:2:0:0:
332,135,42419,2,0,L|411:150,1,80.9999975280763,0|0,3:2|0:2,0:2:0:0:
512,269,42734,6,0,P|423:276|373:348,1,161.999995056153,8|0,0:2|3:2,0:2:0:0:
253,384,43207,2,0,L|235:304,1,80.9999975280763,8|0,0:2|0:2,0:2:0:0:
167,206,43522,1,2,3:2:0:0:
109,356,43680,1,0,3:0:0:0:
0,286,43837,2,0,L|89:266,1,80.9999975280763,8|0,0:2|0:2,0:2:0:0:
261,101,44153,6,0,L|130:70,1,121.499996292114,6|0,3:2|0:0,0:0:0:0:
123,91,44468,1,10,0:0:0:0:
262,231,44626,2,0,P|314:173|393:169,1,161.999995056153,2|0,0:0|0:0,0:0:0:0:
499,275,45098,1,2,0:0:0:0:
398,334,45256,2,0,L|414:254,1,80.9999975280763,8|0,0:0|0:0,0:0:0:0:
414,254,45571,1,0,3:0:0:0:
500,54,45729,5,8,0:0:0:0:
281,173,45887,1,0,3:0:0:0:
281,173,45965,1,0,3:0:0:0:
281,173,46044,1,8,0:0:0:0:
499,275,46202,1,8,0:0:0:0:
354,53,46359,1,8,0:0:0:0:
354,53,46675,5,14,0:0:0:0:
144,191,46832,1,0,3:0:0:0:
367,296,46990,1,0,3:2:0:0:
233,60,47148,5,10,0:0:0:0:
401,180,47305,1,0,3:0:0:0:
228,274,47463,1,0,3:0:0:0:
77,130,47621,5,14,0:0:0:0:
201,30,47778,2,0,L|221:117,1,90,0|0,3:0|0:0,0:0:0:0:
11,301,48093,2,0,P|134:336|158:402,1,180,2|0,3:2|3:0,0:0:0:0:
305,161,48566,5,12,0:2:0:0:
114,269,48724,1,0,3:2:0:0:
394,352,48882,5,12,0:2:0:0:
210,222,49039,1,0,3:2:0:0:
435,108,49197,6,0,P|425:152|419:196,1,90,14|0,0:2|3:2,0:2:0:0:
221,114,49512,1,0,3:2:0:0:
337,0,49670,6,0,P|345:44|351:88,1,90,14|0,0:2|3:2,0:2:0:0:
194,206,49985,1,0,3:2:0:0:
473,311,50143,6,0,P|410:260|311:267,1,180,12|0,0:0|0:0,0:0:0:0:
194,206,50615,5,0,3:2:0:0:
152,302,50773,1,0,3:2:0:0:
232,360,50931,1,0,3:2:0:0:
312,58,51088,5,12,0:2:0:0:
312,58,51404,5,8,0:2:0:0:
91,217,51561,1,8,0:2:0:0:
340,354,51719,5,4,3:2:0:0:
340,354,52034,1,0,0:0:0:0:
467,289,52192,1,0,0:0:0:0:
467,289,52507,1,0,0:0:0:0:
315,194,52822,5,2,0:0:0:0:
385,266,53138,1,0,0:0:0:0:
385,266,53295,1,0,0:0:0:0:
228,195,53610,1,0,0:0:0:0:
304,106,53926,5,0,0:0:0:0:
353,101,54083,1,0,0:0:0:0:
384,148,54241,1,2,0:0:0:0:
268,309,54556,5,0,0:0:0:0:
268,309,54714,1,0,0:0:0:0:
126,173,55029,1,0,0:0:0:0:
76,357,55344,1,2,0:0:0:0:
157,273,55660,1,0,0:0:0:0:
157,273,55817,1,0,0:0:0:0:
56,257,55975,5,2,0:0:0:0:
173,359,56133,1,0,0:0:0:0:
251,302,56290,1,0,0:0:0:0:
251,302,56369,1,0,0:0:0:0:
251,302,56448,1,0,0:0:0:0:
75,343,56605,1,0,0:0:0:0:
39,166,56763,5,14,0:0:0:0:
213,219,56921,1,0,3:0:0:0:
307,71,57078,1,0,3:2:0:0:
93,275,57236,5,10,0:0:0:0:
289,159,57394,1,0,3:0:0:0:
100,37,57551,1,0,3:0:0:0:
376,125,57709,5,14,0:0:0:0:
234,1,57866,2,0,L|219:89,1,90,0|0,3:0|0:0,0:0:0:0:
93,275,58182,2,0,P|87:191|-12:135,1,180,2|0,3:2|3:0,0:0:0:0:
245,276,58654,5,14,0:2:0:0:
14,363,58812,1,0,3:2:0:0:
153,147,58970,5,14,0:2:0:0:
213,383,59127,1,0,3:2:0:0:
423,324,59285,6,0,L|321:307,1,90,14|0,0:0|0:0,0:0:0:0:
194,374,59600,1,0,3:2:0:0:
337,127,59758,6,0,L|351:215,1,90,14|0,0:0|0:0,0:0:0:0:
156,289,60073,1,0,3:2:0:0:
8,83,60231,6,0,P|77:138|165:132,1,180,14|0,0:0|0:0,0:0:0:0:
308,36,60704,1,0,3:0:0:0:
220,1,60861,2,0,L|240:90,1,90,0|0,0:0|3:0,0:0:0:0:
370,322,61177,5,8,0:2:0:0:
370,322,61492,1,8,0:2:0:0:
197,217,61650,1,8,0:2:0:0:
367,106,61807,6,0,L|513:135,1,135,6|0,3:2|0:0,0:0:0:0:
512,127,62122,1,2,0:2:0:0:
373,229,62280,2,0,L|279:246,1,90,2|8,3:2|0:0,0:0:0:0:
280,69,62595,2,0,P|282:114|291:158,1,90,2|0,0:0|3:0,0:0:0:0:
363,329,62911,2,0,P|291:279|203:284,1,180,2|2,3:2|3:2,0:0:0:0:
24,378,63383,6,0,L|0:199,1,180,10|0,0:0|3:0,0:0:0:0:
172,131,63856,1,0,3:2:0:0:
90,30,64014,2,0,L|77:128,1,90,8|0,0:0|0:0,0:0:0:0:
330,258,64329,5,14,0:2:0:0:
126,312,64487,1,0,3:2:0:0:
261,156,64644,1,0,3:2:0:0:
354,355,64802,5,14,0:2:0:0:
141,204,64960,1,0,3:2:0:0:
381,86,65117,1,0,3:2:0:0:
235,356,65275,5,14,0:2:0:0:
157,92,65433,1,0,3:2:0:0:
324,279,65590,5,14,0:2:0:0:
385,27,65748,1,0,3:2:0:0:
108,222,65905,5,14,0:2:0:0:
422,357,66063,1,0,3:2:0:0:
512,103,66221,5,8,0:0:0:0:
473,82,66299,1,8,0:0:0:0:
428,76,66378,1,8,0:0:0:0:
385,88,66457,1,8,0:0:0:0:
349,114,66536,1,8,0:0:0:0:
325,152,66615,1,8,0:0:0:0:
314,185,66694,2,0,L|252:170,1,45,8|8,0:2|0:2,0:2:0:0:
183,40,66851,6,0,P|75:34|11:129,1,198.000006042481,6|8,3:2|0:0,0:0:0:0:
142,231,67324,1,0,0:0:0:0:
270,174,67482,2,0,L|295:71,1,99.0000030212403,0|0,3:0|0:0,0:0:0:0:
122,144,67797,1,2,3:2:0:0:
309,271,67955,1,8,0:0:0:0:
159,325,68112,6,0,L|45:358,1,99.0000030212403,2|0,0:0|3:0,0:0:0:0:
263,158,68428,2,0,L|418:197,1,148.50000453186,10|0,0:0|0:0,0:0:0:0:
416,217,68743,1,2,0:2:0:0:
320,77,68900,1,0,3:2:0:0:
477,12,69058,2,0,P|458:58|450:107,1,99.0000030212403,8|0,0:0|0:0,0:0:0:0:
504,300,69373,6,0,P|435:294|365:364,1,148.50000453186,6|0,3:2|0:2,0:2:0:0:
299,356,69689,2,0,P|205:367|142:295,1,198.000006042481,8|0,0:0|3:0,0:0:0:0:
289,167,70161,1,0,3:2:0:0:
184,139,70319,2,0,P|201:185|213:233,1,99.0000030212403,2|8,0:0|0:0,0:0:0:0:
18,175,70634,5,2,0:2:0:0:
195,54,70792,1,0,3:2:0:0:
7,6,70950,1,8,0:2:0:0:
109,208,71107,1,0,3:2:0:0:
285,73,71265,6,0,P|335:86|397:93,1,99.0000030212403,2|0,3:2|3:0,0:0:0:0:
497,230,71580,2,0,L|399:247,1,99.0000030212403,10|0,0:0|3:0,0:0:0:0:
341,335,71817,5,0,3:0:0:0:
336,346,71895,2,0,P|259:319|245:207,1,198.000006042481,6|8,3:2|0:0,0:0:0:0:
306,152,72368,1,0,0:0:0:0:
190,73,72526,2,0,P|140:86|84:95,1,99.0000030212403,2|0,0:0|3:0,0:0:0:0:
241,213,72841,1,2,0:2:0:0:
343,24,72999,1,8,0:2:0:0:
443,135,73156,6,0,P|430:182|422:231,1,99.0000030212403,2|0,0:0|0:0,0:0:0:0:
182,364,73472,2,0,L|158:249,1,99.0000030212403,10|0,0:0|0:0,0:0:0:0:
316,160,73787,1,2,3:2:0:0:
288,320,73945,1,0,3:0:0:0:
99,188,74102,2,0,P|152:181|214:164,1,99.0000030212403,10|0,0:0|0:0,0:0:0:0:
397,362,74417,6,0,P|479:357|508:279,1,148.50000453186,4|0,3:2|0:0,0:0:0:0:
456,240,74733,2,0,L|475:120,1,99.0000030212403,10|0,0:0|0:0,0:0:0:0:
273,27,75048,2,0,P|287:74|298:123,1,99.0000030212403,2|0,3:2|3:0,0:0:0:0:
293,128,75284,1,0,3:0:0:0:
288,133,75363,1,2,3:2:0:0:
406,46,75521,1,8,0:2:0:0:
317,233,75679,6,0,L|207:210,1,99.0000030212403,2|0,3:2|0:0,0:0:0:0:
47,71,75994,2,0,P|100:65|143:50,1,99.0000030212403,10|0,0:2|0:0,0:0:0:0:
391,173,76309,5,10,0:2:0:0:
182,123,76467,1,8,0:2:0:0:
389,298,76624,1,10,0:2:0:0:
146,384,76782,1,8,0:2:0:0:
308,191,76940,6,0,P|386:185|447:235,1,161.999995056153,6|0,3:2|0:0,0:0:0:0:
389,298,77412,1,0,3:2:0:0:
216,218,77570,2,0,L|236:106,1,80.9999975280763,8|0,0:2|0:2,0:2:0:0:
286,56,77885,1,2,0:0:0:0:
364,108,78043,1,8,0:2:0:0:
215,130,78201,6,0,L|72:104,1,121.499996292114,2|0,3:2|0:0,0:0:0:0:
79,93,78516,2,0,L|98:13,1,80.9999975280763,2|0,0:0|3:0,0:0:0:0:
4,163,78831,2,0,L|28:343,1,161.999995056153,10|2,0:0|3:2,0:0:0:0:
116,384,79304,1,0,3:2:0:0:
232,303,79462,6,0,B|326:315|305:267|420:296,1,161.999995056153,6|0,3:2|0:0,0:0:0:0:
512,331,79934,1,0,3:0:0:0:
487,181,80092,2,0,L|469:260,1,80.9999975280763,8|0,0:0|0:0,0:0:0:0:
347,185,80407,1,2,0:0:0:0:
415,128,80565,1,8,0:0:0:0:
259,153,80723,6,0,L|241:26,1,121.499996292114,2|0,3:2|0:0,0:0:0:0:
256,21,81038,2,0,L|362:5,1,80.9999975280763,2|0,0:0|3:0,0:0:0:0:
166,138,81353,2,0,P|126:130|85:126,1,80.9999975280763,10|0,0:0|3:0,0:0:0:0:
10,53,81668,1,10,0:2:0:0:
0,300,81826,5,8,0:2:0:0:
0,300,81905,1,8,0:2:0:0:
0,300,81984,2,0,P|95:310|166:245,1,198.000006042481,6|8,3:2|0:0,0:0:0:0:
323,160,82457,1,0,3:2:0:0:
203,25,82614,2,0,L|231:130,1,99.0000030212403,0|0,3:0|0:0,0:0:0:0:
407,200,82929,1,2,0:0:0:0:
248,294,83087,1,8,0:0:0:0:
346,72,83245,6,0,P|393:86|442:91,1,99.0000030212403,2|0,0:0|3:0,0:0:0:0:
511,278,83560,2,0,L|413:296,1,99.0000030212403,10|0,0:0|3:0,0:0:0:0:
366,358,83796,1,0,3:0:0:0:
366,358,83875,2,0,P|318:343|269:338,1,99.0000030212403,2|0,3:2|3:0,0:0:0:0:
169,162,84190,2,0,L|150:269,1,99.0000030212403,8|0,0:0|0:0,0:0:0:0:
403,173,84506,6,0,P|426:101|368:29,1,148.50000453186,6|0,3:2|0:0,0:0:0:0:
375,30,84821,2,0,L|277:48,1,99.0000030212403,10|0,0:0|3:0,0:0:0:0:
71,146,85136,5,10,0:2:0:0:
281,211,85294,1,0,3:2:0:0:
72,272,85452,5,8,0:2:0:0:
154,57,85609,1,0,3:2:0:0:
181,215,85767,6,0,L|197:316,1,99.0000030212403,2|0,3:2|0:2,0:2:0:0:
440,376,86082,5,10,0:2:0:0:
288,307,86240,1,0,3:2:0:0:
433,167,86397,5,10,0:2:0:0:
181,215,86555,1,0,3:2:0:0:
365,30,86713,5,10,0:2:0:0:
57,225,86870,1,8,0:2:0:0:
57,225,86949,1,0,3:0:0:0:
57,225,87028,1,6,3:2:0:0:
256,192,87107,12,0,89550,0:2:0:0:
