osu file format v14

[General]
AudioFilename: audio.mp3
AudioLeadIn: 0
PreviewTime: 66063
Countdown: 0
SampleSet: Soft
StackLeniency: 0.7
Mode: 0
LetterboxInBreaks: 0
WidescreenStoryboard: 1

[Editor]
DistanceSpacing: 1.2
BeatDivisor: 2
GridSize: 32
TimelineZoom: 1.9

[Metadata]
Title:ALONES (TV Size)
TitleUnicode:ALONES (TV Size)
Artist:Aqua Timez
ArtistUnicode:Aqua Timez
Creator:mnyui
Version:Normal
Source:BLEACH
Tags:gelidium anime opening theme op 6 six japanese rock arrancar hueco mundo ブリーチ ダレカの地上絵 dareka no chijou e times
BeatmapID:3625260
BeatmapSetID:1770247

[Difficulty]
HPDrainRate:3
CircleSize:3.6
OverallDifficulty:4
ApproachRate:5
SliderMultiplier:1.1
SliderTickRate:1

[Events]
//Background and Video events
0,0,"r.jpg",0,0
Video,-645,"opening.mp4"
//Break Periods
2,51919,55563
//Storyboard Layer 0 (Background)
//Storyboard Layer 1 (Fail)
//Storyboard Layer 2 (Pass)
//Storyboard Layer 3 (Foreground)
//Storyboard Layer 4 (Overlay)
//Storyboard Sound Samples

[TimingPoints]
1278,315.258511979823,4,2,1,50,1,0
1278,-125,4,2,1,50,0,0
11366,-100,4,2,1,50,0,0
12627,-100,4,2,1,50,0,0
12942,-100,4,2,1,50,0,0
15464,-100,4,2,1,50,0,0
19247,-100,4,2,1,50,0,0
21454,-100,4,2,1,80,0,0
26498,-100,4,2,1,70,0,0
29020,-100,4,2,1,70,0,0
29336,-100,4,2,1,70,0,0
31542,-100,4,2,1,70,0,0
32804,-100,4,2,1,70,0,0
34064,-100,4,2,1,70,0,0
36272,-100,4,2,1,70,0,0
36586,-100,4,2,1,70,0,0
38163,-100,4,2,1,70,0,0
39109,-100,4,2,1,70,0,0
41000,-100,4,2,1,70,0,0
41631,-100,4,2,1,70,0,0
41946,-100,4,2,1,70,0,0
44153,-100,4,2,1,70,0,0
44468,-100,4,2,1,70,0,0
46675,-100,4,2,1,80,0,0
51719,-100,4,2,1,50,0,0
56763,-100,4,2,1,80,0,0
61807,-100,4,2,1,70,0,0
62122,-100,4,2,1,70,0,0
66851,-100,4,2,1,90,0,0
68743,-100,4,2,1,90,0,0
69689,-100,4,2,1,90,0,0
74733,-100,4,2,1,90,0,0
76940,-100,4,2,1,70,0,0
78516,-100,4,2,1,70,0,0
79462,-100,4,2,1,70,0,0
81038,-100,4,2,1,70,0,0
81984,-100,4,2,1,90,0,0
84821,-100,4,2,1,90,0,0
89550,-100,4,2,1,5,0,0

[Colours]
Combo1 : 128,128,192
Combo2 : 158,62,255
Combo3 : 210,150,243

[HitObjects]
86,73,1278,6,0,B|132:55|186:102|163:158,1,132,2|2,0:2|0:2,0:0:0:0:
72,216,2223,1,0,0:2:0:0:
105,288,2539,1,2,0:2:0:0:
182,273,2854,1,2,0:2:0:0:
239,327,3169,2,0,L|334:313,1,88,2|2,0:2|0:2,0:0:0:0:
388,360,3800,6,0,B|439:333|450:292|403:237,1,132,2|2,0:2|0:2,0:0:0:0:
340,147,4745,1,2,0:2:0:0:
271,187,5061,2,0,L|169:206,1,88,2|2,0:2|0:2,0:0:0:0:
128,258,5691,1,2,0:2:0:0:
72,201,6006,2,0,L|83:97,1,88,2|2,0:2|0:2,0:0:0:0:
211,22,6952,6,0,L|311:37,1,88,2|0,0:2|0:2,0:0:0:0:
371,5,7583,1,2,0:2:0:0:
437,47,7898,2,0,L|419:148,1,88,2|2,0:2|0:2,0:0:0:0:
383,202,8528,1,2,0:2:0:0:
308,175,8844,6,0,L|203:190,1,88,2|0,0:2|0:2,0:0:0:0:
154,144,9474,1,2,0:2:0:0:
80,173,9789,1,0,0:2:0:0:
58,249,10105,2,0,L|75:352,1,88,2|0,0:2|0:2,0:0:0:0:
141,374,10735,2,0,L|232:359,1,88,2|0,0:2|0:2,0:0:0:0:
325,377,11366,6,0,B|371:345|371:262|296:225,1,165,2|0,0:2|0:0,0:0:0:0:
168,265,12312,1,0,0:2:0:0:
115,180,12627,2,0,L|134:64,1,110,2|2,0:2|0:2,0:0:0:0:
213,14,13257,1,2,0:2:0:0:
287,79,13573,1,2,0:2:0:0:
376,35,13888,2,0,B|344:74|421:163|379:208,1,165,2|2,0:2|0:0,0:0:0:0:
318,326,14834,1,0,0:2:0:0:
235,270,15149,6,0,L|110:292,1,110,2|2,0:2|0:2,0:0:0:0:
49,350,15779,2,0,L|33:234,1,110,2|2,0:2|0:2,0:0:0:0:
85,156,16410,2,0,B|132:127|215:196|261:156,1,165,2|2,0:2|0:0,0:0:0:0:
351,60,17356,1,0,0:2:0:0:
432,116,17671,6,0,L|411:246,1,110,2|0,0:2|0:2,0:0:0:0:
466,308,18301,2,0,B|404:286|359:343,1,110,2|2,0:2|0:2,0:0:0:0:
276,376,18932,1,2,0:2:0:0:
200,312,19247,1,2,0:2:0:0:
271,243,19562,2,0,L|287:126,1,110,2|2,0:2|0:2,0:0:0:0:
226,54,20193,1,2,0:2:0:0:
497,373,21454,5,4,3:2:0:0:
497,373,21612,2,0,L|479:249,1,110,2|0,0:0|0:2,0:0:0:0:
441,234,22085,1,0,3:2:0:0:
483,146,22400,1,8,0:2:0:0:
483,146,22557,2,0,P|405:124|386:85,1,110,2|0,0:2|0:2,0:0:0:0:
372,57,23030,2,0,L|293:68,1,55,0|0,0:2|3:2,0:0:0:0:
275,38,23346,2,0,P|230:94|239:148,1,110,8|0,0:2|0:2,0:0:0:0:
294,205,23976,6,0,L|279:318,1,110,8|0,0:2|0:2,0:0:0:0:
300,358,24449,2,0,L|181:345,1,110,2|0,0:2|0:2,0:0:0:0:
149,373,24922,2,0,B|90:365|51:283|124:231|124:231,1,165,8|8,0:2|0:2,0:0:0:0:
159,231,25552,1,0,0:2:0:0:
229,160,25868,2,0,L|218:84,1,55,8|0,0:2|3:2,0:0:0:0:
180,77,26183,2,0,L|192:7,1,55,8|0,0:2|3:2,0:0:0:0:
234,1,26498,6,0,L|345:22,1,110,4|8,3:2|0:2,0:0:0:0:
439,3,27129,2,0,L|423:73,1,55,0|0,3:2|0:2,0:0:0:0:
467,85,27444,2,0,L|482:204,1,110,2|0,0:2|0:2,0:0:0:0:
495,291,28074,2,0,L|434:280,1,55,10|2,0:2|0:2,0:0:0:0:
401,252,28390,2,0,L|292:271,1,110,0|10,3:2|0:2,0:0:0:0:
236,352,29020,5,6,3:2:0:0:
136,367,29336,2,0,B|93:361|65:302|117:264|117:264,1,110,10|0,0:2|3:2,0:0:0:0:
168,206,29966,2,0,L|153:142,1,55,2|10,0:2|0:2,0:0:0:0:
140,104,30281,2,0,L|7:132,1,110,2|10,0:2|0:2,0:0:0:0:
9,30,30912,2,0,L|68:38,1,55,2|0,3:2|3:2,0:0:0:0:
106,12,31227,1,10,0:2:0:0:
201,38,31542,5,6,3:2:0:0:
301,10,31858,2,0,L|289:122,1,110,10|0,0:2|3:2,0:0:0:0:
252,152,32330,1,0,3:2:0:0:
194,233,32646,1,8,0:2:0:0:
194,233,32803,2,0,L|208:344,1,110,2|8,0:2|0:2,0:0:0:0:
246,372,33276,2,0,P|293:373|341:333,1,110,2|2,0:2|3:2,0:0:0:0:
355,287,33749,1,10,0:2:0:0:
449,256,34064,6,0,L|459:194,1,55,6|2,3:2|0:2,0:0:0:0:
485,160,34380,1,10,0:2:0:0:
450,67,34695,2,0,L|381:84,1,55,2|2,3:2|3:2,0:0:0:0:
360,113,35010,2,0,L|286:103,1,55,2|10,0:2|0:2,0:0:0:0:
266,74,35325,5,2,0:2:0:0:
185,16,35641,2,0,L|175:88,1,55,10|2,0:2|0:2,0:0:0:0:
142,105,35956,1,2,3:2:0:0:
59,159,36271,2,0,L|76:284,1,110,10|4,0:2|3:2,0:0:0:0:
151,330,36902,6,0,L|209:319,1,55,10|2,0:2|0:2,0:0:0:0:
247,344,37217,2,0,L|256:215,1,110,2|2,3:2|0:2,0:0:0:0:
212,144,37847,2,0,L|201:69,1,55,2|0,0:2|0:0,0:0:0:0:
226,44,38163,2,0,B|267:11|352:39|350:103,1,165,10|0,0:2|3:2,0:0:0:0:
328,144,38793,1,8,0:2:0:0:
359,238,39109,6,0,L|492:219,1,110,6|10,3:2|0:2,0:0:0:0:
510,247,39581,1,2,0:2:0:0:
510,247,39739,2,0,L|501:320,1,55,2|2,3:2|3:2,0:0:0:0:
469,338,40054,1,2,0:2:0:0:
380,292,40370,6,0,L|314:305,1,55,2|2,0:2|0:2,0:0:0:0:
290,337,40685,1,10,0:2:0:0:
207,283,41000,2,0,L|221:204,1,55,2|0,3:2|3:2,0:0:0:0:
244,187,41315,6,0,B|282:149|365:233|435:173,1,165,10|0,0:2|0:0,0:0:0:0:
447,167,41946,2,0,B|493:123|465:32|385:34,1,165,10|0,0:2|3:2,0:0:0:0:
318,8,42734,2,0,L|209:25,1,110,8|0,0:0|3:2,0:0:0:0:
161,11,43207,1,8,0:2:0:0:
79,64,43522,1,2,3:2:0:0:
79,64,43680,2,0,L|93:180,1,110,0|2,3:0|0:2,0:0:0:0:
125,209,44153,5,6,3:2:0:0:
64,287,44468,1,10,0:0:0:0:
64,287,44626,2,0,P|103:323|157:325,1,110,2|0,0:0|0:0,0:0:0:0:
194,357,45098,2,0,L|313:337,1,110,2|0,0:0|0:0,0:0:0:0:
397,367,45729,1,8,0:0:0:0:
430,273,46044,1,8,0:0:0:0:
353,210,46359,1,8,0:0:0:0:
256,232,46675,6,0,P|231:176|266:126,1,110,14|0,0:0|3:2,0:0:0:0:
260,87,47148,2,0,L|373:108,1,110,10|0,0:0|3:0,0:0:0:0:
412,85,47621,1,14,0:0:0:0:
412,85,47778,1,0,3:0:0:0:
484,163,48093,2,0,L|461:288,1,110,2|0,3:2|3:0,0:0:0:0:
479,318,48566,1,12,0:2:0:0:
393,369,48882,1,12,0:2:0:0:
336,287,49197,6,0,P|292:255|237:252,1,110,14|0,0:2|3:2,0:0:0:0:
204,289,49670,2,0,L|67:314,1,110,14|0,0:2|3:2,0:0:0:0:
66,348,50143,2,0,B|27:308|98:214|42:170,1,165,14|0,0:0|3:2,0:0:0:0:
16,159,50773,1,0,3:0:0:0:
0,61,51088,1,12,0:2:0:0:
96,37,51404,2,0,L|188:54,1,55,8|8,0:2|0:2,0:0:0:0:
185,82,51719,5,4,3:2:0:0:
488,29,56763,6,0,P|436:62|440:124,1,110,14|0,0:0|3:2,0:0:0:0:
471,135,57236,2,0,L|458:257,1,110,10|0,0:0|3:0,0:0:0:0:
489,283,57709,1,14,0:0:0:0:
372,375,58182,2,0,L|243:352,1,110,2|0,3:2|3:0,0:0:0:0:
214,350,58655,1,14,0:0:0:0:
262,263,58970,1,14,0:0:0:0:
221,170,59285,6,0,P|171:202|111:186,1,110,14|0,0:0|3:2,0:0:0:0:
77,211,59758,1,14,0:0:0:0:
28,130,60073,1,0,3:2:0:0:
28,130,60231,2,0,L|50:19,1,110,14|0,0:0|0:0,0:0:0:0:
96,7,60704,2,0,L|206:29,1,110,0|0,3:0|3:0,0:0:0:0:
236,65,61177,1,8,0:2:0:0:
332,43,61492,2,0,L|322:98,1,55,8|8,0:2|0:2,0:0:0:0:
355,133,61807,6,0,L|369:254,1,110,6|2,3:2|0:2,0:0:0:0:
414,258,62280,2,0,L|393:384,1,110,2|2,3:2|0:0,0:0:0:0:
299,327,62911,2,0,L|222:337,1,55,2|0,3:2|0:0,0:0:0:0:
204,361,63226,1,2,3:2:0:0:
204,361,63383,2,0,L|184:236,1,110,10|0,0:0|3:0,0:0:0:0:
101,200,64014,2,0,L|111:130,1,55,8|0,0:0|0:0,0:0:0:0:
141,112,64329,6,0,L|252:128,1,110,14|0,0:2|3:2,0:0:0:0:
290,156,64802,2,0,P|342:133|358:72,1,110,14|0,0:2|3:2,0:0:0:0:
390,47,65275,1,14,0:2:0:0:
475,96,65590,1,14,0:2:0:0:
441,188,65905,1,14,0:2:0:0:
499,267,66221,2,0,L|494:342,1,55,10|8,0:0|0:0,0:0:0:0:
468,363,66536,2,0,L|389:356,1,55,10|8,0:0|0:2,0:0:0:0:
376,324,66851,6,0,P|290:324|256:365,1,110,6|8,3:2|0:0,0:0:0:0:
187,383,67482,1,0,3:0:0:0:
99,337,67797,2,0,L|89:261,1,55,2|8,3:2|0:0,0:0:0:0:
52,252,68112,2,0,L|81:106,1,110,2|10,0:0|0:0,0:0:0:0:
145,75,68743,1,2,0:0:0:0:
233,119,69058,1,10,0:0:0:0:
261,213,69373,6,0,L|246:296,1,55,6|0,3:2|0:0,0:0:0:0:
221,307,69689,2,0,P|262:343|316:342,1,110,8|0,0:0|3:0,0:0:0:0:
406,307,70319,2,0,L|414:252,1,55,2|8,0:0|0:0,0:0:0:0:
463,243,70634,2,0,L|446:123,1,110,2|8,0:2|0:2,0:0:0:0:
433,35,71265,2,0,L|360:46,1,55,2|0,3:2|3:0,0:0:0:0:
352,85,71580,2,0,L|277:71,1,55,10|0,0:0|3:0,0:0:0:0:
260,42,71895,6,0,L|237:160,1,110,6|8,3:2|0:0,0:0:0:0:
319,208,72526,2,0,L|331:269,1,55,2|0,0:0|3:0,0:0:0:0:
325,311,72841,2,0,L|250:327,1,55,2|8,0:2|0:2,0:0:0:0:
245,365,73156,2,0,P|199:336|144:339,1,110,2|10,0:0|0:0,0:0:0:0:
48,360,73787,2,0,L|34:288,1,55,2|0,3:2|3:0,0:0:0:0:
24,258,74102,1,10,0:0:0:0:
103,199,74417,6,0,L|116:127,1,55,4|0,3:2|0:0,0:0:0:0:
85,102,74733,2,0,L|74:27,1,55,10|0,0:0|0:0,0:0:0:0:
113,13,75048,2,0,L|229:28,1,110,2|2,3:2|3:2,0:0:0:0:
270,13,75521,1,8,0:2:0:0:
270,13,75679,2,0,L|254:132,1,110,2|10,3:2|0:2,0:0:0:0:
212,211,76309,2,0,L|266:218,1,55,10|8,0:2|0:2,0:0:0:0:
295,258,76624,2,0,L|349:247,1,55,10|8,0:2|0:2,0:0:0:0:
382,209,76940,6,0,P|470:246|481:277,1,110,6|0,3:2|0:0,0:0:0:0:
464,351,77570,1,8,0:2:0:0:
368,375,77885,2,0,L|305:359,1,55,2|8,0:0|0:2,0:0:0:0:
281,324,78201,2,0,L|165:344,1,110,2|2,3:2|0:0,0:0:0:0:
79,381,78831,2,0,B|52:328|52:328|76:264,1,110,10|2,0:0|3:2,0:0:0:0:
34,187,79462,6,0,B|66:290|173:271|207:217,1,220,6|8,3:2|0:0,0:0:0:0:
298,188,80407,2,0,L|364:203,1,55,2|8,0:0|0:0,0:0:0:0:
390,231,80723,2,0,L|410:123,1,110,2|2,3:2|0:0,0:0:0:0:
489,64,81353,1,10,0:0:0:0:
412,1,81668,2,0,L|344:10,1,55,10|8,0:2|0:2,0:0:0:0:
335,52,81984,6,0,P|290:21|236:25,1,110,6|8,3:2|0:0,0:0:0:0:
178,105,82614,1,0,3:0:0:0:
86,68,82929,2,0,L|22:79,1,55,2|8,0:0|0:0,0:0:0:0:
3,118,83245,2,0,L|21:237,1,110,2|10,0:0|0:0,0:0:0:0:
57,256,83718,1,0,3:0:0:0:
57,256,83875,2,0,L|48:326,1,55,2|0,3:2|3:0,0:0:0:0:
69,356,84190,1,8,0:0:0:0:
158,313,84506,6,0,L|223:321,1,55,6|0,3:2|0:0,0:0:0:0:
244,357,84821,2,0,L|308:338,1,55,10|0,0:0|3:0,0:0:0:0:
340,365,85136,2,0,P|354:288|321:254,1,110,10|8,0:2|0:2,0:0:0:0:
248,223,85767,2,0,L|260:150,1,55,2|0,3:2|0:2,0:0:0:0:
303,152,86082,2,0,L|291:84,1,55,10|0,0:2|3:2,0:0:0:0:
262,59,86397,1,10,0:2:0:0:
350,14,86713,2,0,L|423:27,1,55,10|8,0:2|0:2,0:0:0:0:
440,57,87028,5,6,3:2:0:0:
256,192,87185,12,0,89550,0:0:0:0:
