osu file format v14

[General]
AudioFilename: audio.mp3
AudioLeadIn: 0
PreviewTime: 66063
Countdown: 0
SampleSet: Soft
StackLeniency: 0.7
Mode: 0
LetterboxInBreaks: 0
WidescreenStoryboard: 1

[Editor]
Bookmarks: 21762,26176,26811
DistanceSpacing: 1.2
BeatDivisor: 2
GridSize: 32
TimelineZoom: 1.9

[Metadata]
Title:ALONES (TV Size)
TitleUnicode:ALONES (TV Size)
Artist:Aqua Timez
ArtistUnicode:Aqua Timez
Creator:mnyui
Version:Insane
Source:BLEACH
Tags:gelidium anime opening theme op 6 six japanese rock arrancar hueco mundo ブリーチ ダレカの地上絵 dareka no chijou e times
BeatmapID:3625080
BeatmapSetID:1770247

[Difficulty]
HPDrainRate:5.5
CircleSize:3.8
OverallDifficulty:8
ApproachRate:8.5
SliderMultiplier:1.6
SliderTickRate:1

[Events]
//Background and Video events
0,0,"r.jpg",0,0
Video,-645,"opening.mp4"
//Break Periods
//Storyboard Layer 0 (Background)
//Storyboard Layer 1 (Fail)
//Storyboard Layer 2 (Pass)
//Storyboard Layer 3 (Foreground)
//Storyboard Layer 4 (Overlay)
//Storyboard Sound Samples

[TimingPoints]
1278,315.258511979823,4,2,1,50,1,0
1278,-125,4,2,1,50,0,0
11366,-125,4,2,1,50,0,0
12627,-125,4,2,1,50,0,0
12942,-125,4,2,1,50,0,0
15464,-125,4,2,1,50,0,0
19247,-125,4,2,1,50,0,0
21454,-100,4,2,1,80,0,0
26498,-111.111111111111,4,2,1,70,0,0
29020,-111.111111111111,4,2,1,70,0,0
29336,-111.111111111111,4,2,1,70,0,0
31542,-111.111111111111,4,2,1,70,0,0
32804,-111.111111111111,4,2,1,70,0,0
34064,-111.111111111111,4,2,1,70,0,0
36192,-111.111111111111,4,2,1,5,0,0
36272,-111.111111111111,4,2,1,70,0,0
36586,-111.111111111111,4,2,1,70,0,0
38084,-111.111111111111,4,2,1,5,0,0
38163,-111.111111111111,4,2,1,70,0,0
39109,-111.111111111111,4,2,1,70,0,0
39345,-111.111111111111,4,2,1,5,0,0
39424,-111.111111111111,4,2,1,70,0,0
41000,-111.111111111111,4,2,1,70,0,0
41631,-111.111111111111,4,2,1,70,0,0
41867,-111.111111111111,4,2,1,5,0,0
41946,-111.111111111111,4,2,1,70,0,0
44153,-111.111111111111,4,2,1,70,0,0
44389,-111.111111111111,4,2,1,5,0,0
44468,-111.111111111111,4,2,1,70,0,0
46675,-100,4,2,1,80,0,0
51719,-111.111111111111,4,2,1,50,0,0
56763,-99.9999999999999,4,2,1,80,0,0
61807,-99.9999999999999,4,2,1,70,0,0
62122,-100,4,2,1,70,0,0
66851,-90.9090909090909,4,2,1,90,0,0
68743,-90.9090909090909,4,2,1,90,0,0
69689,-90.9090909090909,4,2,1,90,0,0
70556,-90.9090909090909,4,2,1,5,0,0
70634,-90.9090909090909,4,2,1,90,0,0
74733,-90.9090909090909,4,2,1,90,0,0
76940,-111.111111111111,4,2,1,70,0,0
78516,-111.111111111111,4,2,1,70,0,0
79462,-111.111111111111,4,2,1,70,0,0
81038,-111.111111111111,4,2,1,70,0,0
81984,-90.9090909090909,4,2,1,90,0,0
84427,-90.9090909090909,4,2,1,5,0,0
84506,-90.9090909090909,4,2,1,90,0,0
84821,-90.9090909090909,4,2,1,90,0,0
89550,-90.9090909090909,4,2,1,5,0,0

[Colours]
Combo1 : 128,128,192
Combo2 : 158,62,255
Combo3 : 210,150,243

[HitObjects]
168,37,1278,6,0,P|272:51|292:86,1,128,2|0,0:0|0:0,0:0:0:0:
329,122,1750,2,0,P|402:127|450:71,1,128,2|0,0:2|0:2,0:0:0:0:
471,25,2223,1,0,0:2:0:0:
412,165,2539,6,0,L|443:300,1,128,2|2,0:2|0:2,0:0:0:0:
498,384,3169,2,0,L|366:366,1,128,2|2,0:0|0:0,0:0:0:0:
161,374,3800,6,0,P|152:313|186:261,1,128,2|0,0:2|0:2,0:0:0:0:
267,251,4272,2,0,L|246:124,1,128,2|0,0:2|0:2,0:0:0:0:
282,61,4745,1,2,0:2:0:0:
199,0,5061,5,2,0:2:0:0:
119,60,5376,2,0,P|58:73|19:122,1,128,2|2,0:2|0:2,0:0:0:0:
75,185,6006,1,2,0:2:0:0:
22,276,6322,2,0,L|146:247,1,128,2|0,0:2|0:2,0:0:0:0:
247,166,6952,5,2,0:2:0:0:
330,234,7267,1,0,0:2:0:0:
260,324,7583,1,2,0:2:0:0:
338,384,7898,1,0,0:2:0:0:
428,331,8213,6,0,L|441:203,1,128,2|2,0:2|0:2,0:0:0:0:
500,120,8844,1,2,0:2:0:0:
426,59,9159,1,0,0:2:0:0:
352,112,9474,2,0,L|218:87,1,128,2|0,0:2|0:2,0:0:0:0:
133,177,10105,6,0,P|195:199|225:258,1,128,2|0,0:2|0:2,0:0:0:0:
321,220,10735,2,0,L|293:358,1,128,2|0,0:2|0:2,0:0:0:0:
155,384,11366,6,0,P|88:337|40:346,1,128,2|0,0:2|0:2,0:0:0:0:
0,257,11996,1,0,0:2:0:0:
105,208,12312,1,0,0:2:0:0:
22,135,12627,2,0,L|0:-2,1,128,2|2,0:2|0:2,0:0:0:0:
125,81,13257,2,0,L|103:218,1,128,2|2,0:2|0:2,0:0:0:0:
173,276,13888,6,0,P|254:313|269:362,1,128,2|0,0:2|0:2,0:0:0:0:
352,384,14518,1,0,0:2:0:0:
462,314,14834,1,0,0:2:0:0:
397,167,15149,6,0,L|377:294,1,128,2|2,0:2|0:2,0:0:0:0:
267,211,15779,2,0,L|247:83,1,128,2|2,0:2|0:2,0:0:0:0:
354,16,16410,6,0,P|416:18|460:62,2,128,2|0|0,0:2|0:2|0:2,0:0:0:0:
289,91,17356,1,0,0:2:0:0:
214,39,17671,2,0,L|58:68,1,128,2|0,0:2|0:2,0:0:0:0:
3,127,18301,1,0,0:2:0:0:
88,193,18617,1,0,0:2:0:0:
14,258,18932,6,0,L|31:385,1,128,2|2,0:2|0:2,0:0:0:0:
138,334,19562,2,0,L|264:313,1,128,2|2,0:2|0:2,0:0:0:0:
354,283,20193,1,2,0:2:0:0:
424,366,20508,1,2,0:2:0:0:
489,312,20824,2,0,L|507:180,1,128,2|2,0:2|0:2,0:0:0:0:
369,35,21454,5,6,3:2:0:0:
484,101,21612,2,0,P|405:104|351:159,1,160,2|0,0:0|0:2,0:0:0:0:
225,67,22085,2,0,L|315:90,1,80,2|0,3:2|0:2,0:0:0:0:
114,145,22400,1,8,0:2:0:0:
175,0,22557,2,0,L|206:174,1,160,2|0,0:2|0:2,0:0:0:0:
21,277,23030,2,0,P|30:238|40:199,1,80,0|0,0:2|3:2,0:0:0:0:
242,312,23346,2,0,P|192:252|114:253,1,160,8|0,0:2|0:2,0:0:0:0:
0,101,23976,6,0,P|77:101|127:42,1,160,10|0,0:2|0:2,0:0:0:0:
285,78,24449,1,2,0:2:0:0:
219,9,24607,2,0,L|196:105,1,80,0|0,0:0|0:2,0:0:0:0:
312,263,24922,2,0,P|363:205|354:127,1,160,10|0,0:2|0:2,0:0:0:0:
259,171,25395,1,8,0:2:0:0:
216,265,25552,2,0,P|229:308|235:354,1,80,0|0,0:2|0:2,0:0:0:0:
382,384,25868,2,0,L|400:306,1,80,8|0,0:2|3:2,0:0:0:0:
405,301,26104,1,0,3:2:0:0:
410,296,26183,1,8,0:2:0:0:
501,150,26341,5,0,3:2:0:0:
501,150,26419,1,8,0:2:0:0:
501,150,26498,2,0,L|349:178,1,143.999995605469,4|8,3:2|0:2,0:0:0:0:
237,109,26971,1,2,3:2:0:0:
330,40,27129,2,0,L|317:110,1,71.9999978027344,0|0,3:2|0:2,0:0:0:0:
242,220,27444,1,2,0:2:0:0:
168,178,27602,6,0,P|152:107|134:37,1,143.999995605469,8|2,0:2|3:2,0:0:0:0:
1,146,28074,2,0,L|71:128,1,71.9999978027344,10|2,0:2|0:2,0:0:0:0:
93,212,28390,1,0,3:2:0:0:
93,212,28547,1,2,3:2:0:0:
32,305,28705,6,0,L|14:234,1,71.9999978027344,10|2,0:2|0:2,0:0:0:0:
125,292,29020,2,0,P|205:298|241:366,1,143.999995605469,6|10,3:2|0:2,0:0:0:0:
238,346,29651,2,0,L|317:328,1,71.9999978027344,0|0,3:2|3:2,0:0:0:0:
373,272,29966,1,2,0:2:0:0:
373,272,30124,1,10,0:2:0:0:
268,183,30281,6,0,P|280:216|288:254,1,71.9999978027344,2|2,0:2|3:2,0:0:0:0:
396,184,30597,2,0,L|411:110,1,71.9999978027344,10|0,0:2|0:2,0:0:0:0:
369,9,30912,1,2,3:2:0:0:
490,73,31069,1,0,3:2:0:0:
322,98,31227,2,0,L|251:85,1,71.9999978027344,10|0,0:2|0:0,0:0:0:0:
155,14,31542,6,0,P|82:22|39:92,1,143.999995605469,6|10,3:2|0:2,0:0:0:0:
41,75,32173,1,0,3:2:0:0:
146,168,32331,2,0,L|127:98,1,71.9999978027344,2|0,3:2|0:2,0:0:0:0:
20,159,32646,1,8,0:2:0:0:
64,292,32803,5,2,0:2:0:0:
64,292,32961,2,0,L|85:212,1,71.9999978027344,2|8,3:2|0:2,0:0:0:0:
212,122,33276,2,0,P|271:146|287:232,1,143.999995605469,2|2,0:2|3:2,0:0:0:0:
337,293,33749,2,0,L|266:307,1,71.9999978027344,10|0,0:2|0:2,0:0:0:0:
375,162,34064,6,0,L|445:176,1,71.9999978027344,6|2,3:2|0:2,0:0:0:0:
311,101,34380,2,0,L|296:30,1,71.9999978027344,10|0,0:2|0:2,0:0:0:0:
392,77,34695,1,2,3:2:0:0:
290,192,34853,2,0,L|219:206,1,71.9999978027344,2|2,3:2|0:2,0:0:0:0:
151,142,35168,1,10,0:2:0:0:
71,227,35325,6,0,P|45:295|92:370,1,143.999995605469,2|10,0:2|0:2,0:0:0:0:
194,384,35798,1,2,0:2:0:0:
194,384,35877,1,2,0:0:0:0:
194,384,35956,2,0,L|308:362,1,107.999996704102,2|0,3:2|0:2,0:0:0:0:
317,374,36271,2,0,L|300:288,1,71.9999978027344,10|0,0:2|0:2,0:0:0:0:
232,250,36586,5,4,3:2:0:0:
232,250,36902,6,0,L|249:167,1,71.9999978027344,10|2,0:2|0:2,0:0:0:0:
356,234,37217,2,0,L|426:248,1,71.9999978027344,2|0,3:2|3:2,0:0:0:0:
491,308,37532,1,2,0:2:0:0:
416,352,37690,1,8,0:2:0:0:
426,248,37847,6,0,L|449:132,1,107.999996704102,2|0,0:2|0:2,0:0:0:0:
462,125,38163,2,0,L|377:102,1,71.9999978027344,10|0,0:2|0:2,0:0:0:0:
333,32,38478,5,0,3:2:0:0:
333,32,38636,1,0,3:2:0:0:
255,100,38793,2,0,L|267:180,1,71.9999978027344,8|0,0:2|3:2,0:0:0:0:
355,237,39109,6,0,L|339:368,1,107.999996704102,6|0,3:2|0:0,0:0:0:0:
329,359,39424,2,0,L|254:348,1,71.9999978027344,10|2,0:2|0:2,0:0:0:0:
165,258,39739,2,0,L|240:269,1,71.9999978027344,2|2,3:2|3:2,0:0:0:0:
167,384,40054,2,0,L|92:373,1,71.9999978027344,2|10,0:2|0:2,0:0:0:0:
0,289,40370,5,2,0:2:0:0:
0,289,40527,1,2,0:2:0:0:
88,199,40685,2,0,L|78:270,1,71.9999978027344,10|0,0:2|0:0,0:0:0:0:
2,156,41000,2,0,P|72:158|125:113,1,143.999995605469,2|10,3:2|0:2,0:0:0:0:
125,113,41631,6,0,B|182:115|174:85|241:94,1,107.999996704102,4|0,3:2|0:2,0:0:0:0:
241,106,41946,2,0,P|297:148|366:138,1,143.999995605469,10|0,0:2|3:2,0:0:0:0:
329,0,42419,2,0,L|316:79,1,71.9999978027344,0|0,3:2|0:2,0:0:0:0:
457,153,42734,2,0,P|447:119|441:84,1,71.9999978027344,8|0,0:2|0:0,0:0:0:0:
315,200,43049,1,0,3:2:0:0:
398,230,43207,2,0,L|479:253,1,71.9999978027344,8|0,0:2|0:2,0:0:0:0:
255,133,43522,5,2,3:2:0:0:
195,203,43680,2,0,L|215:351,1,143.999995605469,0|0,3:0|0:2,0:0:0:0:
42,256,44153,6,0,L|57:149,1,107.999996704102,6|0,3:2|0:0,0:0:0:0:
71,144,44468,1,10,0:0:0:0:
124,45,44626,2,0,L|53:31,1,71.9999978027344,2|0,0:0|3:0,0:0:0:0:
175,172,44941,1,0,0:0:0:0:
175,172,45098,2,0,L|245:158,1,71.9999978027344,2|8,0:0|0:0,0:0:0:0:
381,92,45414,5,0,0:0:0:0:
381,92,45571,1,0,3:0:0:0:
277,14,45729,2,0,L|295:103,1,71.9999978027344,8|0,0:0|3:0,0:0:0:0:
291,84,45965,1,0,3:0:0:0:
291,84,46044,1,8,0:0:0:0:
445,154,46202,1,8,0:0:0:0:
412,11,46359,1,8,0:0:0:0:
229,245,46675,6,0,B|321:257|301:209|401:232,1,160,14|0,0:0|3:2,0:0:0:0:
263,166,47148,1,10,0:0:0:0:
351,305,47305,2,0,L|338:384,1,80,0|0,3:0|3:0,0:0:0:0:
171,324,47621,6,0,P|135:256|169:177,1,160,14|0,0:0|0:0,0:0:0:0:
335,71,48093,2,0,L|311:229,1,160,2|0,3:2|3:0,0:0:0:0:
168,94,48566,2,0,L|246:112,1,80,12|0,0:2|3:2,0:0:0:0:
399,167,48882,1,8,0:0:0:0:
228,261,49039,1,0,3:0:0:0:
371,299,49197,6,0,P|306:254|228:262,1,160,14|0,0:2|3:2,0:0:0:0:
160,346,49670,2,0,L|68:328,1,80,14|0,0:2|3:2,0:0:0:0:
0,370,49985,1,0,3:2:0:0:
131,250,50143,2,0,L|109:87,1,160,12|0,0:0|0:0,0:0:0:0:
267,2,50615,1,0,3:2:0:0:
304,68,50773,2,0,P|228:82|166:35,1,160,0|12,3:2|0:2,0:0:0:0:
165,34,51404,1,8,0:2:0:0:
30,151,51561,1,8,0:2:0:0:
100,199,51719,6,0,P|170:200|221:255,1,143.999995605469,4|0,3:2|0:0,0:0:0:0:
168,317,52192,1,0,0:0:0:0:
269,375,52507,1,0,0:0:0:0:
360,313,52822,2,0,L|371:224,1,71.9999978027344,2|0,0:0|0:0,0:0:0:0:
455,271,53138,1,0,0:0:0:0:
455,271,53295,2,0,L|432:124,1,143.999995605469
432,128,53926,2,0,L|349:141,1,71.9999978027344
280,15,54241,6,0,P|233:62|245:160,1,143.999995605469,2|0,0:0|0:0,0:0:0:0:
176,201,54714,2,0,L|192:283,1,71.9999978027344
283,324,55029,2,0,L|296:253,1,71.9999978027344
195,357,55344,2,0,L|101:383,1,71.9999978027344,2|0,0:0|0:0,0:0:0:0:
29,236,55660,1,0,0:0:0:0:
29,236,55817,2,0,L|98:255,1,71.9999978027344,0|2,0:0|0:0,0:0:0:0:
56,327,56132,1,0,0:0:0:0:
466,367,56763,6,0,L|481:288,1,80,14|0,0:0|3:0,0:0:0:0:
365,154,57078,1,0,3:2:0:0:
327,227,57236,2,0,P|404:238|464:188,1,160,10|0,0:0|3:0,0:0:0:0:
300,90,57709,6,0,L|123:126,1,160,14|0,0:0|0:0,0:0:0:0:
46,22,58182,2,0,L|138:42,1,80,2|0,3:2|0:0,0:0:0:0:
225,141,58497,1,0,3:0:0:0:
59,236,58655,6,0,P|66:195|72:146,1,80,14|0,0:2|3:2,0:0:0:0:
205,240,58970,1,2,3:2:0:0:
218,342,59127,1,0,3:0:0:0:
0,384,59285,2,0,P|62:322|141:322,1,160,14|0,0:0|3:2,0:0:0:0:
289,247,59758,2,0,L|469:292,1,160,14|0,0:0|3:2,0:0:0:0:
511,34,60231,6,0,P|433:35|371:84,1,160,14|0,0:0|0:0,0:0:0:0:
210,51,60704,1,0,3:0:0:0:
281,107,60861,2,0,P|290:69|297:29,1,80,0|0,0:0|3:0,0:0:0:0:
165,200,61177,6,0,L|86:216,1,80,8|0,0:2|0:0,0:0:0:0:
154,124,61492,1,8,0:2:0:0:
251,234,61650,1,8,0:2:0:0:
78,351,61807,6,0,P|144:310|223:318,1,160,6|2,3:2|0:2,0:0:0:0:
352,215,62280,2,0,P|341:253|335:293,1,80,2|8,3:2|0:0,0:0:0:0:
251,234,62595,2,0,L|234:155,1,80,2|0,0:0|3:0,0:0:0:0:
343,108,62911,2,0,P|405:147|490:139,1,160,2|2,3:2|3:2,0:0:0:0:
251,46,63383,6,0,L|81:73,1,160,10|0,0:0|3:0,0:0:0:0:
0,173,63856,1,0,3:2:0:0:
100,227,64014,2,0,L|87:147,1,80,8|0,0:0|0:0,0:0:0:0:
234,193,64329,6,0,P|260:266|226:336,1,160,14|0,0:2|3:2,0:0:0:0:
69,315,64802,2,0,L|148:302,1,80,14|0,0:2|3:2,0:0:0:0:
308,378,65117,1,0,3:2:0:0:
378,238,65275,2,0,L|365:317,1,80,14|0,0:2|3:2,0:0:0:0:
271,211,65590,1,14,0:2:0:0:
271,211,65748,1,0,3:2:0:0:
356,145,65905,2,0,L|435:157,1,80,14|0,0:2|3:2,0:0:0:0:
284,67,66221,5,8,0:2:0:0:
284,67,66300,1,8,0:2:0:0:
284,67,66378,1,8,0:2:0:0:
284,67,66457,1,8,0:2:0:0:
284,67,66536,2,0,L|224:78,3,40,8|8|8|8,0:2|0:2|0:2|0:2,0:0:0:0:
171,3,66851,6,0,P|97:41|108:145,1,176.000005371094,6|8,3:2|0:0,0:0:0:0:
164,200,67324,1,0,0:0:0:0:
0,247,67482,2,0,L|18:135,1,88.000002685547,0|0,3:0|0:0,0:0:0:0:
137,292,67797,1,2,3:2:0:0:
21,348,67955,1,8,0:0:0:0:
180,212,68112,6,0,L|266:227,1,88.000002685547,2|0,0:0|3:0,0:0:0:0:
348,331,68428,2,0,L|261:346,1,88.000002685547,10|0,0:0|0:0,0:0:0:0:
388,155,68743,2,0,P|391:198|400:241,1,88.000002685547,2|0,0:2|3:2,0:0:0:0:
227,137,69058,2,0,L|239:50,1,88.000002685547,8|0,0:0|0:0,0:0:0:0:
473,120,69373,6,0,P|409:64|325:76,1,176.000005371094,6|8,3:2|0:0,0:0:0:0:
271,219,69846,1,0,0:0:0:0:
138,127,70004,2,0,L|225:140,1,88.000002685547,0|0,3:0|3:2,0:0:0:0:
346,289,70319,2,0,P|281:301|219:323,1,132.00000402832,2|0,0:0|0:0,0:0:0:0:
206,338,70634,6,0,L|185:252,1,88.000002685547,2|0,0:2|3:2,0:0:0:0:
26,340,70950,2,0,L|111:318,1,88.000002685547,8|0,0:2|3:2,0:0:0:0:
271,219,71265,2,0,P|204:165|121:183,1,176.000005371094,2|10,3:2|0:0,0:0:0:0:
42,119,71738,1,0,3:0:0:0:
147,9,71895,6,0,L|120:189,1,176.000005371094,6|8,3:2|0:0,0:0:0:0:
55,29,72368,1,0,0:0:0:0:
215,105,72526,2,0,L|316:85,1,88.000002685547,2|0,0:0|3:0,0:0:0:0:
248,13,72841,1,2,0:2:0:0:
397,131,72999,1,8,0:2:0:0:
400,21,73156,6,0,L|379:106,1,88.000002685547,2|0,0:0|0:0,0:0:0:0:
512,185,73472,2,0,P|469:194|428:210,1,88.000002685547,10|0,0:0|0:0,0:0:0:0:
335,298,73787,2,0,P|420:298|483:357,1,176.000005371094,2|10,3:2|0:0,0:0:0:0:
398,384,74260,1,0,0:0:0:0:
256,264,74417,6,0,L|274:152,1,88.000002685547,4|0,3:2|0:0,0:0:0:0:
377,99,74733,2,0,L|390:185,1,88.000002685547,10|0,0:0|0:0,0:0:0:0:
209,79,75048,2,0,P|252:74|294:61,1,88.000002685547,2|0,3:2|3:0,0:0:0:0:
181,223,75363,2,0,L|76:204,1,88.000002685547,2|8,3:2|0:2,0:0:0:0:
21,141,75679,5,2,3:2:0:0:
21,141,75836,1,0,0:0:0:0:
130,28,75994,2,0,L|113:125,1,88.000002685547,10|0,0:2|0:0,0:0:0:0:
0,269,76309,5,10,0:2:0:0:
209,206,76467,1,8,0:2:0:0:
61,381,76624,1,10,0:2:0:0:
30,144,76782,1,8,0:2:0:0:
188,340,76940,6,0,B|277:350|254:304|351:325,1,143.999995605469,6|0,3:2|0:0,0:0:0:0:
375,383,77412,1,0,3:2:0:0:
446,333,77570,2,0,L|471:178,1,143.999995605469,8|2,0:2|0:0,0:0:0:0:
418,130,78043,1,8,0:2:0:0:
301,217,78201,6,0,L|286:146,1,71.9999978027344,2|0,3:2|0:0,0:0:0:0:
170,133,78516,2,0,L|184:62,1,71.9999978027344,2|0,0:0|3:0,0:0:0:0:
342,78,78831,2,0,L|327:7,1,71.9999978027344,10|0,0:0|0:0,0:0:0:0:
184,62,79146,2,0,L|82:81,1,71.9999978027344,2|0,3:2|3:2,0:0:0:0:
0,172,79462,6,0,P|86:180|131:227,1,143.999995605469,6|0,3:2|0:0,0:0:0:0:
206,303,79934,1,0,3:0:0:0:
110,372,80092,2,0,L|124:291,1,71.9999978027344,8|0,0:0|0:0,0:0:0:0:
208,215,80407,2,0,P|241:228|277:231,1,71.9999978027344,2|8,0:0|0:0,0:0:0:0:
379,352,80723,6,0,L|308:364,1,71.9999978027344,2|0,3:2|0:0,0:0:0:0:
392,247,81038,2,0,L|460:267,1,71.9999978027344,2|0,0:0|3:0,0:0:0:0:
348,103,81353,2,0,L|331:173,1,71.9999978027344,10|0,0:0|3:0,0:0:0:0:
283,351,81668,1,10,0:2:0:0:
139,281,81826,5,8,0:2:0:0:
139,281,81905,1,8,0:2:0:0:
139,281,81984,2,0,P|137:217|46:141,1,176.000005371094,6|8,3:2|0:0,0:0:0:0:
11,217,82457,1,0,3:2:0:0:
163,156,82614,2,0,L|177:62,1,88.000002685547,0|0,3:0|0:0,0:0:0:0:
8,23,82929,2,0,P|22:64|33:107,1,88.000002685547,2|8,0:0|0:0,0:0:0:0:
101,261,83245,6,0,P|186:257|245:190,1,176.000005371094,2|10,0:0|0:0,0:0:0:0:
400,99,83718,1,0,3:0:0:0:
291,27,83875,2,0,L|308:113,1,88.000002685547,2|0,3:2|3:0,0:0:0:0:
490,245,84190,2,0,P|442:201|378:197,1,132.00000402832,8|0,0:0|0:0,0:0:0:0:
366,208,84506,6,0,L|348:294,1,88.000002685547,6|0,3:2|0:0,0:0:0:0:
216,372,84821,2,0,P|208:328|193:287,1,88.000002685547,10|0,0:0|3:0,0:0:0:0:
209,125,85136,6,0,L|307:146,1,88.000002685547,10|0,0:2|3:2,0:0:0:0:
204,264,85452,2,0,L|117:282,1,88.000002685547,8|0,0:2|3:2,0:0:0:0:
21,94,85767,2,0,P|103:117|136:195,1,176.000005371094,2|10,3:2|0:2,0:0:0:0:
9,306,86240,1,0,3:2:0:0:
259,348,86397,5,10,0:2:0:0:
47,229,86555,1,0,3:2:0:0:
231,140,86713,5,10,0:2:0:0:
142,365,86870,1,8,0:2:0:0:
116,101,87028,5,6,3:2:0:0:
256,192,87107,12,0,89550,0:0:0:0:
