osu file format v14

[General]
AudioFilename: audio.mp3
AudioLeadIn: 0
PreviewTime: 66063
Countdown: 0
SampleSet: Soft
StackLeniency: 0.7
Mode: 0
LetterboxInBreaks: 0
WidescreenStoryboard: 1

[Editor]
DistanceSpacing: 1.2
BeatDivisor: 2
GridSize: 32
TimelineZoom: 1.9

[Metadata]
Title:ALONES (TV Size)
TitleUnicode:ALONES (TV Size)
Artist:Aqua Timez
ArtistUnicode:Aqua Timez
Creator:mnyui
Version:Easy
Source:BLEACH
Tags:gelidium anime opening theme op 6 six japanese rock arrancar hueco mundo ブリーチ ダレカの地上絵 dareka no chijou e times
BeatmapID:3625259
BeatmapSetID:1770247

[Difficulty]
HPDrainRate:2
CircleSize:3
OverallDifficulty:2
ApproachRate:3
SliderMultiplier:0.8
SliderTickRate:1

[Events]
//Background and Video events
0,0,"r.jpg",0,0
Video,-645,"opening.mp4"
//Break Periods
2,21654,25058
2,51919,55323
//Storyboard Layer 0 (Background)
//Storyboard Layer 1 (Fail)
//Storyboard Layer 2 (Pass)
//Storyboard Layer 3 (Foreground)
//Storyboard Layer 4 (Overlay)
//Storyboard Sound Samples

[TimingPoints]
1278,315.258511979823,4,2,1,50,1,0
1278,-100,4,2,1,50,0,0
11366,-100,4,2,1,50,0,0
12627,-100,4,2,1,50,0,0
12942,-100,4,2,1,50,0,0
15464,-100,4,2,1,50,0,0
19247,-100,4,2,1,50,0,0
21454,-100,4,2,1,80,0,0
26498,-100,4,2,1,70,0,0
29020,-100,4,2,1,70,0,0
29336,-100,4,2,1,70,0,0
31542,-100,4,2,1,70,0,0
32804,-100,4,2,1,70,0,0
34064,-100,4,2,1,70,0,0
36272,-100,4,2,1,70,0,0
36586,-100,4,2,1,70,0,0
38163,-100,4,2,1,70,0,0
39109,-100,4,2,1,70,0,0
41000,-100,4,2,1,70,0,0
41631,-100,4,2,1,70,0,0
41946,-100,4,2,1,70,0,0
44153,-100,4,2,1,70,0,0
44468,-100,4,2,1,70,0,0
46675,-100,4,2,1,80,0,0
51719,-100,4,2,1,50,0,0
56763,-100,4,2,1,80,0,0
61807,-100,4,2,1,70,0,0
62122,-100,4,2,1,70,0,0
66851,-100,4,2,1,90,0,0
68743,-100,4,2,1,90,0,0
69689,-100,4,2,1,90,0,0
74733,-100,4,2,1,90,0,0
76940,-100,4,2,1,70,0,0
78516,-100,4,2,1,70,0,0
79462,-100,4,2,1,70,0,0
81038,-100,4,2,1,70,0,0
81984,-100,4,2,1,90,0,0
84821,-100,4,2,1,90,0,0

[Colours]
Combo1 : 128,128,192
Combo2 : 158,62,255
Combo3 : 210,150,243

[HitObjects]
77,377,11366,6,0,P|125:340|99:241,1,160,2|0,0:2|0:2,0:0:0:0:
33,207,12312,1,0,0:2:0:0:
80,137,12627,2,0,L|166:149,1,80,2|2,0:2|0:2,0:0:0:0:
215,222,13257,2,0,L|300:205,1,80,2|2,0:2|0:2,0:0:0:0:
345,131,13888,1,2,0:2:0:0:
484,350,14834,5,0,0:2:0:0:
406,310,15149,2,0,P|406:268|441:225,1,80,2|2,0:2|0:2,0:0:0:0:
472,162,15779,2,0,P|430:149|391:123,1,80,2|2,0:2|0:2,0:0:0:0:
406,42,16410,2,0,P|320:75|320:163,1,160,2|0,0:2|0:2,0:0:0:0:
263,210,17356,1,0,0:2:0:0:
186,169,17671,6,0,L|82:154,1,80,2|0,0:2|0:2,0:0:0:0:
27,203,18301,2,0,L|14:295,1,80,2|2,0:2|0:2,0:0:0:0:
78,348,18932,1,2,0:2:0:0:
147,296,19247,1,2,0:2:0:0:
212,354,19562,2,0,P|235:311|224:259,1,80,2|2,0:2|0:2,0:0:0:0:
188,205,20193,6,0,L|200:108,1,80,2|2,0:2|0:2,0:0:0:0:
257,60,20824,2,0,L|354:75,1,80,2|2,0:2|0:2,0:0:0:0:
406,125,21454,1,14,0:0:0:0:
13,22,26498,6,0,L|113:12,1,80,4|8,3:2|0:2,0:0:0:0:
168,60,27129,1,0,3:2:0:0:
238,7,27444,2,0,P|257:57|243:104,1,80,2|0,0:2|0:2,0:0:0:0:
199,156,28074,1,10,0:2:0:0:
263,215,28390,2,0,L|352:201,1,80,0|10,3:2|0:2,0:0:0:0:
419,161,29020,1,6,3:2:0:0:
491,211,29336,1,10,0:2:0:0:
404,364,29966,5,2,0:2:0:0:
341,305,30281,2,0,L|246:322,1,80,2|10,0:2|0:2,0:0:0:0:
192,373,30912,2,0,P|169:338|178:290,1,80,2|10,3:2|0:2,0:0:0:0:
106,243,31542,1,6,3:2:0:0:
33,288,31858,1,10,0:2:0:0:
64,30,32803,5,2,0:2:0:0:
171,104,33276,2,0,P|239:106|282:49,1,120,2|10,0:2|0:2,0:0:0:0:
344,19,34064,2,0,P|382:29|409:57,1,80,6|10,3:2|0:2,0:0:0:0:
380,140,34695,2,0,B|366:206|366:206|398:242,1,80,2|2,3:2|0:2,0:0:0:0:
444,267,35325,1,2,0:2:0:0:
402,345,35641,1,10,0:2:0:0:
318,316,35956,2,0,L|201:333,1,80,2|10,3:2|0:2,0:0:0:0:
62,322,36902,6,0,L|77:228,1,80,10|2,0:2|3:2,0:0:0:0:
50,158,37532,1,2,0:2:0:0:
119,103,37847,1,2,0:2:0:0:
191,149,38163,2,0,L|282:131,1,80,10|0,0:2|3:2,0:0:0:0:
426,45,39109,6,0,B|454:87|454:87|439:139,1,80,6|10,3:2|0:2,0:0:0:0:
480,200,39739,2,0,L|463:296,1,80,2|2,3:2|0:2,0:0:0:0:
411,353,40370,1,2,0:2:0:0:
327,327,40685,1,10,0:2:0:0:
320,240,41000,2,0,L|206:263,1,80,2|10,3:2|0:2,0:0:0:0:
178,322,41631,5,4,3:2:0:0:
95,295,41946,2,0,P|69:250|89:193,1,80,10|0,0:2|3:2,0:0:0:0:
147,110,42734,2,0,P|180:137|277:124,1,120,8|8,0:2|0:2,0:0:0:0:
290,57,43522,2,0,L|385:77,1,80,2|8,3:2|0:2,0:0:0:0:
438,20,44153,5,6,3:2:0:0:
479,145,44626,2,0,L|448:294,1,120,2|2,0:0|0:0,0:0:0:0:
478,347,45414,2,0,P|438:351|403:333,1,80,0|8,0:0|0:0,0:0:0:0:
345,263,46044,1,8,0:0:0:0:
279,204,46359,1,8,0:0:0:0:
190,206,46675,6,0,L|57:236,2,120,14|10|14,0:0|0:0|0:0,0:0:0:0:
263,315,48093,1,2,3:2:0:0:
388,272,48566,2,0,L|403:183,1,80,12|0,0:2|3:2,0:0:0:0:
359,116,49197,6,0,P|404:70|468:65,2,120,14|14|12,0:2|0:2|0:0,0:0:0:0:
250,249,50773,1,0,3:2:0:0:
175,203,51088,1,12,0:2:0:0:
95,237,51404,1,8,0:2:0:0:
30,184,51719,5,4,3:2:0:0:
335,205,56763,6,0,P|400:203|456:260,2,120,14|10|14,0:0|0:0|0:0,0:0:0:0:
237,118,58181,1,2,3:2:0:0:
134,197,58655,2,0,L|152:281,1,80,14|14,0:2|0:2,0:0:0:0:
180,362,59285,6,0,P|116:364|72:319,2,120,14|14|14,0:0|0:0|0:0,0:0:0:0:
305,244,60861,1,0,0:0:0:0:
387,217,61176,1,8,0:2:0:0:
438,286,61492,1,8,0:2:0:0:
502,224,61807,6,0,L|479:92,1,120,6|2,3:2|3:2,0:0:0:0:
405,49,62595,1,2,0:0:0:0:
326,85,62911,1,2,3:2:0:0:
217,14,63383,2,0,L|110:30,1,80,10|0,0:0|3:0,0:0:0:0:
64,82,64014,1,8,0:0:0:0:
124,145,64329,6,0,L|143:287,1,120,14|14,0:2|0:2,0:0:0:0:
108,354,65117,2,0,B|153:363|153:363|195:338,1,80,2|2,3:2|3:2,0:0:0:0:
280,257,65905,1,10,0:0:0:0:
252,173,66221,1,10,0:0:0:0:
313,109,66536,1,10,0:0:0:0:
383,158,66851,6,0,L|485:178,2,80,6|8|0,3:2|0:0|3:0,0:0:0:0:
313,109,67797,1,2,3:2:0:0:
244,55,68112,2,0,L|133:72,1,80,2|10,0:0|0:0,0:0:0:0:
90,20,68743,2,0,P|77:85|89:105,1,80,2|8,0:2|0:0,0:0:0:0:
135,162,69373,6,0,L|121:268,1,80,6|8,3:2|0:0,0:0:0:0:
70,316,70004,1,0,3:0:0:0:
133,374,70319,1,2,0:0:0:0:
201,319,70634,2,0,L|297:298,1,80,2|10,0:2|0:2,0:0:0:0:
348,356,71265,2,0,L|439:369,1,80,2|10,3:2|0:0,0:0:0:0:
507,332,71895,6,0,P|515:290|497:251,1,80,6|8,3:2|0:0,0:0:0:0:
421,219,72526,2,0,L|437:121,1,80,2|2,0:0|0:2,0:0:0:0:
480,66,73156,1,2,0:0:0:0:
410,14,73472,1,10,0:0:0:0:
338,62,73787,2,0,L|243:41,1,80,2|10,3:2|0:0,0:0:0:0:
180,90,74417,6,0,P|159:137|172:180,1,80,4|10,3:2|0:0,0:0:0:0:
241,213,75048,1,2,3:2:0:0:
316,171,75363,1,2,3:2:0:0:
381,228,75679,2,0,L|375:322,1,80,2|10,3:2|0:2,0:0:0:0:
302,360,76309,2,0,L|204:347,1,80,10|10,0:2|0:2,0:0:0:0:
130,362,76940,6,0,P|88:281|122:199,1,160,6|8,3:2|0:2,0:0:0:0:
68,133,77885,1,2,0:0:0:0:
111,57,78201,1,2,3:2:0:0:
195,79,78516,1,2,0:0:0:0:
209,164,78831,2,0,L|305:149,1,80,10|2,0:0|3:2,0:0:0:0:
362,96,79462,5,6,3:2:0:0:
486,215,80092,1,8,0:0:0:0:
435,284,80407,1,2,0:0:0:0:
376,349,80723,2,0,B|281:335,1,80,2|2,3:2|0:0,0:0:0:0:
214,368,81353,2,0,P|204:327|223:289,1,80,10|10,0:0|0:2,0:0:0:0:
273,222,81984,5,6,3:2:0:0:
209,162,82299,2,0,L|112:180,1,80,8|0,0:0|3:0,0:0:0:0:
51,132,82929,1,2,0:0:0:0:
106,66,83245,2,0,L|192:50,1,80,2|10,0:0|0:0,0:0:0:0:
261,8,83875,1,2,3:2:0:0:
329,63,84190,1,8,0:0:0:0:
411,26,84506,6,0,B|433:66|433:66|406:122,1,80,6|10,3:2|0:0,0:0:0:0:
352,163,85136,2,0,L|371:256,1,80,10|8,0:2|0:2,0:0:0:0:
423,309,85767,2,0,B|393:332|393:332|331:326,1,80,2|10,3:2|0:2,0:0:0:0:
271,365,86397,1,10,0:2:0:0:
195,319,86713,1,10,0:2:0:0:
114,355,87028,5,6,3:2:0:0:
