osu file format v14

[General]
AudioFilename: Alones.mp3
AudioLeadIn: 0
PreviewTime: 52876
Countdown: 0
SampleSet: Normal
StackLeniency: 0.7
Mode: 0
LetterboxInBreaks: 0
WidescreenStoryboard: 0

[Editor]
DistanceSpacing: 0.6
BeatDivisor: 4
GridSize: 4
TimelineZoom: 2.899998

[Metadata]
Title:Alones
TitleUnicode:Alones
Artist:Aqua Timez
ArtistUnicode:Aqua Timez
Creator:Avishay
Version:O"(Q*)c==")*c 912839017238912389 hello how are you /////(((((((())))))))) yiha
Source:Bleach
Tags:Bara- CaffeAmericano Kyle Y Kon
BeatmapID:822332
BeatmapSetID:375484

[Difficulty]
HPDrainRate:4.5
CircleSize:4
OverallDifficulty:8
ApproachRate:9.3
SliderMultiplier:1.8
SliderTickRate:1

[Events]
//Background and Video events
0,0,"kon.jpg",0,0
//Break Periods
//Storyboard Layer 0 (Background)
//Storyboard Layer 1 (Fail)
//Storyboard Layer 2 (Pass)
//Storyboard Layer 3 (Foreground)
//Storyboard Sound Samples

[TimingPoints]
18,322.268772155978,4,2,2,25,1,0
1306,-100,4,1,2,25,0,0
2595,-86.9565217391304,4,1,2,25,0,0
2918,-117.647058823529,4,1,2,25,0,0
3562,-125,4,1,2,25,0,0
3885,-117.647058823529,4,1,2,25,0,0
4852,-125,4,1,2,25,0,0
5174,-83.3333333333333,4,1,2,25,0,0
5496,-111.111111111111,4,1,2,25,0,0
5818,-125,4,1,2,25,0,0
6141,-90.9090909090909,4,1,2,25,0,0
6463,-142.857142857143,4,1,2,25,0,0
7751,-111.111111111111,4,1,2,25,0,0
8074,-117.647058823529,4,1,2,25,0,0
8396,-125,4,1,2,25,0,0
8719,-133.333333333333,4,1,2,25,0,0
9041,-111.111111111111,4,1,2,25,0,0
10652,-117.647058823529,4,1,2,25,0,0
10975,-125,4,1,2,25,0,0
11297,-133.333333333333,4,1,2,25,0,0
11619,-153.846153846154,4,1,2,25,0,0
12586,-153.846153846154,4,1,2,25,0,0
12907,-111.111111111111,4,1,2,25,0,0
14196,-153.846153846154,4,1,2,25,0,0
15164,-90.9090909090909,4,1,2,25,0,0
15486,-83.3333333333333,4,1,2,25,0,0
15809,-111.111111111111,4,1,2,25,0,0
16775,-153.846153846154,4,1,2,25,0,0
18064,-111.111111111111,4,1,2,25,0,0
19031,-153.846153846154,4,1,2,25,0,0
19354,-100,4,1,2,25,0,0
20965,-100,4,1,2,25,0,0
21207,-100,4,1,2,5,0,0
21287,-100,4,1,3,15,0,0
21448,-100,4,1,3,25,0,0
21609,-100,4,1,3,35,0,0
21771,-100,4,1,3,45,0,0
21932,-83.3333333333333,4,1,3,65,0,0
22737,300,4,1,3,65,1,0
22887,322.268772155978,5,1,2,65,1,0
22887,-83.3333333333333,5,1,2,65,0,0
26915,346.820809248555,4,1,2,65,1,0
27088,322.268772155978,4,1,2,65,1,0
27249,-83.3333333333333,4,1,2,65,0,0
29424,-83.3333333333333,4,1,2,5,0,0
29505,-83.3333333333333,4,1,2,65,0,0
31116,307.692307692308,4,1,2,50,1,0
32192,382.165605095541,4,1,2,50,1,0
32574,322.268772155978,4,3,3,50,1,0
33540,322.268772155978,4,3,3,50,1,0
39904,-100,4,3,3,5,0,0
39985,-100,4,3,3,50,0,0
42482,-100,4,3,3,5,0,0
42562,-100,4,3,3,50,0,0
45060,-100,4,3,3,5,0,0
45140,-100,4,3,3,50,0,0
52876,337.078651685393,4,3,3,60,1,0
52876,-70.4225352112676,4,3,3,60,0,0
53718,285.714285714286,4,3,3,25,1,0
53860,335.195530726257,4,3,3,60,1,0
53860,-70.4225352112676,4,3,3,60,0,0
54697,285.714285714286,4,3,3,25,1,0
54839,322.268772155978,4,3,3,60,1,0
55161,-80,4,3,3,60,0,0
55483,-66.6666666666667,4,3,3,60,0,0
56450,322.268772155978,4,3,3,60,1,0
57255,-100,4,3,3,75,0,0
58061,-100,4,2,2,60,0,0
63217,335.195530726257,4,3,3,75,1,0
63217,-66.6666666666667,4,3,3,75,0,0
64054,285.714285714286,4,3,3,60,1,0
64196,321.629589922273,4,3,3,75,1,0
64196,-68.9655172413793,4,3,3,75,0,0
65160,322.268772155978,4,3,3,75,1,0
65160,-74.0740740740741,4,3,3,75,0,0
66610,285.714285714286,4,3,3,75,1,0
66752,322.268772155978,4,3,3,75,1,0
66752,-66.6666666666667,4,3,3,75,0,0
68363,333.333333333333,4,3,3,75,1,0
68363,-76.9230769230769,4,3,3,75,0,0
69029,322.268772155978,4,3,3,75,1,0
69029,-74.0740740740741,4,3,3,75,0,0
69512,-83.3333333333333,4,3,3,75,0,0
70640,-78.125,4,3,3,75,0,0
71929,-83.3333333333333,4,3,3,75,0,0
72573,-74.0740740740741,4,3,3,75,0,0
74829,-76.9230769230769,4,1,2,75,0,1
77407,-64.5161290322581,4,1,2,75,0,1
77730,-76.9230769230769,4,1,2,75,0,1
79986,-64.5161290322581,4,1,2,75,0,1
80308,-76.9230769230769,4,1,2,75,0,1
82242,-111.111111111111,4,1,2,75,0,1
82483,-90.9090909090909,4,1,2,5,0,1
82564,-76.9230769230769,4,1,2,75,0,1
87076,-76.9230769230769,4,1,2,75,0,1
87398,-100,4,1,2,75,0,1
87720,-142.857142857143,4,1,2,75,0,1
88687,-76.9230769230769,4,1,2,75,0,1
92554,-111.111111111111,4,1,2,75,0,1
92796,-111.111111111111,4,1,2,5,0,1
92876,-76.9230769230769,4,1,2,75,0,1
95455,-100,4,1,2,65,0,0

[Colours]
Combo1 : 252,69,97
Combo2 : 6,115,234
Combo3 : 5,5,97
Combo4 : 242,179,115
Combo5 : 94,61,51

[HitObjects]
68,80,662,5,0,0:0:0:0:
71,99,984,1,0,0:0:0:0:
192,192,1307,5,2,2:0:0:0:
196,168,1629,1,0,0:0:0:0:
92,196,1790,2,0,B|61:183|61:183|-2:191,2,90,0|0|0,2:0|0:0|2:0,0:0:0:0:
168,284,2273,2,0,B|208:292|232:316|232:316|272:324|320:312,1,135,0|0,0:0|3:0,0:0:0:0:
374,296,2596,6,0,P|367:219|397:148,1,155.250002961159,2|0,0:0|3:0,0:0:0:0:
469,193,2918,6,0,B|461:258|461:258|449:210,1,114.750002188683,0|0,0:0|3:0,0:0:0:0:
397,148,3240,2,0,B|364:156|340:140|340:140|316:156|280:152,1,114.750002188683,0|0,0:0|3:0,0:0:0:0:
200,167,3562,6,0,P|165:177|190:141,1,108,0|0,0:0|3:0,0:0:0:0:
198,253,3885,6,0,P|110:225|108:97,1,229.500004377365,2|0,0:0|2:0,0:0:0:0:
144,40,4529,1,0,0:0:0:0:
184,104,4690,1,0,2:0:0:0:
243,56,4852,6,0,P|293:37|342:56,1,108,0|0,0:0|3:0,0:0:0:0:
312,182,5174,6,0,B|278:219|278:219|292:108,1,161.999995056153,2|0,0:0|3:0,0:0:0:0:
196,212,5496,6,0,B|175:290|175:290|185:329,1,121.499996292114,0|0,0:0|3:0,0:0:0:0:
108,352,5818,6,0,B|40:336|40:336|0:348,1,108,0|0,0:0|3:0,0:0:0:0:
56,264,6141,6,0,B|128:280|128:280|220:268,1,148.50000453186,0|0,0:0|3:0,0:0:0:0:
272,240,6463,6,0,B|376:232,1,94.499997116089,2|0,0:0|3:0,0:0:0:0:
420,240,6785,1,0,0:0:0:0:
452,316,6946,1,0,2:0:0:0:
460,164,7107,6,0,B|440:108|440:108|456:48,1,94.499997116089,0|0,0:0|3:0,0:0:0:0:
365,76,7430,2,0,B|309:96|309:96|275:86,1,94.499997116089,0|0,0:0|3:0,0:0:0:0:
188,40,7752,6,0,B|133:44|133:44|100:24|68:24,1,121.499996292114,2|0,0:0|3:0,0:0:0:0:
26,98,8074,6,0,P|83:98|128:144,1,114.750002188683,0|0,0:0|3:0,0:0:0:0:
168,216,8396,6,0,L|180:340,1,108,0|0,0:0|3:0,0:0:0:0:
256,384,8719,6,0,B|276:336|276:336|276:312|260:268,1,101.250003862381,0|0,0:0|3:0,0:0:0:0:
320,208,9041,6,0,B|412:212|412:212|464:188,1,121.499996292114,2|0,0:0|3:0,0:0:0:0:
480,120,9363,2,0,B|388:116|388:116|336:140,1,121.499996292114,0|0,0:0|3:0,0:0:0:0:
288,120,9686,2,0,P|280:52|312:4,1,121.499996292114,0|0,0:0|3:0,0:0:0:0:
205,8,10008,2,0,P|234:61|224:120,1,121.499996292114,0|0,0:0|3:0,0:0:0:0:
160,184,10330,6,0,B|100:192|100:192|92:136|128:112,1,121.499996292114,2|0,0:0|3:0,0:0:0:0:
55,76,10652,6,0,P|30:126|24:183,1,114.750002188683,0|0,0:0|3:0,0:0:0:0:
48,276,10975,6,0,L|156:288,1,108,0|0,0:0|3:0,0:0:0:0:
240,344,11297,6,0,L|344:332,1,101.250003862381,0|0,0:0|3:0,0:0:0:0:
424,304,11619,6,0,B|420:256|440:224|440:224|329:243,1,175.499991966248,2|0,0:0|2:0,0:0:0:0:
260,194,12264,1,0,0:0:0:0:
348,239,12425,1,0,2:0:0:0:
393,151,12586,6,0,P|436:136|480:136,1,87.749995983124,0|0,0:0|3:0,0:0:0:0:
420,56,12908,6,0,B|356:52|356:52|328:72|316:96,1,121.499996292114,2|0,0:0|3:0,0:0:0:0:
240,32,13231,2,0,B|199:40|162:64|162:64|116:40,1,121.499996292114,0|0,0:0|3:0,0:0:0:0:
45,79,13553,2,0,B|75:107|86:146|86:146|127:136,1,121.499996292114,0|0,0:0|3:0,0:0:0:0:
303,123,13875,2,0,P|251:127|184:187,1,121.499996292114,0|0,0:0|3:0,0:0:0:0:
289,272,14197,6,0,P|318:255|254:253,1,175.499991966248,2|0,0:0|2:0,0:0:0:0:
200,324,14842,1,0,0:0:0:0:
320,352,15003,1,0,2:0:0:0:
440,264,15164,6,0,B|448:212|448:212|424:160|452:104,1,148.50000453186,0|0,0:0|3:0,0:0:0:0:
508,76,15486,6,0,P|459:115|424:44,1,161.999995056153,2|0,0:0|3:0,0:0:0:0:
336,20,15809,6,0,B|260:52|260:52|188:48,1,121.499996292114,0|0,0:0|3:0,0:0:0:0:
128,40,16131,2,0,L|140:168,1,121.499996292114,0|0,0:0|3:0,0:0:0:0:
176,256,16453,2,0,B|224:236|236:199|236:199|226:166|228:132,1,121.499996292114,0|0,0:0|3:0,0:0:0:0:
326,120,16775,6,0,B|352:120|392:132|392:132|416:160|416:160|460:168|496:152,1,175.499991966248,2|0,0:0|2:0,0:0:0:0:
348,196,17420,1,0,0:0:0:0:
486,155,17581,1,0,2:0:0:0:
464,292,17742,6,0,P|426:333|376:343,1,87.749995983124,0|0,0:0|3:0,0:0:0:0:
316,340,18065,6,0,B|280:284|280:284|304:208,1,121.499996292114,2|0,0:0|3:0,0:0:0:0:
215,231,18387,2,0,B|232:284|232:284|196:340,1,121.499996292114,0|0,0:0|3:0,0:0:0:0:
256,384,18709,2,0,L|256:248,1,121.499996292114,0|0,0:0|3:0,0:0:0:0:
256,120,19031,6,0,P|292:164|340:168,1,87.749995983124,0|0,0:0|3:0,0:0:0:0:
200,200,19354,6,0,P|135:184|79:218,1,135,2|0,0:0|3:0,0:0:0:0:
91,295,19676,2,0,P|155:310|211:276,1,135,0|0,0:0|3:0,0:0:0:0:
311,199,19998,2,0,B|379:183|379:183|443:223,1,135,0|0,0:0|3:0,0:0:0:0:
425,298,20320,2,0,B|356:313|356:313|293:274,1,135,0|0,0:0|3:0,0:0:0:0:
206,206,20643,6,0,P|237:146|208:82,1,135,2|0,0:0|3:0,0:0:0:0:
294,148,20965,2,0,L|160:144,1,135,0|2,0:0|0:0,0:0:0:0:
120,148,21287,1,2,0:0:0:0:
89,161,21368,1,2,0:0:0:0:
66,184,21448,1,2,0:0:0:0:
51,214,21529,1,2,0:0:0:0:
48,247,21610,1,2,0:0:0:0:
56,279,21690,1,2,0:0:0:0:
74,307,21771,1,2,0:0:0:0:
100,324,21851,1,2,0:0:0:0:
136,340,21932,6,0,P|228:340|272:304,1,107.999996704102,4|0,2:0|0:0,0:0:0:0:
396,216,22254,1,0,0:0:0:0:
264,88,22415,2,0,L|272:228,1,107.999996704102,10|0,0:0|0:0,0:0:0:0:
392,120,22737,1,2,0:0:0:0:
89,161,22887,5,8,0:0:0:0:
256,312,23048,2,0,B|360:328|360:328|488:308,2,215.999993408203,2|0|2,0:0|0:0|0:0,0:0:0:0:
14,184,23853,1,8,0:0:0:0:
132,356,24014,1,2,0:0:0:0:
306,239,24176,2,0,B|360:248|360:248|412:240,1,107.999996704102
245,53,24498,5,4,0:0:0:0:
114,165,24659,2,0,P|143:209|192:230,1,107.999996704102
411,129,24981,2,0,B|372:104|308:120|308:120|260:158|204:136,1,215.999993408203,2|2,0:0|0:0,0:0:0:0:
444,216,25465,5,8,0:0:0:0:
212,312,25626,2,0,B|164:301|164:301|92:313|92:313|52:269|12:269,1,215.999993408203,2|0,0:0|0:0,0:0:0:0:
308,344,26109,2,0,L|416:348,1,107.999996704102,2|0,2:0|0:0,0:0:0:0:
212,124,26431,1,8,0:0:0:0:
316,372,26593,1,0,0:0:0:0:
144,204,26754,2,0,L|20:188,1,107.999996704102,2|0,0:0|2:0,0:0:0:0:
180,28,27088,5,4,0:0:0:0:
296,72,27249,2,0,L|420:56,1,107.999996704102
172,8,27571,1,2,0:0:0:0:
144,204,27732,1,0,0:0:0:0:
296,72,27893,1,2,0:0:0:0:
41,55,28054,5,10,0:0:0:0:
24,296,28215,2,0,B|128:352|128:352|224:332,1,215.999993408203,0|2,0:0|0:0,0:0:0:0:
119,246,28699,2,0,L|24:296,1,107.999996704102,0|2,0:0|0:0,0:0:0:0:
356,384,29021,1,8,0:0:0:0:
272,261,29182,2,0,B|161:228|161:228|119:246,1,161.999995056153,2|0,0:0|0:0,0:0:0:0:
118,245,29505,1,0,0:0:0:0:
356,384,29666,5,12,0:0:0:0:
344,296,29827,1,0,0:0:0:0:
486,312,29988,1,0,0:0:0:0:
444,232,30149,2,0,B|380:204|380:204|224:216,1,215.999993408203,0|2,0:0|0:0,0:0:0:0:
44,152,30632,1,8,0:0:0:0:
234,215,30794,1,2,0:0:0:0:
242,183,31116,1,10,0:0:0:0:
250,151,31423,5,2,0:0:0:0:
80,236,31577,1,8,0:0:0:0:
284,288,31731,1,8,0:0:0:0:
308,264,31808,1,8,0:0:0:0:
320,232,31885,1,8,0:0:0:0:
156,300,32039,1,8,0:0:0:0:
168,332,32116,1,8,0:0:0:0:
192,356,32192,1,12,0:0:0:0:
468,246,32574,5,2,0:0:0:0:
440,336,32735,1,0,0:0:0:0:
468,246,32896,2,0,B|468:202|468:202|436:118,1,90,8|0,0:0|0:0,0:0:0:0:
368,108,33218,1,2,0:0:0:0:
320,268,33379,2,0,B|352:320|352:320|356:188,1,180,8|0,0:0|0:0,0:0:0:0:
244,324,33862,5,8,0:0:0:0:
277,195,34023,1,0,0:0:0:0:
133,276,34184,2,0,L|197:273,1,45,2|2,3:0|3:0,3:0:0:0:
320,268,34345,1,2,0:0:0:0:
52,184,34506,1,8,0:0:0:0:
112,116,34667,1,0,0:0:0:0:
220,236,34829,6,0,B|220:276|220:276|204:324,1,90,4|0,0:0|0:0,0:0:0:0:
78,22,35151,2,0,B|170:34|170:34|257:23,1,180,8|0,0:0|0:0,0:0:0:0:
360,36,35634,1,0,0:0:0:0:
196,116,35795,1,0,0:0:0:0:
392,148,35957,1,8,0:0:0:0:
257,23,36118,5,0,0:0:0:0:
360,36,36279,1,0,0:0:0:0:
277,193,36440,2,0,L|283:285,1,90,8|0,0:0|0:0,0:0:0:0:
20,176,36762,1,0,0:0:0:0:
20,176,36843,1,0,0:0:0:0:
20,176,36923,1,0,0:0:0:0:
188,260,37084,1,8,0:0:0:0:
76,272,37246,1,0,0:0:0:0:
172,92,37407,6,0,B|224:112|224:112|280:104,1,90,4|0,0:0|0:0,0:0:0:0:
440,351,37729,2,0,B|426:326|418:292|418:292|428:214|428:214|437:238|459:253,1,180,8|0,0:0|0:0,0:0:0:0:
348,312,38212,1,0,0:0:0:0:
160,324,38374,1,2,0:0:0:0:
260,356,38535,1,8,0:0:0:0:
215,156,38696,6,0,P|208:200|221:243,1,90
360,384,39018,1,8,0:0:0:0:
372,264,39179,1,2,0:0:0:0:
368,240,39260,1,2,0:0:0:0:
352,215,39340,1,2,0:0:0:0:
315,200,39421,1,2,0:0:0:0:
272,208,39501,2,0,P|252:256|264:276,1,45,2|0,0:0|0:0,0:0:0:0:
468,135,39663,2,0,P|420:90|354:85,1,135,8|0,0:0|0:0,0:0:0:0:
268,108,39985,6,0,P|223:116|179:111,1,90,4|0,0:0|0:0,0:0:0:0:
80,292,40307,2,0,P|140:270|144:207,1,135,8|0,0:0|0:0,0:0:0:0:
175,131,40629,2,0,P|219:135|264:128,1,90,2|2,0:0|0:0,0:0:0:0:
360,76,40952,1,0,0:0:0:0:
217,171,41113,2,0,L|127:166,1,90,8|0,0:0|0:0,0:0:0:0:
280,256,41435,5,0,0:0:0:0:
160,288,41596,1,8,0:0:0:0:
268,360,41757,1,2,0:0:0:0:
304,368,41838,1,2,0:0:0:0:
344,352,41918,1,2,0:0:0:0:
376,319,41999,1,2,0:0:0:0:
376,269,42080,2,0,P|370:247|355:230,1,45,2|0,0:0|0:0,0:0:0:0:
414,58,42241,2,0,P|399:122|428:181,1,135,8|0,0:0|0:0,0:0:0:0:
459,213,42563,5,4,0:0:0:0:
484,113,42724,1,0,0:0:0:0:
304,120,42885,2,0,B|280:104|280:104|192:120,1,90,8|0,0:0|0:0,0:0:0:0:
219,114,43127,1,0,0:0:0:0:
219,114,43208,1,0,0:0:0:0:
48,68,43369,1,0,0:0:0:0:
192,24,43530,1,0,0:0:0:0:
40,176,43691,1,8,0:0:0:0:
176,228,43852,5,0,0:0:0:0:
40,176,44013,1,0,0:0:0:0:
158,100,44174,1,8,0:0:0:0:
122,308,44336,1,2,0:0:0:0:
143,302,44416,1,2,0:0:0:0:
169,311,44497,1,2,0:0:0:0:
206,307,44577,1,2,0:0:0:0:
248,292,44658,2,0,B|253:271|253:271|246:248,1,45,2|0,0:0|0:0,0:0:0:0:
254,76,44819,2,0,P|262:141|316:178,1,135,8|0,0:0|0:0,0:0:0:0:
372,232,45141,6,0,B|400:188|400:188|392:132|392:132,1,90,4|0,0:0|0:0,0:0:0:0:
336,368,45463,1,8,0:0:0:0:
432,336,45625,1,0,0:0:0:0:
268,302,45786,2,0,L|224:296,1,45
88,342,45947,1,8,0:0:0:0:
132,156,46108,1,0,0:0:0:0:
176,384,46269,1,8,0:0:0:0:
24,268,46430,5,0,0:0:0:0:
24,268,46511,1,0,0:0:0:0:
24,268,46591,1,0,0:0:0:0:
220,320,46753,1,8,0:0:0:0:
116,329,46914,1,0,0:0:0:0:
304,372,47075,1,0,0:0:0:0:
348,366,47155,1,0,0:0:0:0:
393,361,47236,1,0,0:0:0:0:
456,264,47397,5,8,0:0:0:0:
256,32,47719,1,4,0:0:0:0:
56,264,48042,1,8,0:0:0:0:
220,319,48203,1,0,0:0:0:0:
220,319,48283,1,0,0:0:0:0:
220,319,48364,1,0,0:0:0:0:
12,340,48525,1,0,0:0:0:0:
116,329,48686,1,0,0:0:0:0:
210,215,48847,1,8,0:0:0:0:
220,319,49008,5,0,0:0:0:0:
64,188,49170,1,0,0:0:0:0:
220,319,49331,1,8,0:0:0:0:
255,113,49492,1,2,0:0:0:0:
262,90,49572,1,2,0:0:0:0:
281,69,49653,1,10,0:0:0:0:
318,49,49734,1,2,0:0:0:0:
372,38,49814,2,0,P|396:37|418:50,1,45,2|2,0:0|0:0,0:0:0:0:
184,72,49975,2,0,P|174:119|183:161,1,90,8|0,0:0|0:0,0:0:0:0:
408,336,50297,6,0,P|434:309|436:184,1,135,4|0,0:0|0:0,0:0:0:0:
436,140,50620,1,8,0:0:0:0:
281,69,50781,1,0,0:0:0:0:
281,69,50942,1,0,0:0:0:0:
449,215,51103,1,0,0:0:0:0:
436,140,51264,1,0,0:0:0:0:
120,232,51425,1,8,0:0:0:0:
356,259,51587,5,0,0:0:0:0:
208,279,51748,1,0,0:0:0:0:
288,335,51909,1,8,0:0:0:0:
112,280,52070,1,8,0:0:0:0:
120,232,52151,1,8,0:0:0:0:
144,192,52231,1,8,0:0:0:0:
388,232,52392,1,0,0:0:0:0:
175,365,52553,1,0,0:0:0:0:
112,280,52714,1,0,0:0:0:0:
255,29,52876,5,12,0:0:0:0:
34,94,53044,2,0,L|37:221,1,127.799993564759
388,146,53381,2,0,L|123:154,1,255.599987129517,8|0,0:0|0:0,0:0:0:0:
440,32,53860,5,8,0:0:0:0:
326,194,54027,2,0,P|383:221|443:203,1,127.799993564759
150,51,54362,2,0,P|46:114|61:234,1,255.599987129517,8|0,0:0|0:0,0:0:0:0:
335,77,54839,6,0,L|234:84,1,90,8|0,0:0|0:0,0:0:0:0:
181,191,55161,6,0,L|293:182,1,112.5,8|0,0:0|0:0,0:0:0:0:
427,191,55483,6,0,L|293:182,2,135.000005149842,8|0|0,0:0|0:0|0:0,0:0:0:0:
181,191,55966,2,0,B|6:182|6:182|83:247,1,270.000010299683,8|0,0:0|0:0,0:0:0:0:
267,260,56450,1,8,0:0:0:0:
78,243,56611,5,10,0:0:0:0:
280,292,56933,1,0,0:0:0:0:
293,324,57255,5,0,0:0:0:0:
152,120,57416,1,8,0:0:0:0:
298,189,57577,1,2,0:0:0:0:
158,272,57739,1,8,0:0:0:0:
288,27,57900,1,8,0:0:0:0:
152,120,58061,5,0,0:0:0:0:
156,196,58222,1,2,0:0:0:0:
226,153,58383,1,0,0:0:0:0:
158,272,58544,2,0,L|68:275,1,90,2|0,0:0|0:0,0:0:0:0:
298,189,58867,2,0,L|387:186,1,90,2|0,0:0|0:0,0:0:0:0:
158,272,59189,2,0,B|128:265|128:265|162:232|162:232|185:223|208:232|225:254|230:279|221:297|196:300,1,180,2|2,0:0|0:0,0:0:0:0:
177,355,59672,5,0,0:0:0:0:
158,272,59833,1,2,0:0:0:0:
298,189,59994,1,0,0:0:0:0:
177,355,60156,1,2,0:0:0:0:
73,281,60317,2,0,B|113:261|113:261|156:271,1,90,0|2,0:0|0:0,0:0:0:0:
380,308,60639,6,0,P|386:242|357:204,1,90,0|2,0:0|0:0,0:0:0:0:
375,222,60881,1,0,0:0:0:0:
375,222,60961,1,0,0:0:0:0:
149,351,61122,2,0,B|204:328|204:328|320:360,1,180,2|2,0:0|0:0,0:0:0:0:
400,384,61606,1,0,0:0:0:0:
145,278,61767,2,0,B|126:271|102:279|102:279|55:313|102:351|102:351|126:359|148:351,1,180,2|2,0:0|0:0,0:0:0:0:
256,260,62250,5,0,0:0:0:0:
207,163,62411,1,2,0:0:0:0:
145,278,62573,1,0,0:0:0:0:
108,112,62734,1,2,0:0:0:0:
108,112,62814,1,0,0:0:0:0:
108,112,62895,1,0,0:0:0:0:
58,204,63056,1,2,0:0:0:0:
350,328,63217,6,0,B|393:333|393:333|479:301,1,135.000005149842,4|2,0:0|0:0,0:0:0:0:
156,360,63551,1,0,0:0:0:0:
192,200,63719,1,0,0:0:0:0:
248,288,63887,1,0,0:0:0:0:
65,231,64054,1,0,0:0:0:0:
215,89,64196,5,8,0:0:0:0:
355,298,64356,2,0,P|441:297|464:142,1,261.000007965088,0|2,0:0|0:0,0:0:0:0:
397,211,64839,1,0,0:0:0:0:
501,65,65000,1,0,0:0:0:0:
102,108,65160,6,0,L|224:104,1,121.500000463486,8|0,0:0|0:0,0:0:0:0:
396,210,65482,2,0,L|275:206,1,121.500000463486,8|0,0:0|0:0,0:0:0:0:
86,322,65804,1,8,0:0:0:0:
224,104,65965,1,0,0:0:0:0:
332,284,66126,1,0,0:0:0:0:
183,23,66287,6,0,B|121:32|121:32|62:22,1,121.500000463486,2|0,0:0|0:0,0:0:0:0:
48,162,66610,1,0,0:0:0:0:
371,118,66752,5,8,0:0:0:0:
48,162,66913,2,0,L|317:176,1,270.000010299683,0|2,0:0|0:0,0:0:0:0:
371,118,67396,2,0,P|396:179|369:239,1,135.000005149842,0|2,0:0|0:0,0:0:0:0:
48,162,67718,1,8,0:0:0:0:
100,39,67879,1,2,0:0:0:0:
368,239,68041,1,8,0:0:0:0:
243,0,68202,1,8,0:0:0:0:
104,263,68363,6,0,P|86:318|99:375,1,116.999994644165,4|2,0:0|0:0,0:0:0:0:
3,324,68696,1,0,0:0:0:0:
180,317,68863,1,0,0:0:0:0:
142,43,69029,6,0,P|57:126|62:244,1,243.000000926971,8|0,0:0|0:0,0:0:0:0:
180,317,69512,6,0,P|194:270|176:202,1,107.999996704102,2|0,0:0|0:0,0:0:0:0:
94,344,69834,1,2,0:0:0:0:
289,258,69995,1,8,0:0:0:0:
117,264,70156,2,0,L|49:267,2,53.9999983520508,2|2|2,0:0|0:0|0:0,0:0:0:0:
0,326,70479,1,2,0:0:0:0:
286,355,70640,6,0,P|349:300|337:217,1,172.8,8|0,0:0|0:0,0:0:0:0:
337,218,70962,1,2,0:0:0:0:
452,220,71123,1,0,0:0:0:0:
402,357,71284,1,0,0:0:0:0:
286,355,71446,1,2,0:0:0:0:
386,141,71607,2,0,P|329:133|275:152,1,115.2,8|0,0:0|0:0,0:0:0:0:
5,118,71929,5,0,0:0:0:0:
60,39,72090,2,0,P|114:44|173:27,1,107.999996704102,2|0,0:0|0:0,0:0:0:0:
444,76,72412,1,2,0:0:0:0:
444,76,72493,1,0,0:0:0:0:
444,76,72573,6,0,P|331:40|225:94,1,243.000000926971,8|0,0:0|0:0,0:0:0:0:
197,179,73057,1,0,0:0:0:0:
447,205,73218,6,0,B|427:121|427:121|451:57,1,135,8|0,0:0|0:0,0:0:0:0:
477,7,73540,1,10,0:0:0:0:
455,243,73701,1,2,0:0:0:0:
508,128,73863,1,0,0:0:0:0:
351,194,74024,1,0,0:0:0:0:
171,328,74185,5,8,0:0:0:0:
57,104,74346,1,0,0:0:0:0:
42,79,74427,1,0,0:0:0:0:
21,63,74507,1,8,0:0:0:0:
22,107,74587,1,0,0:0:0:0:
23,152,74668,1,8,0:0:0:0:
24,197,74748,1,8,0:0:0:0:
47,264,74829,6,0,P|131:262|173:190,1,175.499991966248,12|0,0:0|2:0,0:0:0:0:
115,89,75152,2,0,B|91:123|91:123|94:206,1,116.999994644165,8|0,0:0|0:0,0:0:0:0:
171,328,75474,1,2,0:0:0:0:
269,196,75635,1,0,0:0:0:0:
61,333,75796,1,0,0:0:0:0:
61,333,75957,1,8,0:0:0:0:
264,286,76118,6,0,B|305:304|305:304|401:292,1,116.999994644165
466,185,76360,1,8,0:0:0:0:
466,185,76441,2,0,B|454:242|454:242|461:273|480:295,1,116.999994644165,8|2,0:0|0:0,0:0:0:0:
408,64,76763,6,0,L|292:68,1,116.999994644165,2|0,0:0|0:0,0:0:0:0:
38,252,77085,2,0,L|154:248,1,116.999994644165,8|0,0:0|0:0,0:0:0:0:
33,158,77327,1,8,0:0:0:0:
103,216,77407,6,0,P|169:245|249:228,1,139.500001064301,4|0,0:0|0:0,0:0:0:0:
352,156,77730,1,8,0:0:0:0:
215,39,77891,1,0,0:0:0:0:
352,156,78052,1,2,0:0:0:0:
255,307,78213,1,0,0:0:0:0:
255,307,78294,1,8,0:0:0:0:
255,307,78374,1,2,0:0:0:0:
489,129,78535,1,8,0:0:0:0:
211,147,78697,6,0,L|94:141,1,116.999994644165
95,358,79019,2,0,L|211:352,1,116.999994644165,8|0,0:0|0:0,0:0:0:0:
125,259,79261,1,8,0:0:0:0:
45,278,79341,2,0,P|3:335|2:393,1,116.999994644165,2|0,0:0|0:0,0:0:0:0:
138,48,79663,2,0,B|100:41|100:41|148:104,1,116.999994644165,8|0,0:0|0:0,0:0:0:0:
230,175,79905,1,8,0:0:0:0:
225,96,79986,6,0,B|181:113|181:113|132:102|132:102|91:114,1,139.500001064301,4|0,0:0|0:0,0:0:0:0:
313,32,80308,6,0,P|369:23|421:49,1,116.999994644165,8|0,0:0|0:0,0:0:0:0:
352,114,80630,1,2,0:0:0:0:
156,48,80791,1,0,0:0:0:0:
0,181,80952,1,2,0:0:0:0:
352,114,81114,1,8,0:0:0:0:
202,226,81275,6,0,P|144:216|86:221,1,116.999994644165
362,270,81597,2,0,P|420:257|477:265,1,116.999994644165,8|0,0:0|0:0,0:0:0:0:
412,182,81839,1,8,0:0:0:0:
412,182,81919,5,2,0:0:0:0:
238,345,82080,1,0,0:0:0:0:
178,138,82242,6,0,P|200:94|177:20,1,121.499996292114,8|0,0:0|0:0,0:0:0:0:
280,99,82564,6,0,B|309:87|309:87|402:93,1,116.999994644165,4|0,0:0|0:0,0:0:0:0:
118,81,82886,2,0,B|89:93|89:93|-4:87,1,116.999994644165,8|0,0:0|0:0,0:0:0:0:
49,166,83128,1,8,0:0:0:0:
120,120,83208,2,0,P|177:111|232:130,1,116.999994644165,2|0,0:0|0:0,0:0:0:0:
0,308,83531,1,2,0:0:0:0:
65,18,83692,1,8,0:0:0:0:
134,325,83853,6,0,B|185:342|185:342|244:317,1,116.999994644165
81,154,84175,2,0,B|72:275,1,116.999994644165,8|0,0:0|2:0,0:0:0:0:
312,59,84497,5,12,0:0:0:0:
0,213,84659,1,8,0:0:0:0:
341,272,84820,1,12,0:0:0:0:
100,20,84981,1,8,0:0:0:0:
147,365,85142,1,12,0:0:0:0:
168,360,85464,5,0,0:0:0:0:
353,379,85625,1,0,0:0:0:0:
503,267,85786,2,0,P|422:299|449:197,1,233.999989288331,8|0,0:0|0:0,0:0:0:0:
252,55,86270,1,8,0:0:0:0:
96,232,86431,2,0,L|99:350,1,116.999994644165,2|0,0:0|0:0,0:0:0:0:
148,104,86753,1,2,0:0:0:0:
285,207,86914,1,0,0:0:0:0:
147,104,87076,6,0,P|229:77|307:113,1,175.499991966248,6|0,0:0|3:0,0:0:0:0:
280,210,87398,6,0,P|329:170|306:111,1,135,12|0,0:0|3:0,0:0:0:0:
226,152,87720,6,0,P|316:213|405:205,1,188.999994232178,6|2,0:0|0:0,0:0:0:0:
476,352,88365,1,8,0:0:0:0:
472,364,88687,5,2,0:0:0:0:
256,332,88848,1,8,0:0:0:0:
229,41,89009,1,6,0:0:0:0:
308,196,89170,1,2,0:0:0:0:
160,174,89331,1,0,0:0:0:0:
308,196,89493,1,2,0:0:0:0:
28,116,89654,5,12,0:0:0:0:
308,196,89815,1,2,0:0:0:0:
144,356,89976,1,12,0:0:0:0:
344,324,90137,1,2,0:0:0:0:
376,320,90218,1,10,0:0:0:0:
407,314,90298,6,0,P|430:265|420:201,1,116.999994644165,6|0,0:0|0:0,0:0:0:0:
288,31,90621,2,0,P|285:89|320:134,1,116.999994644165,8|0,0:0|0:0,0:0:0:0:
412,48,90943,1,2,0:0:0:0:
164,104,91104,1,0,0:0:0:0:
412,48,91265,1,2,0:0:0:0:
392,349,91426,1,8,0:0:0:0:
392,349,91587,6,0,L|401:233,1,116.999994644165
100,161,91910,2,0,L|91:277,1,116.999994644165,8|0,0:0|0:0,0:0:0:0:
17,339,92151,1,8,0:0:0:0:
94,303,92232,2,0,P|146:291|207:308,1,116.999994644165,2|0,0:0|0:0,0:0:0:0:
281,160,92554,6,0,P|226:176|222:233,1,121.499996292114,8|0,0:0|0:0,0:0:0:0:
296,250,92876,6,0,P|262:296|206:307,1,116.999994644165,4|0,0:0|0:0,0:0:0:0:
443,222,93199,2,0,P|388:240|334:221,1,116.999994644165,8|0,0:0|0:0,0:0:0:0:
387,287,93440,1,8,0:0:0:0:
317,321,93521,2,0,P|260:326|205:306,1,116.999994644165,2|0,0:0|0:0,0:0:0:0:
28,140,93843,1,2,0:0:0:0:
325,126,94004,1,8,0:0:0:0:
47,239,94165,5,8,0:0:0:0:
220,92,94327,2,0,P|188:92|154:82,1,58.4999973220826,2|8,0:0|0:0,0:0:0:0:
258,18,94488,1,2,0:0:0:0:
286,255,94649,2,0,L|228:250,1,58.4999973220826,2|0,0:0|0:0,0:0:0:0:
235,174,94810,2,0,L|293:179,1,58.4999973220826,2|0,0:0|0:0,0:0:0:0:
474,33,94971,2,0,L|467:95,1,58.4999973220826,8|0,0:0|0:0,0:0:0:0:
144,197,95132,5,8,0:0:0:0:
138,167,95213,1,8,0:0:0:0:
143,140,95293,1,0,0:0:0:0:
158,115,95374,1,8,0:0:0:0:
182,99,95455,5,12,0:0:0:0:
235,174,95616,2,0,L|414:166,2,180
324,378,96421,5,4,0:0:0:0:
243,321,96582,2,0,B|63:314,2,180
395,315,97388,5,8,0:0:0:0:
339,234,97549,2,0,L|249:230,2,90
482,265,98033,5,4,0:0:0:0:
