osu file format v14

[General]
AudioFilename: Cartoon Heroes - Aqua.mp3
AudioLeadIn: 0
PreviewTime: 42500
Countdown: 0
SampleSet: Soft
StackLeniency: 0.7
Mode: 0
LetterboxInBreaks: 0
WidescreenStoryboard: 0

[Editor]
Bookmarks: 34063,77187,119372,121716
DistanceSpacing: 1.5
BeatDivisor: 4
GridSize: 4
TimelineZoom: 3.199999

[Metadata]
Title:Cartoon Heroes (Speed Up Ver.)
TitleUnicode:Cartoon Heroes (Speed Up Ver.)
Artist:Aqua
ArtistUnicode:Aqua
Creator:pinataman
Version:Superman
Source:
Tags:Aquarius trance happy hardcore hard dance uk trancecore
BeatmapID:957391
BeatmapSetID:239635

[Difficulty]
HPDrainRate:6
CircleSize:4.2
OverallDifficulty:8.4
ApproachRate:9
SliderMultiplier:1.6
SliderTickRate:1

[Events]
//Background and Video events
0,0,"Photoshop_The_castle_from_a_fairy_tale_022470_.jpg",0,0
//Break Periods
2,104260,113460
//Storyboard Layer 0 (Background)
//Storyboard Layer 1 (Fail)
//Storyboard Layer 2 (Pass)
//Storyboard Layer 3 (Foreground)
//Storyboard Sound Samples

[TimingPoints]
5315,312.486979709179,4,2,1,60,1,0
11720,-100,4,2,1,40,0,0
11877,-100,4,2,1,60,0,0
12814,-100,4,1,1,40,0,0
15627,-100,4,2,1,60,0,0
22970,-80,4,1,1,50,0,0
30157,-74.0740740740741,4,1,1,50,0,0
32813,-80,4,1,1,50,0,0
42813,-74.0740740740741,4,1,1,65,0,1
62812,-74.0740740740741,4,1,1,50,0,0
64375,-80,4,1,1,50,0,0
71562,-74.0740740740741,4,1,1,50,0,0
74062,-80,4,1,1,50,0,0
81561,-100,4,1,1,50,0,0
81874,-100,4,1,1,34,0,0
82030,-100,4,1,1,50,0,0
82499,-100,4,1,1,34,0,0
82655,-100,4,1,1,50,0,0
83124,-100,4,1,1,34,0,0
83436,-80,4,1,1,50,0,0
84061,-74.0740740740741,4,1,1,65,0,1
104060,-74.0740740740741,4,1,1,50,0,0
114060,-74.0740740740741,4,1,1,65,0,1
140309,-80,4,1,1,65,0,1
141559,-74.0740740740741,4,1,1,50,0,0

[Colours]
Combo1 : 128,255,128
Combo2 : 0,128,255
Combo3 : 255,128,64
Combo4 : 255,128,255

[HitObjects]
258,73,5627,6,0,P|320:24|399:14,2,160,2|0|0,0:0|0:0|0:0,0:0:0:0:
194,254,6564,2,0,P|166:324|85:381,1,160,2|0,0:0|0:0,0:0:0:0:
22,319,7033,2,0,P|52:246|115:198,1,160,2|0,0:0|0:0,0:0:0:0:
204,162,7502,1,0,0:0:0:0:
207,122,7580,1,0,0:0:0:0:
197,83,7658,1,0,0:0:0:0:
174,51,7736,1,0,0:0:0:0:
142,27,7814,5,2,0:0:0:0:
24,177,8127,1,0,0:0:0:0:
195,264,8439,1,0,0:0:0:0:
30,362,8752,1,0,0:0:0:0:
124,177,9064,2,0,P|197:151|272:183,1,160,2|0,0:0|0:0,0:0:0:0:
345,253,9533,2,0,P|410:293|487:280,1,160,2|0,0:0|0:0,0:0:0:0:
431,193,10002,1,0,0:0:0:0:
411,156,10080,1,0,0:0:0:0:
404,118,10158,1,0,0:0:0:0:
412,78,10236,1,0,0:0:0:0:
430,42,10314,5,2,0:0:0:0:
241,22,10627,2,0,B|163:43|163:43|124:120,2,160
332,49,11408,2,0,B|385:111|315:129|367:197,1,160,2|0,0:0|0:0,0:0:0:0:
449,248,11877,1,0,0:0:0:0:
497,165,12033,1,2,0:0:0:0:
283,297,12345,1,0,0:0:0:0:
235,380,12501,1,2,0:0:0:0:
73,82,12814,5,0,0:0:0:0:
439,82,13127,1,0,0:0:0:0:
256,300,13439,1,0,0:0:0:0:
256,60,13752,1,0,0:0:0:0:
144,206,13908,1,0,0:0:0:0:
427,313,14220,2,0,P|421:234|359:188,1,160
144,206,14845,1,0,0:0:0:0:
74,107,15002,2,0,P|90:71|121:47,1,80
243,74,15314,1,2,0:2:0:0:
243,74,15470,1,2,0:2:0:0:
166,133,15627,5,0,0:0:0:0:
291,244,15939,1,0,0:0:0:0:
388,60,16252,1,0,0:0:0:0:
381,269,16564,2,0,P|322:330|239:324,1,160,2|0,0:0|0:0,0:0:0:0:
132,232,17033,2,0,P|184:176|262:175,1,160,2|0,0:0|0:0,0:0:0:0:
394,182,17501,1,2,0:0:0:0:
388,142,17580,1,0,0:0:0:0:
363,113,17658,1,0,0:0:0:0:
360,74,17736,1,0,0:0:0:0:
332,45,17814,5,2,0:0:0:0:
241,14,17970,1,2,0:0:0:0:
254,120,18126,1,0,0:0:0:0:
93,141,18439,1,0,0:0:0:0:
241,14,18751,1,0,0:0:0:0:
108,225,19064,2,0,B|92:265|112:301|112:301|152:309|176:345,1,160,2|0,0:0|0:0,0:0:0:0:
335,346,19533,2,0,B|360:309|400:301|400:301|420:265|404:225,1,160,2|0,0:0|0:0,0:0:0:0:
366,114,20001,2,0,L|333:40,1,80,2|0,0:0|0:0,0:0:0:0:
159,39,20314,6,0,B|115:108|186:116|145:191,1,160,2|2,0:0|0:0,0:0:0:0:
0,307,20939,1,2,0:0:0:0:
79,140,21251,2,0,P|112:118|151:115,1,80
309,94,21564,2,0,L|245:161,1,80,4|0,3:0|0:0,0:0:0:0:
343,296,21876,2,0,P|370:267|380:229,1,80
365,37,22189,2,0,L|309:94,1,80,4|0,3:0|0:0,0:0:0:0:
183,211,22501,1,8,3:0:0:0:
169,247,22579,1,0,3:0:0:0:
178,285,22658,1,0,3:0:0:0:
204,317,22736,1,0,3:0:0:0:
240,332,22814,5,4,3:0:0:0:
334,331,22970,1,4,3:0:0:0:
421,214,23126,2,0,P|465:192|512:205,1,100
402,285,23439,2,0,P|360:257|348:210,1,100
341,86,23751,2,0,P|312:46|265:33,1,100
143,168,24064,6,0,P|107:202|59:215,1,100
50,103,24376,1,0,0:0:0:0:
149,269,24532,2,0,L|201:352,1,100
264,253,24845,1,0,0:0:0:0:
328,349,25001,2,0,L|381:265,1,100
403,156,25314,5,0,0:0:0:0:
459,259,25470,1,0,0:0:0:0:
344,108,25626,2,0,P|384:83|437:87,1,100
252,99,25939,2,0,P|262:51|300:18,1,100
296,211,26251,2,0,P|282:259|245:291,1,100
48,167,26564,6,0,P|90:143|139:146,1,100
126,296,26876,1,0,0:0:0:0:
208,95,27032,2,0,P|168:65|119:62,1,100
130,300,27345,1,0,0:0:0:0:
243,338,27501,2,0,P|303:330|330:302,1,100
317,194,27814,5,0,0:0:0:0:
210,249,27970,1,0,0:0:0:0:
282,109,28126,2,0,P|376:124|405:214,2,200
155,206,28907,6,0,B|135:224|96:229|66:211|66:211|9:229|18:292,1,200
121,329,29376,1,0,0:0:0:0:
108,141,29532,2,0,B|100:77|158:61|158:61|187:80|226:76|248:59,1,200
356,26,30001,2,0,P|400:42|416:100,1,100
103,261,30313,6,0,P|120:310|169:329,1,108.000000411987,2|0,0:0|0:0,0:0:0:0:
409,261,30626,2,0,P|392:310|343:329,1,108.000000411987,2|0,0:0|0:0,0:0:0:0:
209,139,30938,2,2,P|256:117|304:139,1,108.000000411987,2|0,0:0|0:0,0:0:0:0:
256,281,31251,1,0,0:0:0:0:
255,9,31407,6,0,L|255:121,1,108.000000411987,2|0,0:0|0:0,0:0:0:0:
208,344,31720,2,0,P|255:365|303:345,1,108.000000411987
183,222,32032,2,0,B|128:220|147:264|88:266,1,108.000000411987,2|0,0:0|0:0,0:0:0:0:
40,129,32345,1,0,0:0:0:0:
212,140,32501,1,2,0:0:0:0:
251,160,32579,1,0,0:0:0:0:
271,199,32657,1,2,0:0:0:0:
283,243,32735,1,0,0:0:0:0:
318,269,32813,5,4,0:0:0:0:
505,63,33126,2,0,P|494:110|456:142,1,100
330,162,33438,2,0,P|293:194|282:242,1,100
417,324,33751,2,0,P|409:276|373:243,1,100
193,243,34063,6,0,P|177:178|194:128,1,100
220,55,34376,1,0,0:0:0:0:
81,179,34532,2,0,P|104:116|148:86,1,100
220,55,34845,1,0,0:0:0:0:
29,64,35001,2,0,P|82:26|137:26,1,100
220,55,35313,5,0,0:0:0:0:
165,161,35469,1,0,0:0:0:0:
333,96,35626,1,0,0:0:0:0:
303,213,35782,1,0,0:0:0:0:
220,55,35938,2,0,P|172:33|121:37,1,100
12,60,36251,1,0,0:0:0:0:
106,209,36407,6,0,B|127:227|135:250|135:250|233:240|233:240|244:274|289:294,1,200
309,375,36876,1,0,0:0:0:0:
308,216,37032,1,0,0:0:0:0:
201,334,37188,1,0,0:0:0:0:
225,177,37344,1,0,0:0:0:0:
392,255,37501,1,0,0:0:0:0:
213,342,37657,1,0,0:0:0:0:
334,181,37813,6,0,P|335:132|310:90,1,100
189,250,38126,2,0,P|187:299|212:341,1,100
230,158,38438,2,0,P|180:149|135:168,1,100
292,273,38751,1,0,0:0:0:0:
381,115,38907,6,0,B|421:69|469:77|469:77|501:115|480:173,1,200
420,308,39376,2,0,P|381:337|333:343,1,100
192,291,39688,2,0,L|155:199,1,100
301,144,40001,2,0,P|347:159|395:148,1,100
449,290,40313,6,0,L|486:382,1,100
475,142,40626,2,0,L|512:234,1,100
359,56,40938,2,0,L|398:154,1,100
346,280,41251,1,0,0:0:0:0:
240,310,41407,5,0,0:0:0:0:
88,74,41719,1,0,0:0:0:0:
194,44,41875,1,0,0:0:0:0:
437,285,42188,1,0,0:0:0:0:
313,79,42500,1,0,0:0:0:0:
277,96,42579,1,0,0:0:0:0:
249,124,42657,1,0,0:0:0:0:
231,160,42735,1,0,0:0:0:0:
228,200,42813,5,4,0:0:0:0:
268,300,42969,1,0,0:0:0:0:
320,160,43125,1,8,0:0:0:0:
384,296,43282,1,0,0:0:0:0:
228,200,43438,2,0,P|220:144|260:80,1,108.000000411987
412,120,43750,2,0,P|420:176|380:240,1,108.000000411987,8|0,0:0|0:0,0:0:0:0:
268,300,44063,5,0,0:0:0:0:
148,208,44219,1,0,0:0:0:0:
80,344,44375,1,8,0:0:0:0:
148,208,44532,2,0,P|156:151|136:102,1,108.000000411987
283,4,44844,5,4,0:0:0:0:
343,160,45000,1,12,0:0:0:0:
402,316,45157,2,0,P|377:362|329:383,1,108.000000411987,4|0,0:0|0:0,0:0:0:0:
128,314,45469,5,0,0:0:0:0:
208,242,45625,1,8,0:0:0:0:
91,306,45782,1,0,0:0:0:0:
241,274,45938,1,0,0:0:0:0:
96,346,46094,1,0,0:0:0:0:
270,302,46250,1,8,0:0:0:0:
110,383,46407,1,0,0:0:0:0:
116,223,46563,6,0,P|138:174|182:145,1,108.000000411987
328,78,46875,2,0,P|380:87|420:123,1,108.000000411987,8|0,0:0|0:0,0:0:0:0:
323,303,47188,2,0,P|270:294|231:258,1,108.000000411987
172,51,47500,2,0,P|212:16|265:9,1,108.000000411987,8|0,0:0|0:0,0:0:0:0:
420,123,47813,5,4,0:0:0:0:
309,225,47969,1,0,0:0:0:0:
378,357,48125,2,0,P|425:332|446:283,1,108.000000411987,8|0,0:0|0:0,0:0:0:0:
420,123,48438,1,0,0:0:0:0:
309,225,48594,1,0,0:0:0:0:
199,107,48750,2,0,B|142:110|161:149|106:153,1,108.000000411987,8|0,0:0|0:0,0:0:0:0:
51,326,49063,6,0,P|98:348|146:326,1,108.000000411987
256,193,49375,1,8,0:0:0:0:
365,325,49531,2,0,P|412:347|460:327,1,108.000000411987
418,133,49844,5,4,0:0:0:0:
256,285,50000,1,12,0:0:0:0:
93,133,50156,2,0,P|31:153|12:198,1,108.000000411987,4|0,0:0|0:0,0:0:0:0:
182,302,50469,5,0,0:0:0:0:
312,225,50625,1,8,0:0:0:0:
106,284,50781,1,0,0:0:0:0:
256,285,50938,1,0,0:0:0:0:
129,359,51094,1,0,0:0:0:0:
344,373,51250,2,0,P|375:329|377:271,1,108.000000411987,8|0,0:0|0:0,0:0:0:0:
291,71,51563,6,0,B|288:79|288:79|299:88|299:88|294:103|294:103|305:112|305:112|301:125|301:125|311:135|311:135|307:148|307:148|314:160,1,108.000000411987
256,285,51875,1,8,0:0:0:0:
123,191,52031,2,0,P|91:137|101:79,2,108.000000411987
294,216,52500,2,0,P|343:177|356:120,1,108.000000411987,8|0,0:0|0:0,0:0:0:0:
244,18,52813,5,4,0:0:0:0:
131,284,53125,1,8,0:0:0:0:
242,379,53281,1,0,0:0:0:0:
341,265,53437,1,0,0:0:0:0:
227,167,53594,1,0,0:0:0:0:
198,318,53750,2,0,P|158:354|105:357,1,108.000000411987,8|0,0:0|0:0,0:0:0:0:
2,245,54062,5,0,0:0:0:0:
129,164,54219,1,0,0:0:0:0:
105,357,54375,1,8,0:0:0:0:
206,245,54531,1,0,0:0:0:0:
347,325,54687,1,0,0:0:0:0:
198,319,54844,1,0,0:0:0:0:
335,161,55000,2,0,L|405:79,1,108.000000411987,8|0,0:0|0:0,0:0:0:0:
242,42,55312,6,0,P|199:73|190:125,1,108.000000411987
266,256,55625,2,0,P|257:307|215:339,1,108.000000411987,8|0,0:0|0:0,0:0:0:0:
86,328,55937,2,0,L|156:246,1,108.000000411987
291,177,56250,1,8,0:0:0:0:
278,26,56406,1,0,0:0:0:0:
398,165,56562,6,0,P|446:186|496:169,1,108.000000411987
309,282,56875,2,0,P|287:330|304:380,1,108.000000411987,8|0,0:0|0:0,0:0:0:0:
98,227,57187,2,0,P|49:205|0:222,1,108.000000411987
266,102,57500,2,0,P|287:53|270:3,1,108.000000411987,8|0,0:0|0:0,0:0:0:0:
114,43,57812,5,4,0:0:0:0:
55,336,58125,1,8,0:0:0:0:
143,214,58281,1,0,0:0:0:0:
143,365,58437,1,0,0:0:0:0:
55,242,58594,1,0,0:0:0:0:
198,290,58750,2,0,P|302:286|370:205,1,216.000000823975,8|0,0:0|0:0,0:0:0:0:
369,41,59219,5,0,0:0:0:0:
466,174,59375,1,8,0:0:0:0:
311,122,59531,1,0,0:0:0:0:
466,72,59687,1,0,0:0:0:0:
369,205,59843,1,0,0:0:0:0:
212,162,60000,2,0,P|162:178|134:223,1,108.000000411987,8|0,0:0|0:0,0:0:0:0:
152,372,60312,6,0,B|209:375|195:334|251:337,1,108.000000411987
401,368,60625,2,0,P|451:352|479:307,1,108.000000411987,8|0,0:0|0:0,0:0:0:0:
482,141,60937,2,0,L|461:35,1,108.000000411987
289,9,61250,2,0,P|252:46|253:117,1,108.000000411987,8|0,0:0|0:0,0:0:0:0:
262,268,61562,6,0,P|256:320|219:358,1,108.000000411987
89,313,61875,2,0,L|110:207,1,108.000000411987,8|0,0:0|0:0,0:0:0:0:
151,8,62187,2,0,L|129:113,1,108.000000411987
30,352,62500,2,0,P|73:383|127:373,1,108.000000411987,8|0,0:0|0:0,0:0:0:0:
262,268,62812,1,4,0:0:0:0:
30,227,64375,6,0,L|134:204,1,100,8|0,0:0|0:0,0:0:0:0:
233,113,64687,2,0,L|337:90,1,100
368,236,65000,2,0,P|382:283|424:307,1,100,8|0,0:0|0:0,0:0:0:0:
366,161,65312,6,0,P|315:179|295:222,1,100
256,355,65624,1,8,0:0:0:0:
216,217,65781,2,0,P|192:175|146:161,1,100,0|0,0:0|0:0,0:0:0:0:
90,304,66093,1,0,0:0:0:0:
35,175,66249,2,0,P|33:125|62:86,1,100,8|0,0:0|0:0,0:0:0:0:
200,56,66562,5,0,0:0:0:0:
336,84,66718,1,0,0:0:0:0:
194,158,66874,2,0,P|146:172|109:204,1,100,8|0,0:0|0:0,0:0:0:0:
269,218,67187,2,0,P|319:219|363:241,1,100,0|0,0:0|0:0,0:0:0:0:
212,295,67499,2,0,P|170:321|142:361,1,100,8|0,0:0|0:0,0:0:0:0:
307,373,67812,6,0,P|361:373|408:345,1,100
433,206,68124,1,8,0:0:0:0:
284,124,68281,2,0,P|262:78|266:30,1,100
401,54,68593,1,0,0:0:0:0:
342,213,68749,2,0,P|296:253|235:249,1,100,8|0,0:0|0:0,0:0:0:0:
135,134,69062,5,0,0:0:0:0:
71,252,69218,1,0,0:0:0:0:
195,315,69374,2,0,B|250:349|314:331|314:331|352:311|393:326,2,200,8|0|8,0:0|0:0|0:0,0:0:0:0:
226,63,70312,6,0,P|286:58|324:80,1,100
258,179,70624,1,8,0:0:0:0:
197,281,70781,2,0,P|243:302|291:294,1,100
258,179,71093,1,0,0:0:0:0:
152,103,71249,2,0,B|107:129|107:129|82:181,1,100,8|0,0:0|0:0,0:0:0:0:
216,372,71562,6,0,L|292:294,1,108.000000411987,2|0,0:0|0:0,0:0:0:0:
152,103,71874,2,0,L|217:188,1,108.000000411987,2|0,0:0|0:0,0:0:0:0:
0,258,72187,2,2,L|65:180,1,108.000000411987,2|0,0:0|0:0,0:0:0:0:
188,43,72499,1,0,0:0:0:0:
263,287,72655,6,0,P|279:336|329:354,1,108.000000411987,2|0,0:0|0:0,0:0:0:0:
441,106,72968,2,0,P|425:57|376:38,1,108.000000411987
125,145,73280,2,0,P|141:194|191:212,1,108.000000411987,2|0,0:0|0:0,0:0:0:0:
354,126,73593,1,0,0:0:0:0:
256,304,73749,1,2,0:0:0:0:
223,333,73827,1,0,0:0:0:0:
183,348,73905,1,2,0:0:0:0:
140,347,73984,1,0,0:0:0:0:
101,331,74062,5,4,0:0:0:0:
212,94,74374,2,0,L|129:167,1,100,8|0,0:0|0:0,0:0:0:0:
103,23,74687,2,0,L|20:96,1,100
68,222,74999,2,0,L|151:295,1,100,8|0,0:0|0:0,0:0:0:0:
276,242,75312,6,0,L|351:308,1,100
451,211,75624,1,8,0:0:0:0:
361,74,75780,2,0,P|312:79|271:107,1,100
361,212,76093,1,0,0:0:0:0:
205,169,76249,2,0,P|183:124|187:75,1,100,8|0,0:0|0:0,0:0:0:0:
56,98,76562,5,0,0:0:0:0:
85,235,76718,1,0,0:0:0:0:
252,259,76874,2,0,P|293:285|314:330,1,100,8|0,0:0|0:0,0:0:0:0:
91,366,77187,2,0,P|117:324|162:303,1,100
205,169,77499,2,0,P|210:119|190:75,1,100,8|0,0:0|0:0,0:0:0:0:
401,20,77811,6,0,B|387:124,1,100
366,267,78124,1,8,0:0:0:0:
302,75,78280,2,0,P|289:119|304:166,1,100
444,262,78593,1,0,0:0:0:0:
391,100,78749,2,0,B|350:69|350:69|301:74,1,100,8|0,0:0|0:0,0:0:0:0:
242,260,79061,6,0,P|231:306|162:331,1,100
49,231,79374,2,0,P|77:271|125:278,1,100,8|0,0:0|0:0,0:0:0:0:
139,90,79686,2,0,P|157:135|136:179,1,100,8|0,0:0|0:0,0:0:0:0:
0,172,79999,1,0,0:0:0:0:
101,23,80155,6,0,B|160:-2|202:34|215:68|215:68|230:98|254:115,1,200
362,205,80624,2,0,B|386:250|411:220|436:266,1,100,8|0,0:0|0:0,0:0:0:0:
486,136,80936,2,0,B|461:90|436:120|411:74,1,100,8|0,0:0|0:0,0:0:0:0:
285,23,81249,2,0,B|250:62|287:75|253:115,1,100
256,256,81561,6,0,L|256:356,1,80
184,200,81873,2,0,L|153:301,1,80,8|0,0:0|0:0,0:0:0:0:
350,224,82186,2,0,L|328:148,1,80
258,26,82498,1,8,0:0:0:0:
212,119,82654,5,0,0:0:0:0:
268,379,82967,1,0,0:0:0:0:
247,277,83123,1,8,0:0:0:0:
472,39,83436,1,0,0:0:0:0:
376,302,83749,1,4,0:0:0:0:
345,340,83827,1,0,0:0:0:0:
302,367,83905,1,0,0:0:0:0:
254,379,83983,1,0,0:0:0:0:
204,376,84061,5,4,0:0:0:0:
85,300,84217,1,0,0:0:0:0:
131,168,84374,1,8,0:0:0:0:
272,181,84530,1,0,0:0:0:0:
410,120,84686,2,0,P|423:68|401:21,1,108.000000411987
263,83,84999,2,0,P|250:134|272:181,1,108.000000411987,8|0,0:0|0:0,0:0:0:0:
360,320,85311,5,0,0:0:0:0:
187,307,85467,1,0,0:0:0:0:
274,183,85624,1,8,0:0:0:0:
158,56,85780,1,0,0:0:0:0:
274,183,85936,1,0,0:0:0:0:
110,287,86092,5,4,0:0:0:0:
368,320,86249,1,12,0:0:0:0:
249,77,86405,2,0,L|273:182,1,108.000000411987,4|0,0:0|0:0,0:0:0:0:
233,356,86717,5,0,0:0:0:0:
99,308,86874,1,8,0:0:0:0:
53,175,87030,1,0,0:0:0:0:
126,42,87186,1,0,0:0:0:0:
189,179,87342,1,0,0:0:0:0:
295,70,87499,1,8,0:0:0:0:
358,207,87655,1,0,0:0:0:0:
221,333,87811,6,0,P|213:280|241:236,1,108.000000411987
358,113,88124,2,0,P|370:51|346:14,1,108.000000411987,8|0,0:0|0:0,0:0:0:0:
336,268,88436,2,0,P|389:262|422:221,1,108.000000411987
205,63,88749,2,0,P|152:67|118:109,1,108.000000411987,8|0,0:0|0:0,0:0:0:0:
97,275,89061,5,4,0:0:0:0:
219,186,89217,1,0,0:0:0:0:
224,337,89373,2,0,P|181:369|128:364,1,108.000000411987,8|0,0:0|0:0,0:0:0:0:
129,136,89686,1,0,0:0:0:0:
162,299,89842,1,0,0:0:0:0:
67,97,89998,2,0,P|112:65|184:88,1,108.000000411987,8|0,0:0|0:0,0:0:0:0:
273,231,90311,6,0,P|326:253|376:235,1,108.000000411987
499,139,90623,1,8,0:0:0:0:
358,20,90780,2,0,P|296:9|253:39,1,108.000000411987
325,169,91092,5,4,0:0:0:0:
108,222,91248,1,12,0:0:0:0:
320,327,91405,2,0,L|270:226,1,108.000000411987,4|0,0:0|0:0,0:0:0:0:
164,67,91717,5,0,0:0:0:0:
53,169,91873,2,0,P|31:218|47:268,1,108.000000411987,8|0,0:0|0:0,0:0:0:0:
176,352,92186,1,0,0:0:0:0:
296,264,92342,1,0,0:0:0:0:
428,340,92498,2,0,P|486:311|498:237,1,108.000000411987,8|0,0:0|0:0,0:0:0:0:
362,83,92811,6,2,B|362:92|362:92|375:98|375:98|374:113|374:113|387:119|387:119|386:133|386:133|399:140|399:140|398:154|398:154|408:163,1,108.000000411987,2|0,0:0|0:0,0:0:0:0:
354,320,93123,1,8,0:0:0:0:
211,236,93280,2,0,L|154:143,2,108.000000411987
111,371,93748,2,0,P|73:333|62:281,1,108.000000411987,8|0,0:0|0:0,0:0:0:0:
55,113,94061,5,4,0:0:0:0:
305,276,94373,1,8,0:0:0:0:
435,353,94530,1,0,0:0:0:0:
457,164,94686,1,0,0:0:0:0:
380,297,94842,1,0,0:0:0:0:
280,120,94998,2,0,P|173:60|61:87,1,216.000000823975,8|4,0:0|0:0,0:0:0:0:
16,208,95467,5,0,0:0:0:0:
164,326,95623,1,8,0:0:0:0:
20,359,95779,1,0,0:0:0:0:
194,239,95936,1,0,0:0:0:0:
16,208,96092,1,0,0:0:0:0:
225,152,96248,2,0,P|278:199|280:267,1,108.000000411987,8|0,0:0|0:0,0:0:0:0:
411,320,96561,6,0,P|463:300|483:235,1,108.000000411987
414,109,96873,2,0,P|399:57|355:29,1,108.000000411987,8|0,0:0|0:0,0:0:0:0:
204,87,97186,2,0,P|151:96|120:138,1,108.000000411987
163,294,97498,2,0,P|168:347|207:381,1,108.000000411987,8|0,0:0|0:0,0:0:0:0:
443,191,97811,6,0,P|439:244|399:279,1,108.000000411987
163,294,98123,2,0,P|119:263|109:212,1,108.000000411987,8|0,0:0|0:0,0:0:0:0:
267,34,98436,2,0,L|273:141,1,108.000000411987
356,364,98748,2,0,P|395:329|400:276,1,108.000000411987,8|0,0:0|0:0,0:0:0:0:
380,73,99061,5,4,0:0:0:0:
118,240,99373,1,8,0:0:0:0:
256,303,99529,1,0,0:0:0:0:
394,240,99686,1,0,0:0:0:0:
252,307,99842,1,0,0:0:0:0:
118,240,99998,2,0,P|71:212|10:226,1,108.000000411987,8|0,0:0|0:0,0:0:0:0:
40,370,100311,5,4,0:0:0:0:
88,142,100467,1,0,0:0:0:0:
256,221,100623,1,8,0:0:0:0:
205,363,100779,1,0,0:0:0:0:
88,142,100936,1,0,0:0:0:0:
138,284,101092,1,0,0:0:0:0:
238,80,101248,2,0,P|209:40|153:15,1,108.000000411987,8|0,0:0|0:0,0:0:0:0:
201,163,101560,6,0,B|271:245|271:245|268:308|317:346,1,216.000000823975,0|8,0:0|0:0,0:0:0:0:
460,365,102029,1,0,0:0:0:0:
479,214,102185,2,0,B|457:164|395:154|395:154|325:71,1,216.000000823975,0|8,0:0|0:0,0:0:0:0:
180,31,102654,1,0,0:0:0:0:
139,270,102810,6,0,P|116:317|69:340,1,108.000000411987
373,270,103123,2,0,P|395:317|442:340,1,108.000000411987,8|0,0:0|0:0,0:0:0:0:
82,148,103435,2,0,P|52:191|1:205,1,108.000000411987
431,148,103748,2,0,P|461:191|512:205,1,108.000000411987,8|0,0:0|0:0,0:0:0:0:
256,97,104060,1,4,1:0:0:0:
152,100,114060,6,0,L|84:208,1,108.000000411987,2|0,0:0|0:0,0:0:0:0:
348,100,114372,2,0,L|416:208,1,108.000000411987,8|0,0:0|0:0,0:0:0:0:
236,100,114685,2,0,L|168:208,1,108.000000411987
432,100,114997,1,8,0:0:0:0:
512,288,115154,6,0,P|480:340|411:361,1,108.000000411987,2|0,0:0|0:0,0:0:0:0:
230,358,115466,2,0,P|276:333|303:287,1,108.000000411987,0|8,0:0|0:0,0:0:0:0:
134,189,115779,2,0,P|159:236|206:261,1,108.000000411987
349,111,116091,1,2,0:0:0:0:
422,293,116247,2,0,P|390:345|321:366,1,108.000000411987,10|0,0:0|0:0,0:0:0:0:
210,187,116560,6,0,P|228:136|276:114,1,108.000000411987,2|0,0:0|0:0,0:0:0:0:
482,128,116872,2,0,P|503:80|486:30,1,108.000000411987,8|0,0:0|0:0,0:0:0:0:
275,114,117185,2,0,P|279:163|317:204,1,108.000000411987
433,78,117497,1,8,0:0:0:0:
317,272,117654,6,2,L|254:376,1,108.000000411987,0|0,0:0|0:0,0:0:0:0:
394,143,117966,2,0,L|449:50,1,108.000000411987,0|8,0:0|0:0,0:0:0:0:
212,138,118279,2,0,L|108:75,1,108.000000411987,0|0,0:0|0:0,0:0:0:0:
5,236,118591,1,2,0:0:0:0:
203,209,118747,2,0,P|240:248|244:301,1,108.000000411987,10|0,0:0|0:0,0:0:0:0:
418,153,119060,6,0,P|470:163|504:204,1,108.000000411987,2|0,0:0|0:0,0:0:0:0:
369,370,119372,2,0,B|331:326|372:312|336:272,1,108.000000411987,8|0,0:0|0:0,0:0:0:0:
204,210,119685,2,0,P|151:213|112:250,1,108.000000411987
211,370,119997,1,8,0:0:0:0:
275,144,120153,6,0,P|319:97|388:77,1,108.000000411987,2|0,0:0|0:0,0:0:0:0:
491,193,120466,2,0,P|447:240|378:260,1,108.000000411987,0|8,0:0|0:0,0:0:0:0:
200,166,120778,2,0,P|236:214|307:215,1,108.000000411987
157,58,121091,1,2,0:0:0:0:
99,251,121247,2,0,P|128:309|181:329,1,108.000000411987,10|0,0:0|0:0,0:0:0:0:
275,144,121560,6,0,B|283:87|320:110|328:56,1,108.000000411987,2|0,0:0|0:0,0:0:0:0:
436,247,121872,2,0,B|444:304|481:281|489:335,1,108.000000411987,8|0,0:0|0:0,0:0:0:0:
333,144,122185,2,0,B|324:87|287:110|279:56,1,108.000000411987
132,93,122497,1,8,0:0:0:0:
139,329,122653,6,0,P|196:315|227:260,1,108.000000411987,2|0,0:0|0:0,0:0:0:0:
387,219,122966,2,0,P|436:236|486:218,1,108.000000411987,0|8,0:0|0:0,0:0:0:0:
343,380,123278,2,0,L|314:269,1,108.000000411987
261,65,123591,1,2,0:0:0:0:
402,117,123747,1,10,0:0:0:0:
439,155,123825,1,0,0:0:0:0:
450,206,123903,1,2,0:0:0:0:
435,258,123981,1,0,0:0:0:0:
397,296,124060,5,4,1:0:0:0:
235,293,124216,1,0,0:0:0:0:
371,206,124372,1,8,0:0:0:0:
234,140,124528,1,0,0:0:0:0:
312,309,124685,2,0,P|341:352|389:376,1,108.000000411987
463,208,124997,2,0,P|433:164|385:140,1,108.000000411987,8|0,0:0|0:0,0:0:0:0:
202,132,125310,5,0,0:0:0:0:
365,49,125466,1,0,0:0:0:0:
395,251,125622,1,8,0:0:0:0:
202,132,125778,2,0,P|180:72|208:24,1,108.000000411987
375,157,126091,5,4,0:0:0:0:
95,211,126247,1,12,0:0:0:0:
331,339,126403,1,4,0:0:0:0:
264,97,126559,1,0,0:0:0:0:
188,208,126716,5,0,0:0:0:0:
336,236,126872,1,8,0:0:0:0:
268,101,127028,1,0,0:0:0:0:
411,247,127184,1,0,0:0:0:0:
241,315,127341,1,0,0:0:0:0:
423,334,127497,1,8,0:0:0:0:
347,167,127653,1,0,0:0:0:0:
153,286,127809,6,0,P|101:278|62:241,1,108.000000411987,4|0,0:0|0:0,0:0:0:0:
67,115,128122,2,0,P|119:123|158:160,1,108.000000411987,8|0,0:0|0:0,0:0:0:0:
118,361,128434,2,0,P|65:353|26:316,1,108.000000411987,4|0,0:0|0:0,0:0:0:0:
101,40,128747,2,0,P|154:47|193:84,1,108.000000411987,8|0,0:0|0:0,0:0:0:0:
316,224,129059,5,4,0:0:0:0:
280,348,129216,1,0,0:0:0:0:
411,278,129372,2,0,P|430:212|409:168,1,108.000000411987,8|0,0:0|0:0,0:0:0:0:
321,61,129684,1,0,0:0:0:0:
212,165,129841,1,0,0:0:0:0:
61,178,129997,2,0,P|30:116|43:69,1,108.000000411987,8|0,0:0|0:0,0:0:0:0:
253,229,130309,6,0,P|248:297|213:331,1,108.000000411987
28,328,130622,1,8,0:0:0:0:
124,111,130778,2,0,P|193:112|227:147,1,108.000000411987
140,328,131091,5,4,0:0:0:0:
308,181,131247,1,12,0:0:0:0:
476,34,131403,1,4,0:0:0:0:
443,233,131559,1,0,0:0:0:0:
322,71,131715,5,0,0:0:0:0:
417,296,131872,2,0,P|470:296|506:258,1,108.000000411987,8|0,0:0|0:0,0:0:0:0:
255,163,132184,1,0,0:0:0:0:
444,100,132340,1,0,0:0:0:0:
320,266,132497,2,0,P|309:315|322:374,1,108.000000411987,8|0,0:0|0:0,0:0:0:0:
273,15,132809,6,2,B|266:21|266:21|253:16|253:16|243:27|243:27|229:22|229:22|220:33|220:33|206:29|206:29|197:39|197:39|183:39,1,108.000000411987,2|0,0:0|0:0,0:0:0:0:
102,196,133122,1,8,0:0:0:0:
1,56,133278,2,0,P|33:22|99:19,2,108.000000411987
19,254,133747,2,0,P|65:282|118:276,1,108.000000411987,8|0,0:0|0:0,0:0:0:0:
216,112,134059,5,4,0:0:0:0:
455,342,134372,1,8,0:0:0:0:
236,308,134528,1,0,0:0:0:0:
426,181,134684,1,0,0:0:0:0:
244,300,134840,1,0,0:0:0:0:
321,58,134997,2,0,P|237:9|111:52,1,216.000000823975,8|0,0:0|0:0,0:0:0:0:
19,182,135465,5,0,0:0:0:0:
204,338,135622,1,8,0:0:0:0:
364,196,135778,1,0,0:0:0:0:
121,188,135934,1,0,0:0:0:0:
332,41,136090,1,0,0:0:0:0:
302,314,136247,2,0,P|264:350|211:349,1,108.000000411987,8|0,0:0|0:0,0:0:0:0:
92,259,136559,6,0,L|52:151,1,108.000000411987,4|0,0:0|0:0,0:0:0:0:
122,23,136872,2,0,L|162:131,1,108.000000411987,8|0,0:0|0:0,0:0:0:0:
283,275,137184,2,0,L|243:167,1,108.000000411987,4|0,0:0|0:0,0:0:0:0:
319,17,137496,2,0,L|359:125,1,108.000000411987,8|0,0:0|0:0,0:0:0:0:
450,336,137809,6,0,P|407:378|342:370,1,108.000000411987,2|0,0:0|0:0,0:0:0:0:
256,228,138121,2,0,L|256:172,2,54.0000002059937,8|0|0,0:0|0:0|0:0,0:0:0:0:
115,379,138434,2,0,P|27:336|0:224,1,216.000000823975,0|8,0:0|0:0,0:0:0:0:
38,82,138903,1,0,0:0:0:0:
220,103,139059,6,0,B|256:143|256:143|256:199,1,108.000000411987,2|0,0:0|0:0,0:0:0:0:
113,306,139371,2,0,P|87:295|72:272,2,54.0000002059937,8|0|0,0:0|0:0|0:0,0:0:0:0:
344,360,139684,2,0,P|449:326|498:220,1,216.000000823975,0|8,0:0|0:0,0:0:0:0:
504,86,140153,1,0,0:0:0:0:
334,42,140309,6,2,B|258:-16|142:83|242:199|322:158|322:158|402:117|502:233|386:332|310:274,1,600,4|0,0:0|0:0,0:0:0:0:
166,183,141403,1,0,0:0:0:0:
137,134,141481,1,0,0:0:0:0:
135,78,141559,1,6,0:0:0:0:
