osu file format v14

[General]
AudioFilename: Cartoon Heroes - Aqua.mp3
AudioLeadIn: 0
PreviewTime: 42500
Countdown: 0
SampleSet: Normal
StackLeniency: 0.7
Mode: 0
LetterboxInBreaks: 0
WidescreenStoryboard: 0

[Editor]
Bookmarks: 18115,68740,91240,124365
DistanceSpacing: 1
BeatDivisor: 4
GridSize: 4
TimelineZoom: 2.8

[Metadata]
Title:Cartoon Heroes (Speed Up Ver.)
TitleUnicode:Cartoon Heroes (Speed Up Ver.)
Artist:Aqua
ArtistUnicode:Aqua
Creator:pinataman
Version:Normal
Source:
Tags:Aquarius trance happy hardcore hard dance uk trancecore
BeatmapID:749772
BeatmapSetID:239635

[Difficulty]
HPDrainRate:3.5
CircleSize:3.5
OverallDifficulty:4
ApproachRate:5
SliderMultiplier:1
SliderTickRate:1

[Events]
//Background and Video events
0,0,"Photoshop_The_castle_from_a_fairy_tale_022470_.jpg",0,0
//Break Periods
2,104260,112860
//Storyboard Layer 0 (Background)
//Storyboard Layer 1 (Fail)
//Storyboard Layer 2 (Pass)
//Storyboard Layer 3 (Foreground)
//Storyboard Sound Samples

[TimingPoints]
5315,312.486979709179,4,2,1,60,1,0
12814,-100,4,1,1,40,0,0
15627,-100,4,2,1,60,0,0
23126,-100,4,1,1,50,0,0
42813,-100,4,1,1,65,0,1
62812,-100,4,1,1,50,0,0
81874,-100,4,1,1,34,0,0
82186,-100,4,1,1,50,0,0
82499,-100,4,1,1,34,0,0
82655,-100,4,1,1,50,0,0
83124,-100,4,1,1,34,0,0
83436,-100,4,1,1,50,0,0
84061,-100,4,1,1,65,0,1
104060,-100,4,1,1,50,0,0
114060,-100,4,1,1,65,0,1
141559,-100,4,1,1,50,0,0

[Colours]
Combo1 : 128,255,128
Combo2 : 0,128,255
Combo3 : 255,128,64
Combo4 : 255,128,255

[HitObjects]
217,315,5627,6,0,B|296:244|321:336|400:265,1,200,2|0,0:0|0:0,0:0:0:0:
442,172,6564,2,0,B|439:138|413:105|388:93|388:93|375:28,2,150,2|2|2,0:0|0:0|0:0,0:0:0:0:
342,182,7814,5,2,0:0:0:0:
287,97,8127,2,0,P|190:86|102:130,1,200
67,224,9064,2,0,B|118:239|163:208|163:208|231:217,2,150,2|2|2,0:0|0:0|0:0,0:0:0:0:
30,317,10314,5,2,0:0:0:0:
112,373,10627,1,0,0:0:0:0:
211,366,10939,2,0,P|251:338|272:293,1,100
276,243,11408,2,0,P|303:160|361:118,1,150,2|0,0:0|0:0,0:0:0:0:
400,112,12033,2,0,P|448:120|486:152,1,100,2|0,0:0|0:0,0:0:0:0:
506,198,12502,1,2,0:0:0:0:
470,291,12814,5,0,0:0:0:0:
407,213,13127,1,0,0:0:0:0:
399,111,13439,2,0,P|389:63|355:28,1,100
307,12,13908,1,0,0:0:0:0:
209,34,14220,1,0,0:0:0:0:
243,128,14533,2,0,P|271:168|317:187,1,100
362,210,15002,2,0,P|389:260|368:336,1,100,0|4,0:0|0:0,0:0:0:0:
287,280,15627,6,0,B|240:249|191:274|191:274|141:300|95:273,1,200,2|0,0:0|0:0,0:0:0:0:
143,186,16564,2,0,P|154:113|117:48,2,150,2|2|2,0:0|0:0|0:0,0:0:0:0:
59,131,17814,5,2,0:0:0:0:
118,49,18126,2,0,P|215:37|297:107,1,200
354,175,19064,2,0,P|423:202|497:196,2,150,2|2|2,0:0|0:0|0:0,0:0:0:0:
254,186,20314,6,0,P|236:232|239:281,2,100,2|2|2,0:0|0:0|0:0,0:0:0:0:
110,137,21408,2,0,P|47:176|26:246,1,150,2|2,0:0|0:0,0:0:0:0:
72,334,22189,1,0,0:0:0:0:
172,324,22501,1,8,3:0:0:0:
126,235,22814,5,4,3:0:0:0:
204,173,23126,2,0,L|241:70,2,100
234,273,24064,2,0,P|295:307|348:303,1,100
351,267,24532,2,0,P|375:224|419:198,1,100
467,183,25001,2,0,P|459:132|431:91,1,100
349,38,25626,5,0,0:0:0:0:
282,113,25939,1,0,0:0:0:0:
204,49,26251,1,0,0:0:0:0:
136,122,26564,2,0,P|162:181|204:204,1,100
239,205,27032,2,0,P|281:230|302:273,1,100
322,321,27501,2,0,P|369:333|416:318,1,100
467,232,28126,5,0,0:0:0:0:
367,232,28439,1,0,0:0:0:0:
292,166,28751,1,0,0:0:0:0:
255,133,28907,2,0,B|215:99|215:99|196:56|196:56|156:23,1,150
107,19,29532,2,0,P|52:56|45:100,1,100
47,136,30001,1,0,0:0:0:0:
86,227,30313,6,0,P|68:273|30:304,2,100,2|2|2,0:0|0:0|0:0,0:0:0:0:
178,187,31251,1,0,0:0:0:0:
216,218,31407,2,0,P|246:256|263:303,1,100,2|0,0:0|0:0,0:0:0:0:
352,348,32032,2,0,P|398:331|438:300,1,100,2|0,0:0|0:0,0:0:0:0:
447,251,32501,2,0,P|432:203|434:153,1,100,2|4,0:0|0:0,0:0:0:0:
421,54,33126,5,0,0:0:0:0:
328,15,33438,1,0,0:0:0:0:
234,51,33751,1,0,0:0:0:0:
181,135,34063,2,0,P|137:166|51:176,1,100
42,181,34532,2,0,B|32:232|32:232|59:285,1,100
105,275,35001,2,0,P|153:265|196:240,1,100
269,171,35626,5,0,0:0:0:0:
367,155,35938,2,0,P|422:158|467:194,1,100
478,229,36407,2,0,P|466:311|408:347,1,150
365,343,37032,2,0,B|293:306|293:378|222:342,1,150
123,324,37813,6,0,P|74:302|55:258,1,100
91,168,38438,2,0,P|140:149|185:166,1,100
221,198,38907,2,0,P|270:216|315:199,1,100
359,182,39376,1,0,0:0:0:0:
355,82,39688,2,0,P|329:40|284:23,1,100
214,97,40313,5,0,0:0:0:0:
221,198,40626,1,0,0:0:0:0:
129,237,40938,1,0,0:0:0:0:
138,337,41251,2,0,L|183:358,1,50
283,358,41719,2,0,L|328:336,1,50
348,239,42188,1,0,0:0:0:0:
271,174,42500,2,0,L|227:137,1,50
193,110,42813,1,4,0:0:0:0:
130,188,43125,6,0,P|149:233|212:257,2,100,8|0|8,0:0|0:0|0:0,0:0:0:0:
115,88,44063,2,0,P|155:38|208:35,1,100,0|8,0:0|0:0,0:0:0:0:
230,57,44532,2,0,P|278:79|329:69,1,100
374,78,45000,1,8,0:0:0:0:
421,91,45157,1,0,0:0:0:0:
468,178,45469,6,0,L|513:243,2,50,0|8|0,0:0|0:0|0:0,0:0:0:0:
418,176,45938,1,0,0:0:0:0:
341,240,46250,1,8,0:0:0:0:
272,167,46563,2,0,P|236:132|188:120,1,100,0|8,0:0|0:0,0:0:0:0:
187,221,47188,2,0,P|140:259|94:263,1,100,0|8,0:0|0:0,0:0:0:0:
27,199,47813,5,4,0:0:0:0:
92,123,48125,2,0,P|145:110|188:120,2,100,8|0|8,0:0|0:0|0:0,0:0:0:0:
18,55,49063,2,0,P|68:27|150:21,1,100,0|8,0:0|0:0,0:0:0:0:
159,17,49531,2,0,P|208:23|253:44,1,100
291,78,50000,1,8,0:0:0:0:
340,84,50156,1,0,0:0:0:0:
437,59,50469,5,0,0:0:0:0:
437,107,50625,2,0,P|415:152|373:178,1,100,8|0,0:0|0:0,0:0:0:0:
282,218,51250,1,8,0:0:0:0:
227,134,51563,2,0,P|177:119|134:140,1,100,0|8,0:0|0:0,0:0:0:0:
115,184,52031,2,0,B|107:225|68:239|68:239|28:253|19:292,1,150,0|8,0:0|0:0,0:0:0:0:
81,370,52813,5,4,0:0:0:0:
178,346,53125,2,0,L|209:295,1,50,8|0,0:0|0:0,0:0:0:0:
230,260,53437,1,0,0:0:0:0:
325,288,53750,2,0,P|372:294|427:243,1,100,8|0,0:0|0:0,0:0:0:0:
476,190,54375,2,0,L|460:142,1,50,8|0,0:0|0:0,0:0:0:0:
445,94,54687,1,0,0:0:0:0:
346,77,55000,1,8,0:0:0:0:
283,154,55312,6,0,L|252:249,1,100,0|8,0:0|0:0,0:0:0:0:
155,274,55937,2,0,L|184:178,1,100,0|8,0:0|0:0,0:0:0:0:
213,82,56562,1,0,0:0:0:0:
283,154,56875,1,8,0:0:0:0:
369,104,57187,1,0,0:0:0:0:
465,129,57500,1,8,0:0:0:0:
396,200,57812,5,4,0:0:0:0:
422,296,58125,2,0,L|435:345,2,50,8|0|0,0:0|0:0|0:0,0:0:0:0:
325,271,58750,2,0,P|273:259|235:225,1,100,8|0,0:0|0:0,0:0:0:0:
216,126,59375,2,0,L|233:79,2,50,8|0|0,0:0|0:0|0:0,0:0:0:0:
141,192,60000,1,8,0:0:0:0:
159,291,60312,6,0,P|190:329|236:346,1,100,0|8,0:0|0:0,0:0:0:0:
325,301,60937,2,0,P|294:263|248:246,1,100,0|8,0:0|0:0,0:0:0:0:
163,191,61562,1,0,0:0:0:0:
73,236,61875,1,8,0:0:0:0:
2,166,62187,1,0,0:0:0:0:
48,76,62500,1,8,0:0:0:0:
146,92,62812,1,4,0:0:0:0:
254,195,64375,5,8,0:0:0:0:
339,247,64687,2,0,P|388:228|418:179,1,100,0|8,0:0|0:0,0:0:0:0:
405,90,65312,2,0,P|385:44|343:19,1,100,0|8,0:0|0:0,0:0:0:0:
309,56,65781,2,0,P|264:77|214:78,1,100
166,61,66249,2,0,P|138:101|141:151,1,100,8|0,0:0|0:0,0:0:0:0:
211,222,66874,5,8,0:0:0:0:
288,158,67187,1,0,0:0:0:0:
381,193,67499,1,8,0:0:0:0:
360,290,67812,2,0,P|304:317|246:302,1,100,0|8,0:0|0:0,0:0:0:0:
219,300,68281,2,0,P|169:298|126:323,1,100
80,345,68749,2,0,P|33:335|6:294,1,100,8|0,0:0|0:0,0:0:0:0:
38,198,69374,5,8,0:0:0:0:
73,104,69687,1,0,0:0:0:0:
171,87,69999,1,8,0:0:0:0:
232,166,70312,2,0,P|275:168|330:151,1,100,0|8,0:0|0:0,0:0:0:0:
370,180,70781,2,0,P|358:228|330:269,1,100
301,310,71249,1,8,0:0:0:0:
203,284,71562,6,0,P|201:333|225:377,2,100,2|2|2,0:0|0:0|0:0,0:0:0:0:
225,187,72499,1,0,0:0:0:0:
252,145,72655,2,0,P|256:95|221:37,1,100,2|0,0:0|0:0,0:0:0:0:
142,13,73280,1,2,0:0:0:0:
68,80,73593,1,0,0:0:0:0:
72,130,73749,2,0,P|94:174|136:200,1,100,2|0,0:0|0:0,0:0:0:0:
236,202,74374,5,8,0:0:0:0:
316,263,74687,2,0,P|365:260|406:233,1,100,0|8,0:0|0:0,0:0:0:0:
421,132,75312,2,0,P|371:134|330:161,1,100,0|8,0:0|0:0,0:0:0:0:
286,185,75780,2,0,P|231:195|186:176,1,100
154,145,76249,1,8,0:0:0:0:
243,99,76562,5,0,0:0:0:0:
299,16,76874,1,8,0:0:0:0:
358,96,77187,1,0,0:0:0:0:
454,71,77499,1,8,0:0:0:0:
427,167,77811,2,0,P|371:194|308:184,1,100,0|8,0:0|0:0,0:0:0:0:
286,207,78280,2,0,P|230:234|167:224,1,100
145,247,78749,1,8,0:0:0:0:
93,332,79061,6,0,P|50:285|52:224,1,100,0|8,0:0|0:0,0:0:0:0:
92,162,79686,2,0,P|138:144|185:156,1,100,8|0,0:0|0:0,0:0:0:0:
202,203,80155,2,0,P|212:251|249:283,1,100
294,307,80624,1,8,0:0:0:0:
390,336,80936,2,0,P|392:287|369:243,1,100,8|0,0:0|0:0,0:0:0:0:
284,192,81561,5,0,0:0:0:0:
371,142,81874,1,8,0:0:0:0:
405,48,82186,1,0,0:0:0:0:
306,26,82499,2,0,L|258:40,1,50,8|0,0:0|0:0,0:0:0:0:
206,126,82968,2,0,L|253:140,1,50,0|8,0:0|0:0,0:0:0:0:
256,240,83436,1,0,0:0:0:0:
230,336,83749,2,0,P|256:352|290:345,1,50
321,332,84061,1,4,0:0:0:0:
396,262,84374,6,0,P|438:232|495:225,2,100,8|0|8,0:0|0:0|0:0,0:0:0:0:
321,332,85311,2,0,P|277:360|220:365,1,100,0|8,0:0|0:0,0:0:0:0:
180,365,85780,2,0,P|134:346|101:310,1,100
75,266,86249,1,8,0:0:0:0:
65,216,86405,1,0,0:0:0:0:
45,118,86717,6,0,P|20:123|0:137,2,50,0|8|0,0:0|0:0|0:0,0:0:0:0:
94,126,87186,1,0,0:0:0:0:
179,177,87499,1,8,0:0:0:0:
267,127,87811,2,0,P|314:139|350:174,1,100,0|8,0:0|0:0,0:0:0:0:
350,274,88436,2,0,P|302:261|266:226,1,100,0|8,0:0|0:0,0:0:0:0:
179,177,89061,5,4,0:0:0:0:
267,127,89373,2,0,P|280:74|270:31,2,100,8|0|8,0:0|0:0|0:0,0:0:0:0:
266,226,90311,2,0,P|302:261|350:274,1,100,0|8,0:0|0:0,0:0:0:0:
393,251,90780,2,0,P|441:241|487:259,1,100
510,303,91248,1,8,0:0:0:0:
499,352,91405,1,0,0:0:0:0:
404,382,91717,5,0,0:0:0:0:
354,376,91873,2,0,P|299:369|247:344,1,100,8|0,0:0|0:0,0:0:0:0:
177,292,92498,1,8,0:0:0:0:
82,323,92811,2,2,P|77:273|99:229,1,100,2|8,0:0|0:0,0:0:0:0:
139,198,93280,2,0,P|211:195|265:244,1,150,0|8,0:0|0:0,0:0:0:0:
318,330,94061,5,4,0:0:0:0:
416,325,94373,2,0,P|413:300|403:277,1,50,8|0,0:0|0:0,0:0:0:0:
379,234,94686,1,0,0:0:0:0:
419,142,94998,2,0,P|421:84|361:45,1,100,8|0,0:0|0:0,0:0:0:0:
294,47,95623,2,0,P|273:74|268:99,1,50,8|0,0:0|0:0,0:0:0:0:
254,137,95936,1,0,0:0:0:0:
179,72,96248,1,8,0:0:0:0:
116,150,96561,6,0,P|79:185|22:189,1,100,0|8,0:0|0:0,0:0:0:0:
26,291,97186,2,0,P|39:340|87:371,1,100,0|8,0:0|0:0,0:0:0:0:
160,312,97811,1,0,0:0:0:0:
254,275,98123,1,8,0:0:0:0:
353,273,98436,1,0,0:0:0:0:
448,305,98748,1,8,0:0:0:0:
500,219,99061,5,4,0:0:0:0:
443,136,99373,2,0,L|458:89,2,50,8|0|0,0:0|0:0|0:0,0:0:0:0:
358,189,99998,2,0,P|343:240|368:311,1,100,8|0,0:0|0:0,0:0:0:0:
418,360,100623,2,0,L|466:345,2,50,8|0|0,0:0|0:0|0:0,0:0:0:0:
319,379,101248,1,8,0:0:0:0:
224,346,101560,6,0,P|194:305|197:251,1,100,0|8,0:0|0:0,0:0:0:0:
285,212,102185,2,0,P|327:188|348:143,1,100,0|8,0:0|0:0,0:0:0:0:
325,44,102810,1,0,0:0:0:0:
227,33,103123,1,8,0:0:0:0:
141,81,103435,1,0,0:0:0:0:
98,170,103748,1,8,0:0:0:0:
114,267,104060,1,4,0:0:0:0:
346,232,114060,6,0,P|369:186|435:160,1,100,2|0,0:0|0:0,0:0:0:0:
442,257,114685,2,0,P|419:303|353:329,1,100,0|0,0:0|0:0,0:0:0:0:
328,333,115154,1,2,0:0:0:0:
245,277,115466,2,0,B|217:276|196:289|196:289|171:304|148:302,1,100
53,278,116091,1,2,0:0:0:0:
42,229,116247,1,2,0:0:0:0:
79,136,116560,6,0,B|110:97|110:97|168:83,1,100,2|0,0:0|0:0,0:0:0:0:
257,67,117185,2,0,L|264:166,1,100
267,216,117654,1,2,0:0:0:0:
276,316,117966,2,0,P|316:339|377:325,1,100
461,297,118591,1,2,0:0:0:0:
456,248,118747,1,2,0:0:0:0:
446,148,119060,6,0,P|398:166|360:223,1,100,2|0,0:0|0:0,0:0:0:0:
326,293,119685,2,0,P|283:263|276:189,1,100
280,170,120153,1,2,0:0:0:0:
329,82,120466,2,0,P|376:66|443:88,1,100
452,171,121091,1,2,0:0:0:0:
421,210,121247,1,2,0:0:0:0:
448,305,121560,6,0,P|393:344|324:334,1,100,2|0,0:0|0:0,0:0:0:0:
266,314,122185,2,0,L|169:334,1,100
128,305,122653,1,2,0:0:0:0:
101,208,122966,2,0,B|91:173|91:173|70:154|70:154|60:119,1,100
137,56,123591,1,2,0:0:0:0:
163,98,123747,2,0,B|195:211,1,100,2|4,0:0|0:0,0:0:0:0:
184,294,124372,5,8,0:0:0:0:
274,250,124685,1,0,0:0:0:0:
317,160,124997,1,8,0:0:0:0:
391,92,125310,2,0,P|449:138|453:191,1,100,0|8,0:0|0:0,0:0:0:0:
462,209,125778,2,0,P|452:271|401:307,1,100,0|4,0:0|0:0,0:0:0:0:
384,322,126247,1,12,0:0:0:0:
334,326,126403,1,4,0:0:0:0:
261,256,126716,6,0,L|261:192,2,50,0|8|0,0:0|0:0|0:0,0:0:0:0:
228,294,127184,1,0,0:0:0:0:
136,333,127497,1,8,0:0:0:0:
148,233,127809,2,0,P|137:181|94:145,1,100,4|8,0:0|0:0,0:0:0:0:
4,150,128434,2,0,P|15:202|58:238,1,100,4|8,0:0|0:0,0:0:0:0:
98,319,129059,5,4,0:0:0:0:
197,311,129372,2,0,P|245:286|272:251,2,100,8|0|8,0:0|0:0|0:0,0:0:0:0:
180,211,130309,2,0,P|210:172|255:151,1,100,0|8,0:0|0:0,0:0:0:0:
292,118,130778,2,0,P|269:74|229:44,1,100,0|4,0:0|0:0,0:0:0:0:
180,54,131247,1,12,0:0:0:0:
134,33,131403,1,4,0:0:0:0:
86,121,131715,5,0,0:0:0:0:
96,169,131872,2,0,L|117:274,1,100,8|0,0:0|0:0,0:0:0:0:
186,337,132497,1,8,0:0:0:0:
243,255,132809,2,2,P|281:220|339:220,1,100,2|8,0:0|0:0,0:0:0:0:
369,242,133278,2,0,P|442:220|473:156,1,150,0|8,0:0|0:0,0:0:0:0:
491,59,134059,5,4,0:0:0:0:
392,45,134372,2,0,L|383:109,1,50,8|0,0:0|0:0,0:0:0:0:
377,144,134684,1,0,0:0:0:0:
303,211,134997,2,0,P|262:240|194:245,1,100,8|0,0:0|0:0,0:0:0:0:
225,148,135622,2,0,L|188:111,1,50,8|0,0:0|0:0,0:0:0:0:
154,77,135934,1,0,0:0:0:0:
55,89,136247,1,8,0:0:0:0:
93,180,136559,6,0,L|132:272,1,100,4|8,0:0|0:0,0:0:0:0:
231,288,137184,2,0,L|193:195,1,100,4|8,0:0|0:0,0:0:0:0:
264,125,137809,6,0,B|299:114|338:118|358:139|358:139|367:196|420:214,1,200,2|0,0:0|0:0,0:0:0:0:
231,288,139059,2,0,B|195:298|156:294|136:273|136:273|127:216|74:198,1,200,2|0,0:0|0:0,0:0:0:0:
256,192,140309,12,4,141559,0:0:0:0:
