osu file format v14

[General]
AudioFilename: Cartoon Heroes - Aqua.mp3
AudioLeadIn: 0
PreviewTime: 42500
Countdown: 0
SampleSet: Normal
StackLeniency: 0.7
Mode: 0
LetterboxInBreaks: 0
WidescreenStoryboard: 0

[Editor]
Bookmarks: 49053,60615,91084,92803,128122
DistanceSpacing: 1.8
BeatDivisor: 4
GridSize: 4
TimelineZoom: 3.799999

[Metadata]
Title:Cartoon Heroes (Speed Up Ver.)
TitleUnicode:Cartoon Heroes (Speed Up Ver.)
Artist:Aqua
ArtistUnicode:Aqua
Creator:pinataman
Version:Insane
Source:
Tags:Aquarius trance happy hardcore hard dance uk trancecore
BeatmapID:619041
BeatmapSetID:239635

[Difficulty]
HPDrainRate:7
CircleSize:4
OverallDifficulty:7.5
ApproachRate:8.5
SliderMultiplier:1.5
SliderTickRate:1

[Events]
//Background and Video events
0,0,"Photoshop_The_castle_from_a_fairy_tale_022470_.jpg",0,0
//Break Periods
2,104260,113385
//Storyboard Layer 0 (Background)
//Storyboard Layer 1 (Fail)
//Storyboard Layer 2 (Pass)
//Storyboard Layer 3 (Foreground)
//Storyboard Sound Samples

[TimingPoints]
5315,312.486979709179,4,2,1,60,1,0
12814,-100,4,1,1,40,0,0
15627,-100,4,2,1,60,0,0
23126,-86.9565217391304,4,1,1,50,0,0
30157,-80,4,1,1,50,0,0
32813,-86.9565217391304,4,1,1,50,0,0
42813,-80,4,1,1,65,0,1
62812,-80,4,1,1,50,0,0
64375,-86.9565217391304,4,1,1,50,0,0
71562,-80,4,1,1,50,0,0
74062,-86.9565217391304,4,1,1,50,0,0
81561,-100,4,1,1,50,0,0
81874,-100,4,1,1,34,0,0
82030,-100,4,1,1,50,0,0
82499,-100,4,1,1,34,0,0
82655,-100,4,1,1,50,0,0
83124,-100,4,1,1,34,0,0
83436,-86.9565217391304,4,1,1,50,0,0
84061,-80,4,1,1,65,0,1
104060,-80,4,1,1,50,0,0
114060,-80,4,1,1,65,0,1
140309,-86.9565217391304,4,1,1,65,0,1
141559,-80,4,1,1,50,0,0

[Colours]
Combo1 : 128,255,128
Combo2 : 0,128,255
Combo3 : 255,128,64
Combo4 : 255,128,255

[HitObjects]
105,277,5627,6,0,P|176:297|240:262,2,150,2|0|0,0:0|0:0|0:0,0:0:0:0:
37,144,6564,2,0,P|65:76|133:47,1,150,2|0,0:0|0:0,0:0:0:0:
188,97,7033,2,0,P|255:124|323:96,1,150,2|0,0:0|0:0,0:0:0:0:
379,47,7502,2,0,P|447:76|475:144,1,150,2|2,0:0|0:0,0:0:0:0:
407,277,8127,6,0,P|336:297|272:262,2,150
316,159,9064,2,0,P|242:150|181:191,1,150,2|0,0:0|0:0,0:0:0:0:
171,265,9533,2,0,P|203:335|274:365,1,150,2|0,0:0|0:0,0:0:0:0:
318,309,10002,2,0,P|363:251|435:236,1,150,2|2,0:0|0:0,0:0:0:0:
497,99,10627,5,0,0:0:0:0:
435,236,10939,1,0,0:0:0:0:
322,137,11252,1,0,0:0:0:0:
260,96,11408,2,0,P|173:78|88:181,1,225,2|0,0:0|0:0,0:0:0:0:
101,245,12033,2,0,B|147:311|174:264|224:321,1,150,2|0,0:0|0:0,0:0:0:0:
290,361,12502,1,2,0:0:0:0:
465,168,12814,5,0,0:0:0:0:
256,250,13127,1,0,0:0:0:0:
47,168,13439,1,0,0:0:0:0:
199,73,13752,1,0,0:0:0:0:
151,165,13908,2,0,P|133:249|176:323,2,150
313,73,14845,1,0,0:0:0:0:
375,157,15002,2,0,P|342:173|305:177,1,75
240,131,15314,1,0,0:0:0:0:
240,131,15470,1,0,0:0:0:0:
223,229,15627,5,0,0:0:0:0:
162,108,15939,1,0,0:0:0:0:
102,260,16252,1,0,0:0:0:0:
90,84,16564,2,0,P|145:36|215:54,1,150,2|0,0:0|0:0,0:0:0:0:
234,132,17033,2,0,P|179:180|109:162,1,150,2|0,0:0|0:0,0:0:0:0:
83,232,17501,2,0,P|116:249|165:254,1,75,2|0,0:0|0:0,0:0:0:0:
227,243,17814,1,2,0:0:0:0:
231,247,17970,1,0,0:0:0:0:
307,202,18126,6,0,P|388:182|465:226,2,150
221,325,19064,2,0,P|139:343|62:300,1,150,2|0,0:0|0:0,0:0:0:0:
78,243,19533,2,0,B|72:204|31:188|31:188|4:154|24:118,1,150,2|0,0:0|0:0,0:0:0:0:
64,56,20001,1,2,0:0:0:0:
170,162,20314,6,0,P|242:180|312:154,2,150,2|2|2,0:0|0:0|0:0,0:0:0:0:
363,42,21408,2,0,P|425:81|434:153,1,150,2|0,0:0|0:0,0:0:0:0:
403,220,21876,1,2,0:0:0:0:
284,46,22189,1,2,0:0:0:0:
168,140,22501,1,8,3:0:0:0:
153,160,22579,1,0,3:0:0:0:
146,186,22658,1,0,3:0:0:0:
146,212,22736,1,0,3:0:0:0:
154,237,22814,5,4,3:0:0:0:
200,304,22970,1,4,3:0:0:0:
297,348,23126,2,0,P|356:341|395:310,1,86.2500016450882
421,252,23439,2,0,P|453:224|495:213,1,86.2500016450882
488,128,23751,2,0,P|466:71|425:42,1,86.2500016450882
346,105,24064,6,0,P|309:135|249:127,1,86.2500016450882
198,91,24376,1,0,0:0:0:0:
180,201,24532,2,0,P|152:239|91:247,1,86.2500016450882
35,218,24845,1,0,0:0:0:0:
15,317,25001,2,0,P|42:355|103:363,1,86.2500016450882
156,329,25314,5,0,0:0:0:0:
242,327,25470,1,0,0:0:0:0:
351,352,25626,2,0,L|327:258,1,86.2500016450882
350,175,25939,2,0,L|410:236,1,86.2500016450882
449,137,26251,2,0,L|361:94,1,86.2500016450882
241,124,26564,6,0,P|204:151|186:217,1,86.2500016450882
192,273,26876,1,0,0:0:0:0:
108,186,27032,2,0,P|120:136|161:88,1,86.2500016450882
183,33,27345,1,0,0:0:0:0:
69,73,27501,2,0,P|46:110|35:153,1,86.2500016450882
54,235,27814,6,0,P|96:257|147:247,1,86.2500016450882
208,171,28126,2,0,P|281:129|364:141,2,172.500003290176
223,282,28907,6,0,B|256:315|245:360|245:360|278:391|345:356,1,172.500003290176
410,340,29376,1,0,0:0:0:0:
455,240,29532,2,0,B|477:189|444:159|444:159|400:172|365:140,1,172.500003290176
302,81,30001,2,0,P|265:61|219:70,1,86.2500016450882
163,197,30313,6,0,P|129:227|83:234,1,93.75,2|0,0:0|0:0,0:0:0:0:
237,270,30626,2,0,P|223:313|186:342,1,93.75,2|0,0:0|0:0,0:0:0:0:
307,198,30938,2,2,P|351:211|380:247,1,93.75,2|0,0:0|0:0,0:0:0:0:
317,351,31251,1,0,0:0:0:0:
165,254,31407,6,0,P|188:214|231:195,1,93.75,2|0,0:0|0:0,0:0:0:0:
195,332,31720,2,0,P|164:366|119:376,1,93.75,0|0,0:0|0:0,0:0:0:0:
26,258,32032,2,0,B|39:210|15:211|26:165,1,93.75,2|0,0:0|0:0,0:0:0:0:
136,36,32345,1,0,0:0:0:0:
127,170,32501,2,0,P|135:216|164:253,1,93.75,2|2,0:0|0:0,0:0:0:0:
270,360,32813,5,4,0:0:0:0:
333,173,33126,2,0,P|276:157|243:171,1,86.2500016450882
281,75,33438,2,0,P|315:50|358:51,1,86.2500016450882
435,88,33751,2,0,P|454:137|429:194,1,86.2500016450882
347,244,34063,6,0,P|316:280|319:344,1,86.2500016450882
385,309,34376,1,0,0:0:0:0:
249,261,34532,2,0,P|201:264|158:311,1,86.2500016450882
230,334,34845,1,0,0:0:0:0:
168,203,35001,2,0,P|132:172|68:175,1,86.2500016450882
21,274,35313,5,0,0:0:0:0:
103,242,35469,1,0,0:0:0:0:
176,337,35626,1,0,0:0:0:0:
276,312,35782,1,0,0:0:0:0:
372,274,35938,2,0,P|411:246|424:204,1,86.2500016450882
492,134,36251,1,0,0:0:0:0:
482,271,36407,6,0,P|441:322|336:349,1,172.500003290176
249,299,36876,1,0,0:0:0:0:
309,175,37032,1,0,0:0:0:0:
346,253,37188,1,0,0:0:0:0:
212,221,37344,1,0,0:0:0:0:
152,329,37501,2,0,P|110:359|54:345,1,86.2500016450882
37,249,37813,6,0,P|41:207|67:173,1,86.2500016450882
147,142,38126,2,0,P|182:115|199:76,1,86.2500016450882
131,24,38438,2,0,P|95:50|78:89,1,86.2500016450882
67,173,38751,1,0,0:0:0:0:
163,245,38907,6,0,P|230:263|324:217,1,172.500003290176
427,141,39376,2,0,P|405:198|407:229,1,86.2500016450882
434,303,39688,2,0,P|425:358|391:381,1,86.2500016450882
317,378,40001,2,0,P|273:369|241:334,1,86.2500016450882
122,324,40313,6,0,L|218:275,1,86.2500016450882
246,183,40626,2,0,L|168:221,1,86.2500016450882
58,199,40938,2,0,L|134:159,1,86.2500016450882
218,115,41251,1,0,0:0:0:0:
302,73,41407,5,0,0:0:0:0:
330,278,41719,1,0,0:0:0:0:
316,175,41875,1,0,0:0:0:0:
126,54,42188,1,0,0:0:0:0:
104,226,42500,1,0,0:0:0:0:
108,255,42579,1,0,0:0:0:0:
122,282,42657,1,0,0:0:0:0:
142,305,42735,1,0,0:0:0:0:
169,318,42813,5,4,0:0:0:0:
290,344,42969,1,0,0:0:0:0:
404,304,43125,1,8,0:0:0:0:
463,198,43282,1,0,0:0:0:0:
438,79,43438,2,0,P|393:93|363:128,1,93.75
306,235,43750,2,0,P|266:211|248:168,1,93.75,8|0,0:0|0:0,0:0:0:0:
195,58,44063,5,0,0:0:0:0:
94,127,44219,1,0,0:0:0:0:
173,218,44375,1,8,0:0:0:0:
92,312,44532,2,0,P|110:354|149:377,1,93.75
276,315,44844,5,4,0:0:0:0:
286,184,45000,1,12,0:0:0:0:
270,383,45157,1,4,0:0:0:0:
196,131,45469,5,0,0:0:0:0:
114,222,45625,1,8,0:0:0:0:
160,339,45782,1,0,0:0:0:0:
55,275,45938,1,0,0:0:0:0:
160,339,46094,1,0,0:0:0:0:
195,222,46250,1,8,0:0:0:0:
308,178,46407,1,0,0:0:0:0:
208,90,46563,6,0,P|165:61|107:69,1,93.75
128,190,46875,2,0,P|122:236|145:277,1,93.75,8|0,0:0|0:0,0:0:0:0:
258,210,47188,2,0,P|302:194|346:207,1,93.75
348,338,47500,2,0,P|304:353|260:340,1,93.75,8|0,0:0|0:0,0:0:0:0:
145,277,47813,5,4,0:0:0:0:
258,210,47969,1,0,0:0:0:0:
201,103,48125,2,0,P|154:100|114:123,1,93.75,8|0,0:0|0:0,0:0:0:0:
60,233,48438,1,0,0:0:0:0:
179,206,48594,1,0,0:0:0:0:
291,260,48750,2,0,P|334:273|378:258,1,93.75,8|0,0:0|0:0,0:0:0:0:
419,124,49063,6,0,P|456:144|457:194,1,93.75
336,169,49375,1,8,0:0:0:0:
250,60,49531,2,0,P|292:46|327:75,1,93.75
225,167,49844,5,4,0:0:0:0:
76,88,50000,1,12,0:0:0:0:
53,231,50156,1,4,0:0:0:0:
276,343,50469,6,0,P|327:350|370:336,2,93.75,0|8|0,0:0|0:0|0:0,0:0:0:0:
145,288,50938,1,0,0:0:0:0:
255,267,51094,1,0,0:0:0:0:
340,180,51250,2,0,P|351:129|341:85,1,93.75,8|0,0:0|0:0,0:0:0:0:
193,135,51563,6,0,B|185:143|185:143|187:155|187:155|178:163|178:163|181:175|181:175|172:182|172:182|175:195|175:195|165:203|165:203|167:210,1,93.75
96,309,51875,1,8,0:0:0:0:
96,187,52031,2,0,L|126:95,2,93.75,0|0|0,0:0|0:0|0:0,0:0:0:0:
171,282,52500,2,0,P|222:310|285:303,1,93.75,8|0,0:0|0:0,0:0:0:0:
378,305,52813,5,4,0:0:0:0:
439,62,53125,1,8,0:0:0:0:
379,168,53281,1,0,0:0:0:0:
317,62,53437,1,0,0:0:0:0:
257,168,53594,1,0,0:0:0:0:
197,62,53750,2,0,P|120:69|81:164,1,187.5,8|0,0:0|0:0,0:0:0:0:
191,217,54219,5,0,0:0:0:0:
90,285,54375,1,8,0:0:0:0:
200,338,54531,1,0,0:0:0:0:
94,289,54687,1,0,0:0:0:0:
195,221,54844,1,0,0:0:0:0:
308,264,55000,2,0,P|348:241|359:197,1,93.75,8|0,0:0|0:0,0:0:0:0:
287,89,55312,6,0,L|237:9,1,93.75
133,104,55625,2,0,L|50:59,1,93.75,8|0,0:0|0:0,0:0:0:0:
52,190,55937,2,0,P|92:222|152:202,1,93.75
222,134,56250,2,0,P|267:131|301:161,1,93.75,8|0,0:0|0:0,0:0:0:0:
225,295,56562,6,0,L|275:375,1,93.75
392,303,56875,2,0,L|475:348,1,93.75,8|0,0:0|0:0,0:0:0:0:
507,209,57187,2,0,P|496:143|513:114,1,93.75
389,40,57500,2,0,P|400:106|383:135,1,93.75,8|0,0:0|0:0,0:0:0:0:
330,234,57812,5,4,0:0:0:0:
132,107,58125,1,8,0:0:0:0:
40,26,58281,1,0,0:0:0:0:
17,146,58437,1,0,0:0:0:0:
109,227,58594,1,0,0:0:0:0:
224,188,58750,2,0,P|300:217|298:317,1,187.5,8|0,0:0|0:0,0:0:0:0:
167,356,59219,5,0,0:0:0:0:
244,262,59375,1,8,0:0:0:0:
136,205,59531,1,0,0:0:0:0:
248,266,59687,1,0,0:0:0:0:
262,141,59843,1,0,0:0:0:0:
252,270,60000,2,0,P|285:332|320:353,1,93.75,8|0,0:0|0:0,0:0:0:0:
409,284,60312,6,0,P|376:222|341:201,1,93.75
272,123,60625,2,0,P|239:61|204:40,1,93.75,8|0,0:0|0:0,0:0:0:0:
81,52,60937,2,0,P|97:95|131:126,1,93.75
219,214,61250,2,0,P|235:257|269:288,1,93.75,8|0,0:0|0:0,0:0:0:0:
342,155,61562,6,0,P|378:126|423:132,1,93.75
259,138,61875,2,0,P|229:76|246:43,1,93.75,8|0,0:0|0:0,0:0:0:0:
339,236,62187,2,0,P|367:273|359:318,1,93.75
215,384,62500,2,0,P|175:360|165:315,1,93.75,8|0,0:0|0:0,0:0:0:0:
169,185,62812,1,4,0:0:0:0:
27,153,64375,6,0,P|50:210|78:230,1,86.2500016450882,8|0,0:0|0:0,0:0:0:0:
178,199,64687,2,0,P|235:216|268:254,1,86.2500016450882
301,336,65000,2,0,P|361:334|403:306,1,86.2500016450882,8|0,0:0|0:0,0:0:0:0:
439,205,65312,6,0,P|401:185|360:195,1,86.2500016450882
255,234,65624,1,8,0:0:0:0:
238,105,65781,2,0,B|244:61|266:71|273:28,1,86.2500016450882
384,8,66093,1,0,0:0:0:0:
393,138,66249,2,0,P|404:177|437:203,1,86.2500016450882,8|0,0:0|0:0,0:0:0:0:
492,303,66562,5,0,0:0:0:0:
392,353,66718,1,0,0:0:0:0:
322,253,66874,2,0,L|300:340,1,86.2500016450882,8|0,0:0|0:0,0:0:0:0:
188,334,67187,2,0,L|166:250,1,86.2500016450882
54,295,67499,2,0,P|53:338|72:376,1,86.2500016450882,8|0,0:0|0:0,0:0:0:0:
166,250,67812,6,0,B|193:217|210:243|236:204,1,86.2500016450882
346,222,68124,1,8,0:0:0:0:
310,80,68281,2,0,B|285:39|268:65|242:30,1,86.2500016450882
134,60,68593,1,0,0:0:0:0:
120,200,68749,2,0,P|101:237|66:263,1,86.2500016450882,8|0,0:0|0:0,0:0:0:0:
204,253,69062,6,0,P|246:268|278:309,1,86.2500016450882
374,251,69374,2,0,P|319:182|225:145,2,172.500003290176,8|0|8,0:0|0:0|0:0,0:0:0:0:
171,349,70312,6,0,P|142:310|138:262,1,86.2500016450882
132,161,70624,1,8,0:0:0:0:
204,75,70781,2,0,B|242:43|284:54|284:54|303:100|343:112,1,172.500003290176
389,9,71249,1,8,0:0:0:0:
256,248,71562,6,0,L|256:344,1,93.75,2|0,0:0|0:0,0:0:0:0:
180,152,71874,2,0,L|139:239,1,93.75,2|0,0:0|0:0,0:0:0:0:
332,152,72187,2,0,L|373:239,1,93.75,2|0,0:0|0:0,0:0:0:0:
256,72,72499,1,0,0:0:0:0:
98,159,72655,6,0,P|106:204|140:236,1,93.75,2|0,0:0|0:0,0:0:0:0:
291,230,72968,2,0,P|323:197|331:151,1,93.75
211,46,73280,2,0,L|215:155,1,93.75,2|0,0:0|0:0,0:0:0:0:
229,287,73593,1,0,0:0:0:0:
333,366,73749,2,2,P|431:341|472:246,1,187.5,2|4,0:0|0:0,0:0:0:0:
229,287,74374,6,0,P|172:306|138:293,1,86.2500016450882,8|0,0:0|0:0,0:0:0:0:
64,225,74687,2,0,P|56:172|93:123,1,86.2500016450882
176,109,74999,2,0,P|185:150|170:190,1,86.2500016450882,8|0,0:0|0:0,0:0:0:0:
308,201,75312,6,0,P|324:161|316:120,1,86.2500016450882
265,20,75624,1,8,0:0:0:0:
176,109,75780,2,0,P|160:148|169:190,1,86.2500016450882
219,290,76093,1,0,0:0:0:0:
307,200,76249,2,0,P|349:194|387:214,1,86.2500016450882,8|0,0:0|0:0,0:0:0:0:
329,311,76562,5,0,0:0:0:0:
219,290,76718,1,0,0:0:0:0:
92,326,76874,2,0,P|52:310|31:273,1,86.2500016450882,8|0,0:0|0:0,0:0:0:0:
91,166,77187,2,0,P|117:199|112:241,1,86.2500016450882
2,185,77499,2,0,P|2:143|23:106,1,86.2500016450882,8|0,0:0|0:0,0:0:0:0:
134,10,77811,6,0,P|157:60|185:72,1,86.2500016450882
291,104,78124,1,8,0:0:0:0:
229,237,78280,2,0,P|226:279|250:313,1,86.2500016450882
352,359,78593,1,0,0:0:0:0:
426,243,78749,2,0,P|457:213|498:212,1,86.2500016450882,8|0,0:0|0:0,0:0:0:0:
512,101,79061,6,0,P|516:59|497:20,1,86.2500016450882
372,51,79374,2,0,P|330:41|301:10,1,86.2500016450882,8|0,0:0|0:0,0:0:0:0:
183,63,79686,2,0,P|141:53|112:22,1,86.2500016450882,8|0,0:0|0:0,0:0:0:0:
0,17,79999,1,0,0:0:0:0:
80,148,80155,6,0,P|143:200|223:178,1,172.500003290176
338,99,80624,2,0,L|366:183,1,86.2500016450882,8|0,0:0|0:0,0:0:0:0:
473,245,80936,2,0,L|501:329,1,86.2500016450882,8|0,0:0|0:0,0:0:0:0:
391,358,81249,2,0,P|343:361|287:341,1,86.2500016450882
205,250,81561,6,0,P|168:241|133:252,1,75
53,350,81874,2,0,P|96:348|129:323,1,75,8|0,0:0|0:0,0:0:0:0:
105,182,82186,2,0,L|134:252,1,75
224,328,82499,1,8,0:0:0:0:
335,352,82655,5,0,0:0:0:0:
377,130,82968,1,0,0:0:0:0:
358,241,83124,1,8,0:0:0:0:
111,322,83436,1,0,0:0:0:0:
145,100,83749,1,4,0:0:0:0:
127,75,83827,1,0,0:0:0:0:
104,57,83905,1,0,0:0:0:0:
75,49,83983,1,0,0:0:0:0:
45,50,84061,5,4,0:0:0:0:
36,171,84217,1,0,0:0:0:0:
146,224,84374,1,8,0:0:0:0:
236,142,84530,1,0,0:0:0:0:
345,196,84686,2,0,P|386:226|404:265,1,93.75
505,197,84999,2,0,P|485:155|447:129,1,93.75,8|0,0:0|0:0,0:0:0:0:
337,75,85311,5,0,0:0:0:0:
236,142,85467,1,0,0:0:0:0:
141,65,85624,1,8,0:0:0:0:
40,132,85780,2,0,P|52:173|100:195,1,93.75
236,142,86092,5,4,0:0:0:0:
145,248,86249,1,12,0:0:0:0:
141,65,86405,1,4,0:0:0:0:
240,309,86717,5,0,0:0:0:0:
350,338,86874,1,8,0:0:0:0:
433,257,87030,1,0,0:0:0:0:
404,145,87186,1,0,0:0:0:0:
321,227,87342,1,0,0:0:0:0:
292,117,87499,1,8,0:0:0:0:
373,34,87655,1,0,0:0:0:0:
498,58,87811,6,0,P|519:97|514:143,1,93.75
430,229,88124,2,0,P|407:188|412:142,1,93.75,8|0,0:0|0:0,0:0:0:0:
332,24,88436,2,0,P|309:65|314:111,1,93.75
208,232,88749,2,0,P|231:191|226:145,1,93.75,8|0,0:0|0:0,0:0:0:0:
106,166,89061,5,4,0:0:0:0:
208,232,89217,1,0,0:0:0:0:
320,186,89373,2,0,L|413:180,1,93.75,8|0,0:0|0:0,0:0:0:0:
492,274,89686,1,0,0:0:0:0:
371,280,89842,1,0,0:0:0:0:
260,230,89998,2,0,B|225:193|264:180|229:143,1,93.75,8|0,0:0|0:0,0:0:0:0:
136,52,90311,6,0,P|89:47|51:73,1,93.75
122,174,90623,1,8,0:0:0:0:
192,275,90780,2,0,P|153:300|107:296,1,93.75
107,118,91092,5,4,0:0:0:0:
136,230,91248,1,12,0:0:0:0:
91,51,91405,1,4,0:0:0:0:
322,53,91717,6,0,P|343:94|347:140,2,93.75,0|8|0,0:0|0:0|0:0,0:0:0:0:
228,129,92186,1,0,0:0:0:0:
314,215,92342,1,0,0:0:0:0:
425,166,92498,2,0,P|454:219|433:266,1,93.75,8|0,0:0|0:0,0:0:0:0:
312,308,92811,6,0,B|318:316|318:316|330:317|330:317|336:327|336:327|348:327|348:327|353:336|353:336|366:336|366:336|372:347|372:347|379:347,1,93.75,2|0,0:0|0:0,0:0:0:0:
382,222,93123,1,8,0:0:0:0:
295,123,93280,2,0,P|260:93|214:93,2,93.75
153,132,93748,2,0,P|144:80|164:40,1,93.75,8|0,0:0|0:0,0:0:0:0:
233,167,94061,5,4,0:0:0:0:
431,247,94373,1,8,0:0:0:0:
361,147,94530,1,0,0:0:0:0:
233,167,94686,1,0,0:0:0:0:
307,269,94842,1,0,0:0:0:0:
361,147,94998,2,0,P|387:61|319:4,1,187.5,8|4,0:0|0:0,0:0:0:0:
191,33,95467,5,0,0:0:0:0:
299,88,95623,1,8,0:0:0:0:
197,154,95779,1,0,0:0:0:0:
191,33,95936,1,0,0:0:0:0:
197,154,96092,1,0,0:0:0:0:
76,137,96248,2,0,P|61:181|74:226,1,93.75,8|0,0:0|0:0,0:0:0:0:
181,300,96561,6,0,L|263:364,1,93.75
294,217,96873,2,0,L|332:313,1,93.75,8|0,0:0|0:0,0:0:0:0:
203,219,97186,2,0,L|146:144,1,93.75
241,67,97498,2,0,P|286:64|320:94,1,93.75,8|0,0:0|0:0,0:0:0:0:
388,229,97811,6,0,P|444:224|475:178,1,93.75
462,77,98123,2,0,P|418:41|364:50,1,93.75,8|0,0:0|0:0,0:0:0:0:
262,135,98436,2,0,P|231:183|249:235,1,93.75
347,342,98748,2,0,P|391:355|433:338,1,93.75,8|0,0:0|0:0,0:0:0:0:
502,226,99061,5,4,0:0:0:0:
343,94,99373,1,8,0:0:0:0:
258,181,99529,1,0,0:0:0:0:
221,55,99686,1,0,0:0:0:0:
134,141,99842,1,0,0:0:0:0:
258,181,99998,2,0,P|343:194|423:119,1,187.5,8|4,0:0|0:0,0:0:0:0:
462,251,100467,5,0,0:0:0:0:
360,319,100623,1,8,0:0:0:0:
465,369,100779,1,0,0:0:0:0:
462,251,100936,1,0,0:0:0:0:
360,319,101092,1,0,0:0:0:0:
250,266,101248,2,0,P|214:236|206:191,1,93.75,8|0,0:0|0:0,0:0:0:0:
141,87,101560,6,0,P|95:81|56:105,1,93.75
39,227,101873,2,0,P|48:298|16:330,1,93.75,8|0,0:0|0:0,0:0:0:0:
142,377,102185,2,0,P|119:309|143:270,1,93.75
89,176,102498,2,0,P|47:154|2:164,1,93.75,8|0,0:0|0:0,0:0:0:0:
176,216,102810,6,0,P|216:236|261:227,1,93.75
239,56,103123,2,0,L|227:149,1,93.75,8|0,0:0|0:0,0:0:0:0:
206,330,103435,2,0,P|251:353|313:342,1,93.75
317,148,103748,2,0,P|271:137|227:149,1,93.75,8|0,0:0|0:0,0:0:0:0:
118,224,104060,1,4,0:0:0:0:
254,299,114060,6,0,L|254:175,1,93.75,2|0,0:0|0:0,0:0:0:0:
192,89,114372,2,0,P|178:133|186:179,1,93.75,8|0,0:0|0:0,0:0:0:0:
325,226,114685,2,0,P|362:252|424:257,1,93.75
486,165,114997,1,8,0:0:0:0:
337,142,115154,6,0,P|286:152|249:186,1,93.75,2|0,0:0|0:0,0:0:0:0:
170,241,115466,2,0,P|126:259|80:253,1,93.75,0|8,0:0|0:0,0:0:0:0:
108,118,115779,2,0,L|91:25,1,93.75
54,183,116091,1,2,0:0:0:0:
177,166,116247,2,0,P|218:144|248:102,1,93.75,10|0,0:0|0:0,0:0:0:0:
399,125,116560,6,0,L|455:199,1,93.75,2|0,0:0|0:0,0:0:0:0:
440,320,116872,2,0,L|383:245,1,93.75,8|0,0:0|0:0,0:0:0:0:
262,224,117185,2,0,L|318:298,1,93.75
333,178,117497,1,8,0:0:0:0:
200,109,117654,6,0,P|154:113|110:144,1,93.75,2|0,0:0|0:0,0:0:0:0:
79,255,117966,2,0,P|83:301|114:345,1,93.75,0|8,0:0|0:0,0:0:0:0:
230,335,118279,2,0,L|197:241,1,93.75
322,184,118591,1,2,0:0:0:0:
354,306,118747,2,0,P|382:339|427:348,1,93.75,10|0,0:0|0:0,0:0:0:0:
465,201,119060,6,0,P|433:234|388:242,1,93.75,2|0,0:0|0:0,0:0:0:0:
285,308,119372,2,0,P|253:341|208:349,1,93.75,8|0,0:0|0:0,0:0:0:0:
191,228,119685,2,0,P|222:194|267:186,1,93.75
285,308,119997,1,8,0:0:0:0:
136,285,120153,6,0,P|115:250|126:184,1,93.75,2|0,0:0|0:0,0:0:0:0:
230,113,120466,2,0,B|271:86|238:64|280:37,1,93.75,0|8,0:0|0:0,0:0:0:0:
296,186,120778,2,0,P|336:228|387:237,1,93.75
322,112,121091,1,2,0:0:0:0:
218,190,121247,2,0,P|178:215|132:211,1,93.75,10|0,0:0|0:0,0:0:0:0:
59,82,121560,6,0,P|104:74|147:91,1,93.75,2|0,0:0|0:0,0:0:0:0:
133,212,121872,2,0,P|87:219|44:202,1,93.75,8|0,0:0|0:0,0:0:0:0:
29,322,122185,2,0,P|71:339|117:333,1,93.75
258,330,122497,1,8,0:0:0:0:
216,183,122653,6,0,P|171:183|131:213,1,93.75,2|0,0:0|0:0,0:0:0:0:
186,348,122966,2,0,L|194:224,1,93.75,0|8,0:0|0:0,0:0:0:0:
224,90,123278,2,0,L|216:183,1,93.75
259,318,123591,1,2,0:0:0:0:
133,215,123747,2,0,L|37:146,1,93.75,10|2,0:0|0:0,0:0:0:0:
26,38,124060,5,4,0:0:0:0:
118,116,124216,1,0,0:0:0:0:
239,121,124372,1,8,0:0:0:0:
314,216,124528,1,0,0:0:0:0:
435,233,124685,2,0,P|418:182|344:163,1,93.75
358,280,124997,2,0,P|375:331|449:350,1,93.75,8|0,0:0|0:0,0:0:0:0:
506,280,125310,5,0,0:0:0:0:
501,158,125466,1,0,0:0:0:0:
397,93,125622,1,8,0:0:0:0:
281,132,125778,2,0,P|250:167|241:212,1,93.75
287,326,126091,5,4,0:0:0:0:
372,192,126247,1,12,0:0:0:0:
366,377,126403,2,0,L|287:325,1,93.75,4|0,0:0|0:0,0:0:0:0:
222,154,126716,5,0,0:0:0:0:
115,212,126872,1,8,0:0:0:0:
218,276,127028,1,0,0:0:0:0:
153,151,127184,1,0,0:0:0:0:
149,273,127341,1,0,0:0:0:0:
256,215,127497,1,8,0:0:0:0:
322,317,127653,1,0,0:0:0:0:
425,251,127809,6,0,P|461:193|437:142,1,93.75,4|0,0:0|0:0,0:0:0:0:
335,165,128122,2,0,P|302:131|296:86,1,93.75,8|0,0:0|0:0,0:0:0:0:
417,72,128434,2,0,P|461:60|504:76,1,93.75,4|0,0:0|0:0,0:0:0:0:
366,232,128747,2,0,P|319:236|279:213,1,93.75,8|0,0:0|0:0,0:0:0:0:
190,129,129059,5,4,0:0:0:0:
207,249,129216,1,0,0:0:0:0:
266,137,129372,2,0,P|258:91|225:59,1,93.75,8|0,0:0|0:0,0:0:0:0:
108,92,129684,1,0,0:0:0:0:
90,214,129841,1,0,0:0:0:0:
206,248,129997,2,0,P|249:267|274:305,1,93.75,8|0,0:0|0:0,0:0:0:0:
355,217,130309,6,0,L|372:108,1,93.75
433,227,130622,1,8,0:0:0:0:
455,107,130778,2,0,L|472:-2,1,93.75
329,34,131091,5,4,0:0:0:0:
179,87,131247,1,12,0:0:0:0:
123,235,131403,2,0,P|126:281|159:314,1,93.75,4|0,0:0|0:0,0:0:0:0:
326,375,131715,6,0,P|377:363|405:311,2,93.75,0|8|0,0:0|0:0|0:0,0:0:0:0:
244,264,132184,1,0,0:0:0:0:
337,306,132340,1,0,0:0:0:0:
224,381,132497,2,0,P|172:366|148:312,1,93.75,8|0,0:0|0:0,0:0:0:0:
289,198,132809,6,2,B|280:203|280:203|278:215|278:215|267:221|267:221|267:233|267:233|256:237|256:237|256:250|256:250|244:254|244:254|244:264,1,93.75,2|0,0:0|0:0,0:0:0:0:
148,202,133122,1,8,0:0:0:0:
67,291,133278,2,0,P|62:337|82:378,2,93.75
75,169,133747,2,0,P|113:126|178:134,1,93.75,8|0,0:0|0:0,0:0:0:0:
268,111,134059,5,4,0:0:0:0:
148,327,134372,1,8,0:0:0:0:
258,238,134528,1,0,0:0:0:0:
141,190,134684,1,0,0:0:0:0:
205,284,134840,1,0,0:0:0:0:
255,136,134997,2,0,P|339:164|356:252,1,187.5,8|0,0:0|0:0,0:0:0:0:
351,374,135465,5,0,0:0:0:0:
459,317,135622,1,8,0:0:0:0:
485,198,135778,1,0,0:0:0:0:
356,253,135934,1,0,0:0:0:0:
226,199,136090,1,0,0:0:0:0:
171,67,136247,2,0,P|192:26|233:4,1,93.75,8|0,0:0|0:0,0:0:0:0:
354,70,136559,6,0,P|360:115|342:158,1,93.75,4|0,0:0|0:0,0:0:0:0:
226,199,136872,2,0,L|136:170,1,93.75,8|0,0:0|0:0,0:0:0:0:
8,198,137184,2,0,P|1:243|20:286,1,93.75,4|0,0:0|0:0,0:0:0:0:
136,327,137497,2,0,L|226:298,1,93.75,8|0,0:0|0:0,0:0:0:0:
353,253,137809,6,0,P|361:162|434:107,1,187.5,2|8,0:0|0:0,0:0:0:0:
470,223,138278,1,0,0:0:0:0:
362,163,138434,2,0,B|279:110|279:110|178:95,1,187.5,0|8,0:0|0:0,0:0:0:0:
68,86,138903,1,0,0:0:0:0:
52,220,139059,6,0,B|64:255|95:271|124:267|124:267|138:226|174:203|223:209,1,187.5,2|8,0:0|0:0,0:0:0:0:
300,153,139528,1,0,0:0:0:0:
343,266,139684,2,0,B|341:303|315:327|286:331|286:331|261:296|220:284|175:302,1,187.5,0|8,0:0|0:0,0:0:0:0:
91,339,140153,1,0,0:0:0:0:
115,215,140309,6,2,B|136:176|180:182|220:167|223:123|210:102|210:102|197:68|212:37|256:19|300:37|315:68|302:102|302:102|289:123|292:167|332:182|376:176|397:215,1,517.500009870529,6|0,0:0|0:0,0:0:0:0:
380,334,141403,1,0,0:0:0:0:
348,363,141481,1,0,0:0:0:0:
307,377,141559,1,6,0:0:0:0:
