osu file format v14

[General]
AudioFilename: Cartoon Heroes - Aqua.mp3
AudioLeadIn: 0
PreviewTime: 42500
Countdown: 0
SampleSet: Normal
StackLeniency: 0.7
Mode: 0
LetterboxInBreaks: 0
WidescreenStoryboard: 0

[Editor]
Bookmarks: 8428,15928,42959,49834,58437,91240,99365,99521,117881,124209
DistanceSpacing: 1.3
BeatDivisor: 4
GridSize: 4
TimelineZoom: 3.899999

[Metadata]
Title:Cartoon Heroes (Speed Up Ver.)
TitleUnicode:Cartoon Heroes (Speed Up Ver.)
Artist:Aqua
ArtistUnicode:Aqua
Creator:pinataman
Version:Hard
Source:
Tags:Aquarius trance happy hardcore hard dance uk trancecore
BeatmapID:619039
BeatmapSetID:239635

[Difficulty]
HPDrainRate:6
CircleSize:4
OverallDifficulty:6
ApproachRate:7.5
SliderMultiplier:1.2
SliderTickRate:1

[Events]
//Background and Video events
0,0,"Photoshop_The_castle_from_a_fairy_tale_022470_.jpg",0,0
//Break Periods
2,104260,113235
//Storyboard Layer 0 (Background)
//Storyboard Layer 1 (Fail)
//Storyboard Layer 2 (Pass)
//Storyboard Layer 3 (Foreground)
//Storyboard Sound Samples

[TimingPoints]
5315,312.486979709179,4,2,1,60,1,0
12814,-100,4,1,1,40,0,0
15627,-100,4,2,1,60,0,0
23126,-86.9565217391304,4,1,1,50,0,0
42813,-86.9565217391304,4,1,1,65,0,1
62812,-86.9565217391304,4,1,1,50,0,0
81874,-86.9565217391304,4,1,1,34,0,0
82030,-86.9565217391304,4,1,1,50,0,0
82499,-86.9565217391304,4,1,1,34,0,0
82655,-86.9565217391304,4,1,1,50,0,0
83124,-86.9565217391304,4,1,1,34,0,0
83436,-86.9565217391304,4,1,1,50,0,0
84061,-86.9565217391304,4,1,1,65,0,1
104060,-86.9565217391304,4,1,1,50,0,0
114060,-86.9565217391304,4,1,1,65,0,1
140309,-100,4,1,1,65,0,1
141559,-86.9565217391304,4,1,1,50,0,0

[Colours]
Combo1 : 128,255,128
Combo2 : 0,128,255
Combo3 : 255,128,64
Combo4 : 255,128,255

[HitObjects]
201,330,5627,6,0,P|255:351|310:330,2,120,2|0|0,0:0|0:0|0:0,0:0:0:0:
124,209,6564,2,0,P|110:149|152:88,1,120,2|0,0:0|0:0,0:0:0:0:
196,55,7033,1,2,0:0:0:0:
316,55,7346,1,0,0:0:0:0:
374,99,7502,2,0,P|401:151|388:208,1,120,2|2,0:0|0:0,0:0:0:0:
248,172,8127,5,0,0:0:0:0:
284,311,8439,1,0,0:0:0:0:
388,209,8752,1,0,0:0:0:0:
248,171,9064,2,0,P|190:156|134:173,1,120,2|0,0:0|0:0,0:0:0:0:
69,206,9533,1,2,0:0:0:0:
193,277,9846,1,0,0:0:0:0:
265,274,10002,2,0,P|317:247|348:196,1,120,2|2,0:0|0:0,0:0:0:0:
367,54,10627,5,0,0:0:0:0:
511,54,10939,1,0,0:0:0:0:
386,126,11252,1,0,0:0:0:0:
316,106,11408,2,0,B|226:82|233:128|138:106,1,180,2|0,0:0|0:0,0:0:0:0:
72,76,12033,1,2,0:0:0:0:
151,196,12345,1,0,0:0:0:0:
217,226,12502,1,2,0:0:0:0:
366,147,12814,5,0,0:0:0:0:
306,277,13127,1,0,0:0:0:0:
247,119,13439,1,0,0:0:0:0:
217,271,13752,1,0,0:0:0:0:
261,335,13908,2,0,P|324:349|377:291,1,120
295,192,14533,1,0,0:0:0:0:
183,318,14845,1,0,0:0:0:0:
111,348,15002,2,0,P|38:324|16:283,1,120,0|4,0:0|0:0,0:0:0:0:
16,145,15627,5,2,0:0:0:0:
98,264,15939,1,0,0:0:0:0:
115,121,16252,1,0,0:0:0:0:
238,197,16564,2,0,P|301:200|338:163,1,120,2|0,0:0|0:0,0:0:0:0:
366,96,17033,2,0,P|407:56|466:61,1,120,2|0,0:0|0:0,0:0:0:0:
433,127,17501,1,2,0:0:0:0:
290,105,17814,5,2,0:0:0:0:
290,248,18126,1,0,0:0:0:0:
218,122,18439,1,0,0:0:0:0:
362,122,18751,1,0,0:0:0:0:
239,194,19064,2,0,L|135:254,1,120,2|0,0:0|0:0,0:0:0:0:
85,202,19533,2,0,B|137:172|137:172|173:108,1,120,2|0,0:0|0:0,0:0:0:0:
196,53,20001,1,2,0:0:0:0:
340,76,20314,6,0,P|392:110|403:189,2,120,2|2|2,0:0|0:0|0:0,0:0:0:0:
166,119,21408,2,0,L|196:248,1,120
144,288,21876,2,0,P|83:267|53:194,2,120,2|2|8,0:0|0:0|3:0,0:0:0:0:
266,212,22814,5,4,3:0:0:0:
352,352,23126,2,0,P|404:342|423:326,1,69.0000013160706
468,267,23439,2,0,P|476:213|468:190,1,69.0000013160706
394,177,23751,2,0,P|368:158|347:110,1,69.0000013160706
269,150,24064,2,0,B|203:178|230:202|163:234,1,138.000002632141
82,254,24532,2,0,P|41:200|49:133,1,138.000002632141
131,121,25001,2,0,P|165:120|193:101,1,69.0000013160706
141,37,25314,6,0,P|107:38|78:56,1,69.0000013160706
49,133,25626,2,0,P|65:174|106:198,1,69.0000013160706,0|0,0:0|0:0,0:0:0:0:
164,209,25939,2,0,P|149:242|118:265,1,69.0000013160706
44,282,26251,2,0,P|57:313|83:335,1,69.0000013160706
165,348,26564,2,0,P|238:282|253:239,1,138.000002632141
317,294,27032,2,0,P|381:316|440:285,1,138.000002632141
375,234,27501,2,0,P|344:197|339:156,1,69.0000013160706
303,102,27814,6,0,L|262:27,1,69.0000013160706
193,71,28126,2,0,P|173:136|184:204,2,138.000002632141
138,8,28907,2,0,P|74:33|29:85,1,138.000002632141
23,166,29376,1,0,0:0:0:0:
23,166,29532,2,0,P|60:223|119:256,1,138.000002632141
203,262,30001,2,0,L|259:223,1,69.0000013160706
380,181,30313,6,0,P|361:209|330:223,1,69.0000013160706,2|0,0:0|0:0,0:0:0:0:
245,152,30626,2,2,P|209:146|166:166,1,69.0000013160706,2|0,0:0|0:0,0:0:0:0:
126,238,30938,2,2,P|120:271|131:304,1,69.0000013160706,2|0,0:0|0:0,0:0:0:0:
205,343,31251,1,0,0:0:0:0:
277,251,31407,2,0,P|298:224|328:207,1,69.0000013160706,2|0,0:0|0:0,0:0:0:0:
383,128,31720,2,0,P|364:90|360:58,1,69.0000013160706
456,69,32032,2,0,P|474:105|477:137,1,69.0000013160706,2|0,0:0|0:0,0:0:0:0:
425,216,32345,1,0,0:0:0:0:
328,207,32501,2,2,B|256:188|274:156|206:140,1,138.000002632141,2|4,0:0|0:0,0:0:0:0:
57,152,33126,6,0,P|50:194|67:240,1,69.0000013160706
128,265,33438,2,0,P|142:305|178:338,1,69.0000013160706
243,331,33751,2,0,P|276:359|323:371,1,69.0000013160706,0|0,0:0|0:0,0:0:0:0:
375,332,34063,2,0,P|408:301|428:208,1,138.000002632141
346,212,34532,2,0,P|355:144|399:92,1,138.000002632141
482,100,35001,2,0,P|479:64|461:36,1,69.0000013160706
382,10,35313,6,0,P|349:23|327:49,1,69.0000013160706
279,114,35626,2,0,P|242:140|196:143,1,69.0000013160706
139,166,35938,2,0,P|117:208|163:294,1,138.000002632141
232,280,36407,2,0,B|269:261|298:268|298:268|328:275|365:256,1,138.000002632141
322,191,36876,1,0,0:0:0:0:
322,191,37032,2,0,B|287:180|257:188|257:188|241:145|186:129|139:166,1,207.000003948212
102,327,37813,6,0,P|121:355|152:368,1,69.0000013160706
223,324,38126,2,0,P|256:315|289:324,1,69.0000013160706
359,368,38438,2,0,P|390:355|410:327,1,69.0000013160706
434,247,38751,1,0,0:0:0:0:
390,176,38907,2,0,B|354:115|328:141|294:81,1,138.000002632141
212,100,39376,2,0,L|145:143,1,69.0000013160706
255,167,39688,2,0,L|188:210,1,69.0000013160706
114,210,40001,2,0,P|78:177|73:145,1,69.0000013160706
81,75,40313,5,0,0:0:0:0:
243,44,40626,1,0,0:0:0:0:
274,206,40938,1,0,0:0:0:0:
172,337,41251,1,0,0:0:0:0:
172,337,41407,1,0,0:0:0:0:
340,337,41719,1,0,0:0:0:0:
340,337,41875,1,0,0:0:0:0:
256,162,42188,1,0,0:0:0:0:
366,39,42500,2,0,P|401:50|425:76,1,69.0000013160706
468,142,42813,5,4,0:0:0:0:
429,215,42969,2,0,P|401:250|352:274,2,69.0000013160706,0|8|0,0:0|0:0|0:0,0:0:0:0:
333,197,43438,2,0,P|295:203|258:235,1,69.0000013160706
210,275,43750,2,0,P|181:294|147:298,1,69.0000013160706,8|0,0:0|0:0,0:0:0:0:
63,330,44063,2,0,P|29:325|0:307,2,69.0000013160706,0|0|8,0:0|0:0|0:0,0:0:0:0:
140,374,44532,2,0,P|177:379|218:358,1,69.0000013160706
311,333,44844,5,4,0:0:0:0:
317,223,45000,1,12,0:0:0:0:
425,205,45157,1,4,0:0:0:0:
352,39,45469,5,0,0:0:0:0:
305,114,45625,2,0,P|276:131|242:138,1,69.0000013160706,8|0,0:0|0:0,0:0:0:0:
161,97,45938,2,0,P|127:89|93:94,1,69.0000013160706
31,161,46251,2,0,P|27:195|37:228,1,69.0000013160706,8|0,0:0|0:0,0:0:0:0:
88,301,46563,1,0,0:0:0:0:
296,372,46875,1,8,0:0:0:0:
263,153,47188,1,0,0:0:0:0:
471,224,47500,1,8,0:0:0:0:
237,321,47813,5,4,0:0:0:0:
265,236,47969,1,0,0:0:0:0:
339,184,48125,2,0,P|402:159|429:85,1,138.000002632141,8|0,0:0|0:0,0:0:0:0:
345,64,48594,1,0,0:0:0:0:
259,89,48750,2,0,P|232:109|222:142,1,69.0000013160706,8|0,0:0|0:0,0:0:0:0:
180,222,49063,2,0,P|142:179|148:88,1,138.000002632141,0|8,0:0|0:0,0:0:0:0:
222,141,49531,2,0,P|253:157|287:159,1,69.0000013160706
368,83,49844,5,4,0:0:0:0:
388,191,50000,1,12,0:0:0:0:
308,267,50156,1,4,0:0:0:0:
144,192,50469,6,0,P|122:145|93:121,2,69.0000013160706,0|8|0,0:0|0:0|0:0,0:0:0:0:
204,260,50938,2,0,P|223:232|232:199,1,69.0000013160706
225,110,51250,2,0,P|247:83|276:66,1,69.0000013160706,8|0,0:0|0:0,0:0:0:0:
385,62,51563,2,0,P|372:127|315:168,1,138.000002632141,0|8,0:0|0:0,0:0:0:0:
301,255,52031,2,0,P|323:298|351:315,2,69.0000013160706
231,197,52500,2,0,P|198:159|169:149,1,69.0000013160706,8|0,0:0|0:0,0:0:0:0:
102,110,52813,5,4,0:0:0:0:
121,288,53125,2,0,P|152:301|185:297,1,69.0000013160706,8|0,0:0|0:0,0:0:0:0:
273,272,53437,1,0,0:0:0:0:
326,199,53594,1,0,0:0:0:0:
414,215,53750,2,0,P|418:283|391:345,1,138.000002632141,8|0,0:0|0:0,0:0:0:0:
306,379,54219,1,0,0:0:0:0:
220,353,54375,2,0,P|196:313|155:289,1,69.0000013160706,8|0,0:0|0:0,0:0:0:0:
238,232,54687,1,0,0:0:0:0:
311,284,54844,1,0,0:0:0:0:
319,195,55000,1,8,0:0:0:0:
175,87,55312,6,0,P|136:141|150:206,1,138.000002632141,0|8,0:0|0:0,0:0:0:0:
277,370,55937,1,0,0:0:0:0:
438,240,56250,1,8,0:0:0:0:
231,214,56562,2,0,P|215:245|219:279,1,69.0000013160706
312,299,56875,2,0,P|327:268|325:235,1,69.0000013160706,8|0,0:0|0:0,0:0:0:0:
242,127,57187,2,0,P|239:92|256:62,1,69.0000013160706
349,84,57500,2,0,P|351:118|336:148,1,69.0000013160706,8|0,0:0|0:0,0:0:0:0:
231,214,57812,5,4,0:0:0:0:
191,40,58125,2,0,P|225:44|254:63,1,69.0000013160706,8|0,0:0|0:0,0:0:0:0:
285,146,58437,1,0,0:0:0:0:
349,84,58594,1,0,0:0:0:0:
425,130,58750,2,0,P|454:191|440:257,1,138.000002632141,8|0,0:0|0:0,0:0:0:0:
390,332,59219,1,0,0:0:0:0:
307,367,59375,2,0,P|261:382|225:374,1,69.0000013160706,8|0,0:0|0:0,0:0:0:0:
188,297,59687,2,0,P|221:307|256:307,1,69.0000013160706
298,216,60000,2,0,P|266:230|232:235,1,69.0000013160706,8|0,0:0|0:0,0:0:0:0:
144,224,60312,6,0,P|99:173|105:100,1,138.000002632141,0|8,0:0|0:0,0:0:0:0:
284,7,60937,1,0,0:0:0:0:
300,215,61250,1,8,0:0:0:0:
161,79,61562,2,0,P|128:83|102:105,1,69.0000013160706
210,149,61875,2,0,P|240:118|244:88,1,69.0000013160706,8|0,0:0|0:0,0:0:0:0:
285,234,62187,2,0,P|298:272|327:295,1,69.0000013160706
411,247,62500,2,0,P|447:245|487:222,1,69.0000013160706,8|0,0:0|0:0,0:0:0:0:
491,135,62812,1,4,0:0:0:0:
223,33,64375,6,0,P|256:27|289:34,1,69.0000013160706,8|0,0:0|0:0,0:0:0:0:
256,116,64687,2,0,L|256:192,1,69.0000013160706
236,272,65000,2,0,P|207:291|173:297,1,69.0000013160706,8|0,0:0|0:0,0:0:0:0:
91,263,65312,2,0,B|56:226|88:165|150:185|117:137,1,138.000002632141,0|8,0:0|0:0,0:0:0:0:
107,57,65781,2,0,P|173:71|211:127,1,138.000002632141
271,193,66249,2,0,P|304:196|335:179,1,69.0000013160706,8|0,0:0|0:0,0:0:0:0:
413,224,66562,6,0,P|418:257|441:282,1,69.0000013160706
503,217,66874,2,0,P|497:183|475:158,1,69.0000013160706,8|0,0:0|0:0,0:0:0:0:
385,138,67187,2,0,P|353:150|334:178,1,69.0000013160706
289,256,67499,2,0,P|259:273|225:271,1,69.0000013160706,8|0,0:0|0:0,0:0:0:0:
165,205,67812,2,0,P|176:138|228:97,1,138.000002632141,0|8,0:0|0:0,0:0:0:0:
317,81,68281,2,0,P|281:24|216:9,1,138.000002632141
128,29,68749,2,0,P|100:51|83:82,1,69.0000013160706,8|0,0:0|0:0,0:0:0:0:
89,170,69062,6,0,P|106:197|134:216,1,69.0000013160706
222,191,69374,2,0,P|283:168|355:187,2,138.000002632141,8|0|8,0:0|0:0|0:0,0:0:0:0:
54,257,70312,2,0,P|13:202|21:135,1,138.000002632141,0|8,0:0|0:0,0:0:0:0:
109,113,70781,2,0,P|149:166|141:233,1,138.000002632141
111,317,71249,2,0,P|144:326|177:315,1,69.0000013160706,8|0,0:0|0:0,0:0:0:0:
287,245,71562,6,0,P|297:212|285:180,1,69.0000013160706,2|0,0:0|0:0,0:0:0:0:
360,99,71874,2,0,P|385:120|393:153,1,69.0000013160706,2|0,0:0|0:0,0:0:0:0:
422,261,72187,2,0,P|455:253|476:227,1,69.0000013160706,2|0,0:0|0:0,0:0:0:0:
493,118,72499,1,0,0:0:0:0:
360,99,72655,2,0,P|329:125|321:155,1,69.0000013160706,2|0,0:0|0:0,0:0:0:0:
226,216,72968,2,0,L|210:128,1,69.0000013160706,0|0,0:0|0:0,0:0:0:0:
234,50,73280,2,0,P|193:46|166:62,1,69.0000013160706,2|0,0:0|0:0,0:0:0:0:
88,124,73593,1,0,0:0:0:0:
128,219,73749,2,2,B|143:234|159:237|159:237|173:275|202:290|232:293|269:275,1,138.000002632141,2|4,0:0|0:0,0:0:0:0:
342,151,74374,6,0,P|372:167|390:195,1,69.0000013160706,8|0,0:0|0:0,0:0:0:0:
479,180,74687,2,0,P|477:145|493:115,1,69.0000013160706
435,46,74999,2,0,P|405:64|371:65,1,69.0000013160706,8|0,0:0|0:0,0:0:0:0:
285,38,75312,2,0,P|220:21|162:56,1,138.000002632141,0|8,0:0|0:0,0:0:0:0:
111,130,75780,2,0,P|175:146|233:111,1,138.000002632141
324,123,76249,2,0,P|349:142|363:173,1,69.0000013160706,8|0,0:0|0:0,0:0:0:0:
370,264,76562,6,0,P|337:260|306:243,1,69.0000013160706
220,220,76874,2,0,P|202:249|198:283,1,69.0000013160706,8|0,0:0|0:0,0:0:0:0:
133,345,77187,2,0,P|109:310|111:274,1,69.0000013160706
198,283,77499,2,0,P|220:315|218:351,1,69.0000013160706,8|0,0:0|0:0,0:0:0:0:
331,346,77811,2,0,P|320:270|281:213,1,138.000002632141,0|8,0:0|0:0,0:0:0:0:
225,144,78280,2,0,P|188:79|201:20,1,138.000002632141
284,68,78749,1,8,0:0:0:0:
177,212,79061,6,0,L|224:262,1,69.0000013160706
314,252,79374,2,0,L|266:201,1,69.0000013160706,8|0,0:0|0:0,0:0:0:0:
356,192,79686,2,0,L|403:242,1,69.0000013160706,8|0,0:0|0:0,0:0:0:0:
367,324,79999,1,0,0:0:0:0:
287,366,80155,2,0,B|221:402|221:330|156:364,1,138.000002632141
68,380,80624,2,0,P|37:363|17:336,1,69.0000013160706,8|0,0:0|0:0,0:0:0:0:
47,251,80936,2,0,P|77:267|97:294,1,69.0000013160706,8|0,0:0|0:0,0:0:0:0:
186,279,81249,2,0,P|215:261|249:257,1,69.0000013160706
333,291,81561,5,0,0:0:0:0:
215,156,81874,1,8,0:0:0:0:
241,333,82186,1,0,0:0:0:0:
313,195,82499,1,8,0:0:0:0:
313,195,82655,1,0,0:0:0:0:
231,34,82968,1,0,0:0:0:0:
231,34,83124,1,8,0:0:0:0:
103,196,83436,1,0,0:0:0:0:
252,293,83749,2,0,P|240:325|218:350,1,69.0000013160706,4|0,0:0|0:0,0:0:0:0:
130,362,84061,5,4,0:0:0:0:
44,338,84217,2,0,P|23:302|19:273,2,69.0000013160706,0|8|0,0:0|0:0|0:0,0:0:0:0:
108,275,84686,2,0,P|132:251|166:246,1,69.0000013160706
241,296,84999,2,0,P|271:313|305:311,1,69.0000013160706,8|0,0:0|0:0,0:0:0:0:
293,223,85311,2,0,P|273:194|244:176,2,69.0000013160706,0|0|8,0:0|0:0|0:0,0:0:0:0:
379,198,85780,2,0,P|359:158|338:133,1,69.0000013160706
262,65,86092,5,4,0:0:0:0:
169,125,86249,1,12,0:0:0:0:
114,221,86405,1,4,0:0:0:0:
25,81,86717,5,0,0:0:0:0:
91,20,86874,2,0,P|125:20|158:37,1,69.0000013160706,8|0,0:0|0:0,0:0:0:0:
169,125,87186,2,0,P|135:125|105:110,1,69.0000013160706
226,73,87499,1,8,0:0:0:0:
280,135,87655,1,0,0:0:0:0:
359,159,87811,1,0,0:0:0:0:
246,348,88124,1,8,0:0:0:0:
42,262,88436,1,0,0:0:0:0:
95,47,88749,1,8,0:0:0:0:
307,183,89061,5,4,0:0:0:0:
378,128,89217,1,0,0:0:0:0:
307,183,89373,2,0,P|244:214|175:224,1,138.000002632141,8|0,0:0|0:0,0:0:0:0:
87,228,89842,1,0,0:0:0:0:
138,301,89998,2,0,P|175:310|229:292,1,69.0000013160706,8|0,0:0|0:0,0:0:0:0:
282,350,90311,2,0,P|343:313|361:242,1,138.000002632141,0|8,0:0|0:0,0:0:0:0:
306,181,90780,2,0,P|300:148|309:115,1,69.0000013160706
412,154,91092,5,4,0:0:0:0:
311,195,91248,1,12,0:0:0:0:
212,146,91405,1,4,0:0:0:0:
380,84,91717,6,0,P|414:82|445:68,2,69.0000013160706,0|8|0,0:0|0:0|0:0,0:0:0:0:
294,110,92186,2,0,L|291:202,1,69.0000013160706
378,154,92498,2,0,L|380:85,1,69.0000013160706,8|0,0:0|0:0,0:0:0:0:
467,151,92811,2,2,P|446:217|379:242,1,138.000002632141,2|8,0:0|0:0,0:0:0:0:
412,328,93280,2,0,P|455:350|487:350,2,69.0000013160706
324,307,93748,2,0,P|289:301|255:306,1,69.0000013160706,8|0,0:0|0:0,0:0:0:0:
166,320,94061,5,4,0:0:0:0:
73,166,94373,1,8,0:0:0:0:
45,251,94530,1,0,0:0:0:0:
133,231,94686,2,0,L|220:210,1,69.0000013160706
277,259,94998,2,0,P|344:248|391:198,1,138.000002632141,8|4,0:0|0:0,0:0:0:0:
474,164,95467,1,0,0:0:0:0:
431,85,95623,2,0,P|397:89|369:109,1,69.0000013160706,8|0,0:0|0:0,0:0:0:0:
285,138,95936,1,0,0:0:0:0:
201,105,96092,1,0,0:0:0:0:
155,27,96248,1,8,0:0:0:0:
122,203,96561,5,0,0:0:0:0:
317,268,96873,1,8,0:0:0:0:
122,203,97186,1,0,0:0:0:0:
320,144,97498,1,8,0:0:0:0:
122,203,97811,2,0,P|106:242|112:271,1,69.0000013160706
167,347,98123,2,0,P|199:358|232:352,1,69.0000013160706,8|0,0:0|0:0,0:0:0:0:
364,315,98436,2,0,P|330:339|300:341,1,69.0000013160706
227,282,98748,2,0,P|201:258|191:226,1,69.0000013160706,8|0,0:0|0:0,0:0:0:0:
247,155,99061,5,4,0:0:0:0:
426,149,99373,2,0,P|416:182|394:209,1,69.0000013160706,8|0,0:0|0:0,0:0:0:0:
305,222,99686,1,0,0:0:0:0:
245,153,99842,1,0,0:0:0:0:
160,135,99998,2,0,B|119:161|118:188|118:188|144:206|157:235|156:273,1,138.000002632141,8|4,0:0|0:0,0:0:0:0:
128,330,100467,1,0,0:0:0:0:
65,265,100623,2,0,P|32:228|31:178,1,69.0000013160706,8|0,0:0|0:0,0:0:0:0:
47,122,100936,2,0,P|80:97|94:68,1,69.0000013160706
175,40,101248,2,0,P|199:64|231:75,1,69.0000013160706,8|0,0:0|0:0,0:0:0:0:
314,109,101560,6,0,L|437:10,1,138.000002632141,0|8,0:0|0:0,0:0:0:0:
502,213,102185,1,0,0:0:0:0:
301,264,102498,1,8,0:0:0:0:
171,103,102810,2,0,P|139:114|117:139,1,69.0000013160706
121,264,103123,2,0,P|149:278|193:275,1,69.0000013160706,8|0,0:0|0:0,0:0:0:0:
262,180,103435,2,0,P|284:144|284:110,1,69.0000013160706
398,63,103748,2,0,P|431:78|453:105,1,69.0000013160706,8|0,0:0|0:0,0:0:0:0:
428,224,104060,1,4,0:0:0:0:
185,226,114060,6,0,L|241:265,1,69.0000013160706,2|0,0:0|0:0,0:0:0:0:
325,216,114372,2,0,L|381:255,1,69.0000013160706,8|0,0:0|0:0,0:0:0:0:
460,198,114685,2,0,P|486:124|450:53,1,138.000002632141,0|8,0:0|0:0,0:0:0:0:
381,26,115154,2,0,L|325:65,1,69.0000013160706,2|0,0:0|0:0,0:0:0:0:
235,104,115466,2,0,L|291:143,1,69.0000013160706,0|8,0:0|0:0,0:0:0:0:
369,200,115779,2,0,P|374:233|362:265,1,69.0000013160706,0|0,0:0|0:0,0:0:0:0:
269,293,116091,1,2,0:0:0:0:
192,232,116247,2,0,P|158:231|128:247,1,69.0000013160706,10|0,0:0|0:0,0:0:0:0:
181,329,116560,6,0,P|195:359|224:378,1,69.0000013160706,2|0,0:0|0:0,0:0:0:0:
269,293,116872,2,0,P|288:264|290:230,1,69.0000013160706,8|0,0:0|0:0,0:0:0:0:
315,136,117185,2,0,P|376:89|449:102,1,138.000002632141,0|8,0:0|0:0,0:0:0:0:
398,184,117654,2,0,L|374:248,1,69.0000013160706,2|0,0:0|0:0,0:0:0:0:
440,319,117966,2,0,L|463:383,1,69.0000013160706,0|8,0:0|0:0,0:0:0:0:
368,362,118279,2,0,P|328:353|290:380,1,69.0000013160706
219,316,118591,1,2,0:0:0:0:
300,262,118747,2,0,P|334:254|368:262,1,69.0000013160706,10|0,0:0|0:0,0:0:0:0:
460,236,119060,6,0,P|475:206|468:162,1,69.0000013160706,2|0,0:0|0:0,0:0:0:0:
414,95,119372,2,0,P|403:63|367:37,1,69.0000013160706,8|0,0:0|0:0,0:0:0:0:
295,94,119685,2,0,B|249:148|233:116|184:171,1,138.000002632141,0|8,0:0|0:0,0:0:0:0:
202,266,120153,2,0,P|238:250|266:219,1,69.0000013160706,2|0,0:0|0:0,0:0:0:0:
336,172,120466,2,0,P|387:179|406:207,1,69.0000013160706,0|8,0:0|0:0,0:0:0:0:
465,259,120778,2,0,P|455:295|412:336,1,69.0000013160706,0|0,0:0|0:0,0:0:0:0:
341,333,121091,1,2,0:0:0:0:
252,295,121247,2,0,P|226:322|168:336,1,69.0000013160706,10|0,0:0|0:0,0:0:0:0:
171,241,121560,6,0,L|228:203,1,69.0000013160706,2|0,0:0|0:0,0:0:0:0:
168,128,121872,2,0,L|110:165,1,69.0000013160706,8|0,0:0|0:0,0:0:0:0:
26,215,122185,2,0,B|41:242|78:258|78:258|84:297|109:316,1,138.000002632141,0|8,0:0|0:0,0:0:0:0:
205,336,122653,2,0,P|234:330|267:301,1,69.0000013160706,2|0,0:0|0:0,0:0:0:0:
319,226,122966,2,0,P|335:195|361:172,1,69.0000013160706,0|8,0:0|0:0,0:0:0:0:
446,128,123278,2,0,P|442:94|430:62,1,69.0000013160706,0|2,0:0|0:0,0:0:0:0:
339,25,123591,1,2,0:0:0:0:
318,119,123747,2,0,P|336:148|360:172,1,69.0000013160706,10|2,0:0|0:0,0:0:0:0:
444,225,124060,5,4,0:0:0:0:
466,318,124216,2,0,P|484:358|531:383,2,69.0000013160706,0|8|0,0:0|0:0|0:0,0:0:0:0:
444,225,124685,2,0,P|414:214|373:216,1,69.0000013160706
326,297,124997,2,0,P|300:324|263:329,1,69.0000013160706,8|0,0:0|0:0,0:0:0:0:
205,258,125310,2,0,L|207:189,2,69.0000013160706,0|0|8,0:0|0:0|0:0,0:0:0:0:
143,333,125778,2,0,P|109:325|87:300,1,69.0000013160706
24,208,126091,5,4,0:0:0:0:
109,136,126247,1,12,0:0:0:0:
29,59,126403,1,4,0:0:0:0:
208,60,126716,5,0,0:0:0:0:
303,62,126872,2,0,P|334:74|367:114,1,69.0000013160706,8|0,0:0|0:0,0:0:0:0:
396,186,127184,2,0,P|396:220|371:265,1,69.0000013160706
300,200,127497,1,8,0:0:0:0:
203,195,127653,1,0,0:0:0:0:
120,244,127809,1,0,0:0:0:0:
332,308,128122,1,8,0:0:0:0:
275,94,128434,1,0,0:0:0:0:
82,201,128747,1,8,0:0:0:0:
314,292,129059,5,4,0:0:0:0:
360,207,129216,1,0,0:0:0:0:
277,157,129372,2,0,P|200:148|151:183,1,138.000002632141,8|0,0:0|0:0,0:0:0:0:
136,276,129841,1,0,0:0:0:0:
42,301,129997,2,0,P|16:278|2:246,1,69.0000013160706,8|0,0:0|0:0,0:0:0:0:
94,222,130309,2,0,L|177:331,1,138.000002632141,0|8,0:0|0:0,0:0:0:0:
268,306,130778,2,0,P|254:274|229:252,1,69.0000013160706
152,171,131091,5,4,0:0:0:0:
246,114,131247,1,12,0:0:0:0:
272,7,131403,1,4,0:0:0:0:
101,43,131715,6,0,P|66:45|30:91,2,69.0000013160706,0|8|0,0:0|0:0|0:0,0:0:0:0:
187,85,132184,2,0,P|227:86|272:64,1,69.0000013160706
338,28,132497,2,0,L|345:96,1,69.0000013160706,8|0,0:0|0:0,0:0:0:0:
271,176,132809,2,2,P|278:243|329:287,1,138.000002632141,2|8,0:0|0:0,0:0:0:0:
419,324,133278,2,0,P|402:369|379:391,2,69.0000013160706,0|0|0,0:0|0:0|0:0,0:0:0:0:
425,227,133747,2,0,P|398:205|364:198,1,69.0000013160706,8|0,0:0|0:0,0:0:0:0:
271,176,134059,5,4,0:0:0:0:
78,178,134372,1,8,0:0:0:0:
129,259,134528,1,0,0:0:0:0:
52,318,134684,2,0,P|76:341|140:354,1,69.0000013160706
205,351,134997,2,0,B|274:321|217:276|284:247,1,138.000002632141,8|0,0:0|0:0,0:0:0:0:
364,302,135465,1,0,0:0:0:0:
447,253,135622,1,8,0:0:0:0:
413,162,135778,1,0,0:0:0:0:
315,159,135934,2,0,P|278:142|264:110,1,69.0000013160706,0|0,0:0|0:0,0:0:0:0:
218,33,136247,1,8,0:0:0:0:
33,91,136559,5,4,0:0:0:0:
220,181,136872,1,8,0:0:0:0:
45,292,137184,1,4,0:0:0:0:
240,362,137496,1,8,0:0:0:0:
316,184,137809,6,0,P|315:149|297:121,2,69.0000013160706,2|0|8,0:0|0:0|0:0,0:0:0:0:
140,263,138434,2,0,P|104:204|104:136,1,138.000002632141,0|8,0:0|0:0,0:0:0:0:
293,117,139059,6,0,P|311:145|312:179,2,69.0000013160706,2|0|8,0:0|0:0|0:0,0:0:0:0:
104,137,139684,2,0,P|104:205|140:263,1,138.000002632141,0|8,0:0|0:0,0:0:0:0:
312,179,140309,6,2,B|358:140|358:140|375:54|500:79|481:199|405:195|405:195|359:234,1,360,2|0,0:0|0:0,0:0:0:0:
293,306,141403,2,0,L|288:335,2,30,0|0|6,0:0|0:0|0:0,0:0:0:0:
