osu file format v14

[General]
AudioFilename: Cartoon Heroes - Aqua.mp3
AudioLeadIn: 0
PreviewTime: 42500
Countdown: 0
SampleSet: Normal
StackLeniency: 0.7
Mode: 0
LetterboxInBreaks: 0
WidescreenStoryboard: 0

[Editor]
Bookmarks: 61553,63740,72490,88428,98428,102803
DistanceSpacing: 0.9
BeatDivisor: 2
GridSize: 4
TimelineZoom: 1.500001

[Metadata]
Title:Cartoon Heroes (Speed Up Ver.)
TitleUnicode:Cartoon Heroes (Speed Up Ver.)
Artist:Aqua
ArtistUnicode:Aqua
Creator:pinataman
Version:Easy
Source:
Tags:Aquarius trance happy hardcore hard dance uk trancecore
BeatmapID:645692
BeatmapSetID:239635

[Difficulty]
HPDrainRate:2
CircleSize:3
OverallDifficulty:2
ApproachRate:3
SliderMultiplier:0.900000005960464
SliderTickRate:1

[Events]
//Background and Video events
0,0,"Photoshop_The_castle_from_a_fairy_tale_022470_.jpg",0,0
//Break Periods
2,104260,112620
//Storyboard Layer 0 (Background)
//Storyboard Layer 1 (Fail)
//Storyboard Layer 2 (Pass)
//Storyboard Layer 3 (Foreground)
//Storyboard Sound Samples

[TimingPoints]
5315,312.486979709179,4,2,1,60,1,0
12814,-100,4,1,1,40,0,0
15939,-100,4,2,1,60,0,0
23126,-100,4,1,1,50,0,0
42813,-100,4,1,1,65,0,1
62812,-100,4,1,1,50,0,0
84061,-100,4,1,1,65,0,1
104060,-100,4,1,1,50,0,0
114060,-100,4,1,1,65,0,1
141559,-100,4,1,1,50,0,0

[Colours]
Combo1 : 128,255,128
Combo2 : 0,128,255
Combo3 : 255,128,64
Combo4 : 255,128,255

[HitObjects]
99,127,5315,6,0,P|181:159|268:141,1,180.000001192093,2|0,0:0|0:0,0:0:0:0:
391,35,6564,1,2,0:0:0:0:
423,192,7189,2,0,P|424:259|375:363,1,180.000001192093,2|2,0:0|0:0,0:0:0:0:
268,240,8439,6,0,P|269:150|311:72,1,180.000001192093,0|2,0:0|0:0,0:0:0:0:
468,36,9689,1,2,0:0:0:0:
421,191,10314,5,2,0:0:0:0:
310,72,10939,2,0,P|242:34|129:58,2,180.000001192093,0|2|0,0:0|0:0|0:0,0:0:0:0:
309,238,12814,5,0,0:0:0:0:
253,296,13127,1,0,0:0:0:0:
197,356,13439,2,0,P|124:366|48:325,1,135.00000089407,0|0,0:0|0:0,0:0:0:0:
27,273,14220,1,0,0:0:0:0:
46,194,14533,2,0,P|107:153|193:156,1,135.00000089407,0|0,0:0|0:0,0:0:0:0:
240,182,15314,5,4,0:0:0:0:
275,24,15939,1,0,0:0:0:0:
417,100,16564,2,0,P|426:188|373:259,1,180.000001192093,2|2,0:0|0:0,0:0:0:0:
236,343,17814,5,2,0:0:0:0:
396,343,18439,1,0,0:0:0:0:
257,258,19064,2,0,P|204:187|213:99,1,180.000001192093,2|2,0:0|0:0,0:0:0:0:
355,21,20314,6,0,B|379:56|379:56|379:103,2,90.0000005960464,2|2|2,0:0|0:0|0:0,0:0:0:0:
197,21,21564,2,0,B|173:55|173:55|173:103,2,90.0000005960464,2|2|2,0:0|0:0|0:0,0:0:0:0:
276,41,22501,1,8,3:0:0:0:
276,121,22814,5,4,3:0:0:0:
311,192,23126,2,0,B|303:251|280:277|280:277|308:293|333:349,1,180.000001192093,8|8,0:0|0:0,0:0:0:0:
406,383,24064,2,0,P|458:348|475:277,2,135.00000089407,2|2|2,0:0|0:0|0:0,0:0:0:0:
328,358,25314,5,0,0:0:0:0:
252,330,25626,2,0,B|188:315|235:205|168:184,1,180.000001192093,8|8,0:0|0:0,0:0:0:0:
97,143,26564,2,0,P|143:105|220:119,2,135.00000089407,2|2|2,0:0|0:0|0:0,0:0:0:0:
70,219,27814,5,0,0:0:0:0:
107,290,28126,2,0,B|149:317|194:307|194:307|221:267|297:253,1,180.000001192093,8|8,0:0|0:0,0:0:0:0:
346,271,29064,1,0,0:0:0:0:
420,240,29376,2,0,P|475:185|452:88,1,180.000001192093,8|8,0:0|0:0,0:0:0:0:
376,112,30313,5,2,0:0:0:0:
355,190,30626,1,2,0:0:0:0:
282,224,30938,2,0,P|216:224|172:170,1,135.00000089407,2|2,0:0|0:0,0:0:0:0:
137,102,31720,1,0,0:0:0:0:
56,112,32032,2,0,P|22:203|53:262,1,135.00000089407,2|0,0:0|0:0,0:0:0:0:
100,279,32813,5,4,0:0:0:0:
180,272,33126,1,8,0:0:0:0:
223,203,33438,2,0,P|267:196|307:214,1,90.0000005960464,0|8,0:0|0:0,0:0:0:0:
355,281,34063,2,0,B|396:336|396:336|464:352,2,135.00000089407,2|2|2,0:0|0:0|0:0,0:0:0:0:
308,215,35313,5,0,0:0:0:0:
262,147,35626,2,0,P|217:133|163:150,1,90.0000005960464,8|0,0:0|0:0,0:0:0:0:
133,212,36251,1,8,0:0:0:0:
179,278,36563,2,0,P|224:292|278:275,2,90.0000005960464,0|8|0,0:0|0:0|0:0,0:0:0:0:
133,212,37501,1,8,0:0:0:0:
88,143,37813,6,0,L|15:88,2,90.0000005960464,2|2|2,0:0|0:0|0:0,0:0:0:0:
208,162,38907,2,0,B|277:165|259:113|328:117,1,135.00000089407,2|2,0:0|0:0,0:0:0:0:
325,200,39688,2,0,P|328:245|359:282,1,90.0000005960464,2|0,0:0|0:0,0:0:0:0:
434,293,40313,5,0,0:0:0:0:
486,231,40626,1,8,0:0:0:0:
472,151,40938,2,0,P|447:113|406:97,1,90.0000005960464,0|8,0:0|0:0,0:0:0:0:
326,97,41563,2,0,B|280:97|240:73|240:73|200:97|154:97,1,180.000001192093,2|2,0:0|0:0,0:0:0:0:
240,233,42813,5,4,0:0:0:0:
182,289,43125,1,8,0:0:0:0:
103,270,43438,2,0,P|121:234|170:208,1,90.0000005960464,0|8,0:0|0:0,0:0:0:0:
240,233,44063,2,0,P|301:257|375:249,2,135.00000089407,2|2|8,0:0|0:0|0:0,0:0:0:0:
182,175,45313,5,0,0:0:0:0:
223,105,45625,2,0,P|264:89|308:99,1,90.0000005960464,8|2,0:0|0:0,0:0:0:0:
365,157,46250,1,8,0:0:0:0:
444,138,46563,2,0,P|458:98|446:51,1,90.0000005960464,2|8,0:0|0:0,0:0:0:0:
372,19,47188,1,2,0:0:0:0:
291,16,47500,1,8,0:0:0:0:
234,73,47813,6,0,P|174:80|55:44,1,180.000001192093,4|0,0:0|0:0,0:0:0:0:
14,114,48750,1,8,0:0:0:0:
81,160,49063,2,0,P|126:174|179:174,2,90.0000005960464,2|8|0,0:0|0:0|0:0,0:0:0:0:
26,219,50000,2,0,L|83:304,1,90.0000005960464,8|0,0:0|0:0,0:0:0:0:
145,335,50625,6,0,B|168:345|214:332|226:313|226:313|229:279|245:255|271:237,1,180.000001192093,10|8,0:0|0:0,0:0:0:0:
332,184,51563,2,0,P|396:159|471:176,2,135.00000089407,2|0|8,0:0|0:0|0:0,0:0:0:0:
271,237,52813,5,4,0:0:0:0:
198,272,53125,2,0,P|157:309|97:321,2,90.0000005960464,8|0|8,0:0|0:0|0:0,0:0:0:0:
204,191,54062,1,2,0:0:0:0:
276,154,54375,2,0,P|325:176|359:229,2,90.0000005960464,8|0|8,0:0|0:0|0:0,0:0:0:0:
205,110,55312,6,0,P|158:93|128:60,1,90.0000005960464,2|8,0:0|0:0,0:0:0:0:
205,28,55937,2,0,P|250:42|280:76,1,90.0000005960464,2|8,0:0|0:0,0:0:0:0:
276,154,56562,1,2,0:0:0:0:
355,170,56875,1,8,0:0:0:0:
380,93,57187,2,0,P|420:74|465:79,1,90.0000005960464,2|8,0:0|0:0,0:0:0:0:
435,156,57812,5,4,0:0:0:0:
411,233,58125,2,0,P|387:274|263:306,1,180.000001192093,8|8,0:0|0:0,0:0:0:0:
236,233,59062,1,0,0:0:0:0:
160,260,59375,2,0,P|90:207|84:120,1,180.000001192093,8|8,0:0|0:0,0:0:0:0:
167,129,60312,6,0,P|224:119|252:81,1,90.0000005960464,2|8,0:0|0:0,0:0:0:0:
212,22,60937,2,0,P|155:32|127:70,1,90.0000005960464,2|8,0:0|0:0,0:0:0:0:
85,120,61562,1,2,0:0:0:0:
111,196,61875,1,8,0:0:0:0:
191,205,62187,2,0,P|254:187|287:148,1,90.0000005960464,2|8,0:0|0:0,0:0:0:0:
316,104,62812,1,4,0:0:0:0:
417,341,64375,6,0,P|334:368|261:320,1,180.000001192093,8|8,0:0|0:0,0:0:0:0:
209,257,65312,2,0,B|179:217|117:281|83:241,2,135.00000089407,2|2|2,0:0|0:0|0:0,0:0:0:0:
261,320,66562,5,0,0:0:0:0:
341,308,66874,2,0,B|385:303|412:258|412:258|411:206|375:180,1,180.000001192093,8|8,0:0|0:0,0:0:0:0:
368,100,67812,2,0,B|370:50|457:70|464:17,2,135.00000089407,2|2|2,0:0|0:0|0:0,0:0:0:0:
337,175,69062,5,0,0:0:0:0:
288,240,69374,2,0,B|246:267|201:257|201:257|182:227|161:213|130:211,1,180.000001192093,8|8,0:0|0:0,0:0:0:0:
55,241,70312,2,0,B|74:284|126:292|126:292|146:330|197:339,1,180.000001192093,2|0,0:0|0:0,0:0:0:0:
275,356,71249,1,8,0:0:0:0:
332,298,71562,5,2,0:0:0:0:
389,240,71874,1,2,0:0:0:0:
395,159,72187,2,0,P|371:98|310:69,1,135.00000089407,6|2,0:0|0:0,0:0:0:0:
229,74,72968,1,0,0:0:0:0:
181,139,73280,2,0,B|139:215|207:238|170:282,1,135.00000089407,2|0,0:0|0:0,0:0:0:0:
120,326,74062,5,4,0:0:0:0:
43,300,74374,1,8,0:0:0:0:
37,219,74687,2,0,B|32:186|91:188|88:153,1,90.0000005960464,0|8,0:0|0:0,0:0:0:0:
121,77,75312,2,0,P|181:50|241:77,2,135.00000089407,2|2|2,0:0|0:0|0:0,0:0:0:0:
88,153,76562,5,0,0:0:0:0:
136,217,76874,2,0,P|177:234|232:226,1,90.0000005960464,8|0,0:0|0:0,0:0:0:0:
300,211,77499,1,8,0:0:0:0:
279,288,77811,2,0,P|216:313|150:309,2,135.00000089407,2|2|2,0:0|0:0|0:0,0:0:0:0:
357,268,79061,6,0,P|401:273|443:259,2,90.0000005960464,2|2|2,0:0|0:0|0:0,0:0:0:0:
244,222,80155,2,0,B|195:205|238:126|190:106,1,135.00000089407,2|2,0:0|0:0,0:0:0:0:
115,78,80936,2,0,P|70:71|33:95,1,90.0000005960464,2|0,0:0|0:0,0:0:0:0:
18,175,81561,5,0,0:0:0:0:
3,255,81874,2,0,P|37:288|79:291,1,90.0000005960464,8|0,0:0|0:0,0:0:0:0:
155,269,82499,1,8,0:0:0:0:
218,319,82811,2,0,B|259:298|300:326|300:326|364:322|370:278,1,180.000001192093,2|2,0:0|0:0,0:0:0:0:
331,121,84061,5,4,0:0:0:0:
267,70,84374,1,8,0:0:0:0:
185,67,84686,2,0,P|142:85|127:125,1,90.0000005960464,0|8,0:0|0:0,0:0:0:0:
115,203,85311,2,0,P|73:245|0:249,2,135.00000089407,2|2|8,0:0|0:0|0:0,0:0:0:0:
190,173,86561,5,0,0:0:0:0:
190,91,86874,2,0,P|236:30|346:25,1,180.000001192093,8|8,0:0|0:0,0:0:0:0:
357,97,87811,1,2,0:0:0:0:
412,156,88124,1,8,0:0:0:0:
491,170,88436,2,0,P|509:218|491:266,1,90.0000005960464,2|8,0:0|0:0,0:0:0:0:
446,315,89061,6,0,P|371:351|277:320,1,180.000001192093,4|0,0:0|0:0,0:0:0:0:
231,262,89998,1,8,0:0:0:0:
174,205,90311,2,0,P|203:170|264:161,2,90.0000005960464,2|8|0,0:0|0:0|0:0,0:0:0:0:
151,282,91248,2,0,P|122:317|61:326,1,90.0000005960464,8|0,0:0|0:0,0:0:0:0:
78,248,91873,6,0,B|69:217|51:194|20:180|20:180|6:163|9:115|26:96,1,180.000001192093,10|8,0:0|0:0,0:0:0:0:
86,43,92811,2,0,B|129:23|129:23|226:42,2,135.00000089407,2|0|8,0:0|0:0|0:0,0:0:0:0:
101,122,94061,5,4,0:0:0:0:
145,189,94373,2,0,P|122:226|71:248,2,90.0000005960464,8|0|8,0:0|0:0|0:0,0:0:0:0:
214,147,95311,1,0,0:0:0:0:
293,130,95623,2,0,P|323:161|333:216,2,90.0000005960464,8|0|8,0:0|0:0|0:0,0:0:0:0:
238,70,96561,6,0,P|175:76|140:118,1,90.0000005960464,2|8,0:0|0:0,0:0:0:0:
137,170,97186,2,0,P|130:213|100:246,1,90.0000005960464,2|8,0:0|0:0,0:0:0:0:
22,273,97811,1,2,0:0:0:0:
82,326,98123,1,8,0:0:0:0:
161,341,98436,2,0,P|203:333|246:286,1,90.0000005960464,2|8,0:0|0:0,0:0:0:0:
250,223,99061,5,4,0:0:0:0:
282,149,99373,2,0,B|337:114|382:225|444:192,1,180.000001192093,8|8,0:0|0:0,0:0:0:0:
509,144,100311,1,0,0:0:0:0:
478,68,100623,2,0,B|440:8|346:82|315:24,1,180.000001192093,8|8,0:0|0:0,0:0:0:0:
239,53,101560,6,0,P|230:104|242:153,1,90.0000005960464,2|8,0:0|0:0,0:0:0:0:
282,208,102185,2,0,P|288:252|280:296,1,90.0000005960464,2|8,0:0|0:0,0:0:0:0:
212,341,102810,1,2,0:0:0:0:
131,341,103123,1,8,0:0:0:0:
63,296,103435,2,0,L|48:199,1,90.0000005960464,2|8,0:0|0:0,0:0:0:0:
37,126,104060,1,4,0:0:0:0:
175,116,114060,5,2,0:0:0:0:
229,176,114372,1,0,0:0:0:0:
201,252,114685,2,0,B|247:267|285:234|285:234|349:266,1,135.00000089407,0|2,0:0|0:0,0:0:0:0:
398,290,115466,1,0,0:0:0:0:
447,225,115779,2,0,B|476:196|468:140|468:140|432:132|416:96,1,135.00000089407,0|2,0:0|0:0,0:0:0:0:
379,55,116560,5,2,0:0:0:0:
299,72,116872,1,0,0:0:0:0:
218,60,117185,2,0,B|166:47|134:78|134:78|90:68,1,135.00000089407,0|2,0:0|0:0,0:0:0:0:
22,112,117966,1,0,0:0:0:0:
94,149,118279,2,0,B|180:173|180:173|217:171|239:155,1,135.00000089407,0|2,0:0|0:0,0:0:0:0:
284,107,119060,5,2,0:0:0:0:
333,171,119372,1,0,0:0:0:0:
411,147,119685,2,0,B|438:192|418:232|418:232|365:254,1,135.00000089407,0|2,0:0|0:0,0:0:0:0:
297,265,120466,1,0,0:0:0:0:
264,339,120778,2,0,B|245:384|191:375|191:375|169:345|147:342,1,135.00000089407,0|2,0:0|0:0,0:0:0:0:
105,283,121560,5,2,0:0:0:0:
118,203,121872,1,0,0:0:0:0:
196,183,122185,2,0,B|234:179|249:145|245:120|245:120|267:80,1,135.00000089407,0|2,0:0|0:0,0:0:0:0:
325,23,122966,1,0,0:0:0:0:
380,81,123278,2,0,B|423:159|423:159|471:184,1,135.00000089407,0|2,0:0|0:0,0:0:0:0:
476,260,124060,6,0,P|454:305|419:320,1,90.0000005960464,4|8,0:0|0:0,0:0:0:0:
341,342,124685,2,0,P|297:343|248:298,1,90.0000005960464,0|8,0:0|0:0,0:0:0:0:
201,262,125310,2,0,P|140:224|65:256,2,135.00000089407,2|2|8,0:0|0:0|0:0,0:0:0:0:
181,340,126559,5,0,0:0:0:0:
259,317,126872,2,0,P|280:278|276:233,1,90.0000005960464,8|0,0:0|0:0,0:0:0:0:
277,153,127497,1,8,0:0:0:0:
223,92,127809,2,0,P|226:48|252:11,1,90.0000005960464,2|8,0:0|0:0,0:0:0:0:
333,17,128434,1,2,0:0:0:0:
337,97,128747,1,8,0:0:0:0:
277,152,129059,6,0,B|267:173|274:215|290:237|290:237|288:263|268:288|236:305,1,180.000001192093,4|0,0:0|0:0,0:0:0:0:
159,277,129997,1,8,0:0:0:0:
78,288,130309,2,0,P|95:328|131:354,2,90.0000005960464,2|8|0,0:0|0:0|0:0,0:0:0:0:
106,213,131247,2,0,P|146:194|190:200,1,90.0000005960464,8|0,0:0|0:0,0:0:0:0:
258,245,131872,6,0,B|273:264|319:278|339:268|339:268|359:245|376:232|399:222|416:225,1,180.000001192093,2|0,0:0|0:0,0:0:0:0:
413,309,132809,2,0,P|365:346|280:344,2,135.00000089407,2|0|8,0:0|0:0|0:0,0:0:0:0:
415,225,134059,5,4,0:0:0:0:
375,154,134372,2,0,P|338:109|289:97,1,90.0000005960464,8|0,0:0|0:0,0:0:0:0:
232,123,134997,1,8,0:0:0:0:
162,164,135309,1,0,0:0:0:0:
103,104,135622,2,0,L|181:59,1,90.0000005960464,8|0,0:0|0:0,0:0:0:0:
262,48,136247,1,8,0:0:0:0:
312,112,136559,6,0,P|309:156|276:192,1,90.0000005960464,2|8,0:0|0:0,0:0:0:0:
231,123,137184,2,0,P|202:156|199:200,1,90.0000005960464,2|8,0:0|0:0,0:0:0:0:
236,275,137809,6,0,P|150:269|114:192,1,180.000001192093,2|0,0:0|0:0,0:0:0:0:
196,47,139059,2,0,P|281:52|317:129,1,180.000001192093,2|0,0:0|0:0,0:0:0:0:
256,192,140309,12,4,141559,0:0:0:0:
