osu file format v14

[General]
AudioFilename: audio.mp3
AudioLeadIn: 0
PreviewTime: 53571
Countdown: 0
SampleSet: Soft
StackLeniency: 0.3
Mode: 0
LetterboxInBreaks: 0
WidescreenStoryboard: 1

[Editor]
DistanceSpacing: 1.2
BeatDivisor: 4
GridSize: 4
TimelineZoom: 1

[Metadata]
Title:Yuuki wa doko ni? Kimi no Mune ni!
TitleUnicode:勇気はどこに?君の胸に!
Artist:Aqours
ArtistUnicode:Aqours
Creator:Strategas
Version:Normal
Source:Lovelive! Sunshine!!
Tags:season 2 ed ラブライブ!サンシャイン!! tv size lls love live school idol project
BeatmapID:1480369
BeatmapSetID:694300

[Difficulty]
HPDrainRate:3
CircleSize:3.4
OverallDifficulty:5
ApproachRate:5.5
SliderMultiplier:1.3
SliderTickRate:1

[Events]
//Background and Video events
0,0,"nibber.jpg",0,0
//Break Periods
//Storyboard Layer 0 (Background)
//Storyboard Layer 1 (Fail)
//Storyboard Layer 2 (Pass)
//Storyboard Layer 3 (Foreground)
//Storyboard Sound Samples

[TimingPoints]
398,359.281437125748,4,2,0,50,1,0
398,-100,4,2,0,50,0,0
7583,-100,4,2,0,60,0,0
13332,-100,4,2,0,65,0,0
19081,-100,4,2,0,67,0,0
30577,-100,4,2,0,70,0,0
42074,-100,4,2,0,55,0,0
44948,-100,4,2,0,60,0,0
47823,-100,4,2,0,65,0,0
53571,-100,4,2,0,75,0,0
59320,-100,4,2,0,70,0,0
63631,-100,4,2,0,75,0,0
64350,-100,4,2,0,80,0,0
65068,-100,4,2,0,75,0,0
70817,-100,4,2,0,70,0,0
75488,-100,4,2,0,50,0,0
75757,-100,4,2,0,5,0,0
75847,-100,4,2,0,50,0,0
76116,-100,4,2,0,5,0,0
76206,-100,4,2,0,50,0,0
76476,-100,4,2,0,5,0,0
76568,359.281437125748,4,2,0,85,1,1
76568,-100,4,2,0,85,0,1
82316,-100,4,2,0,75,0,0
86627,-100,4,2,0,65,0,0
88065,-100,4,2,0,50,0,0
90939,-100,4,2,0,45,0,0
93125,419.58041958042,4,2,0,45,1,0
93125,-100,4,2,0,45,0,0
93644,413.793103448276,4,2,0,45,1,0
93644,-100,4,2,0,45,0,0
94885,359.281437125748,4,2,0,5,1,0

[Colours]
Combo1 : 255,151,47
Combo2 : 0,136,0
Combo3 : 0,62,136
Combo4 : 255,79,79

[HitObjects]
119,115,7583,6,0,P|172:95|264:113,1,130,4|2,0:0|0:0,0:0:0:0:
299,157,8122,2,0,L|305:290,2,130,4|2|2,0:3|0:0|0:0,0:0:0:0:
344,93,9020,1,4,0:0:0:0:
344,93,9200,1,2,0:0:0:0:
198,35,9559,2,0,L|58:43,1,130,2|8,0:0|0:3,0:0:0:0:
6,90,10098,1,2,0:0:0:0:
89,221,10457,6,0,B|201:254|171:192|282:218,2,195,4|2|4,0:0|0:0|0:3,0:0:0:0:
108,65,11895,2,0,B|159:47|202:68|202:68|223:51|223:51|326:81|297:23|427:59,1,325,4|8,0:0|0:3,0:0:0:0:
464,121,12972,2,0,L|470:206,1,65,8|8,0:0|0:0,0:0:0:0:
412,240,13332,6,0,L|335:243,2,65,4|2|4,0:0|0:0|0:3,0:0:0:0:
474,286,13871,1,2,0:0:0:0:
335,358,14230,2,0,L|247:360,1,65,8|4,0:3|0:3,0:0:0:0:
201,321,14589,2,0,P|145:307|54:331,1,130,8|8,0:3|0:3,0:0:0:0:
12,367,15128,1,4,0:3:0:0:
12,367,15308,1,8,0:3:0:0:
224,39,16206,6,0,L|366:41,1,130,4|4,0:1|0:3,0:0:0:0:
432,43,16745,1,8,0:0:0:0:
484,189,17104,2,0,L|482:270,1,65,4|4,0:3|0:3,0:0:0:0:
479,332,17463,1,4,0:1:0:0:
180,239,18182,2,0,L|182:158,1,65,2|2,0:0|0:0,0:0:0:0:
482,91,19080,6,0,P|451:83|417:88,1,65,4|0,0:0|0:0,0:0:0:0:
351,126,19439,2,0,P|289:140|210:122,1,130,2|2,3:2|3:2,0:0:0:0:
157,88,19978,1,2,0:0:0:0:
10,141,20338,2,0,L|16:229,1,65,2|0,0:0|3:0,0:0:0:0:
91,192,20697,2,0,L|97:280,1,65,2|0,0:0|3:0,0:0:0:0:
172,243,21056,2,0,L|178:331,1,65,2|0,0:0|3:0,0:0:0:0:
253,294,21415,2,0,L|259:382,1,65,2|0,0:0|3:0,0:0:0:0:
335,345,21775,1,2,0:0:0:0:
466,151,22314,6,0,B|424:137|424:137|327:142,1,130,2|0,3:2|3:0,0:0:0:0:
260,148,22853,1,2,0:0:0:0:
105,168,23212,2,0,B|91:210|91:210|96:307,1,130,2|2,0:0|0:0,0:0:0:0:
158,353,23751,1,2,3:2:0:0:
158,353,23930,1,2,0:0:0:0:
308,311,24290,1,4,0:3:0:0:
383,291,24469,1,4,0:3:0:0:
462,156,24829,6,0,P|395:138|319:145,1,130,2|2,3:2|3:2,0:0:0:0:
264,175,25368,2,0,P|197:193|121:186,1,130,2|2,0:0|0:0,0:0:0:0:
101,38,26086,2,0,P|165:35|228:52,1,130,2|2,0:0|0:0,0:0:0:0:
291,98,26625,1,0,3:0:0:0:
318,251,26984,2,0,P|380:268|445:265,1,130,8|8,3:0|3:0,0:0:0:0:
500,119,27703,6,0,L|347:120,1,130,2|0,3:2|3:0,0:0:0:0:
307,166,28242,2,0,L|154:167,1,130,2|2,0:0|0:0,0:0:0:0:
29,218,28960,1,4,0:0:0:0:
114,348,29320,1,4,0:3:0:0:
190,336,29499,1,4,0:0:0:0:
341,295,29859,2,0,B|367:192|318:216|341:100,1,195,2|4,3:2|0:3,0:0:0:0:
372,31,30577,5,4,0:0:0:0:
216,44,30936,2,0,L|125:49,2,65,10|2|2,0:0|3:2|0:0,0:0:0:0:
293,38,31475,1,0,3:0:0:0:
426,119,31835,2,0,L|420:207,1,65,8|8,0:3|0:3,0:0:0:0:
345,170,32194,2,0,L|339:258,1,65,2|8,0:0|0:0,0:0:0:0:
264,221,32553,2,0,L|258:309,1,65,2|0,3:2|0:0,0:0:0:0:
183,272,32912,2,0,L|177:360,1,65,2|8,3:2|0:0,0:0:0:0:
101,323,33272,1,2,0:0:0:0:
92,89,33811,6,0,L|1:94,2,65,10|2|2,0:0|0:0|0:0,0:0:0:0:
169,83,34350,1,2,3:2:0:0:
324,72,34709,2,0,L|469:65,1,130,4|4,0:3|0:3,0:0:0:0:
506,123,35248,1,8,0:0:0:0:
458,184,35427,2,0,P|438:252|443:322,1,130,8|4,0:3|0:3,0:0:0:0:
473,381,35966,1,8,0:0:0:0:
335,307,36326,6,0,B|295:296|295:296|181:304,1,130,6|10,0:0|0:0,0:0:0:0:
139,342,36865,2,0,B|99:353|99:353|-15:345,1,130,2|2,3:2|3:2,0:0:0:0:
6,190,37583,2,0,B|46:179|46:179|160:187,1,130,4|4,0:0|0:3,0:0:0:0:
212,193,38122,1,8,0:0:0:0:
367,200,38481,2,0,B|378:160|378:160|370:46,1,130,4|8,0:0|0:0,0:0:0:0:
221,28,39200,6,0,P|131:42|98:72,1,130,4|2,0:0|3:2,0:0:0:0:
135,136,39739,2,0,P|225:122|258:92,2,130,2|2|4,3:2|3:2|0:3,0:0:0:0:
19,30,40817,1,8,0:3:0:0:
9,107,40996,1,8,0:3:0:0:
22,262,41356,2,0,P|75:297|139:299,1,130,6|8,0:0|0:3,0:0:0:0:
234,175,42074,6,0,P|301:125|316:212,1,195,6|2,0:0|0:0,0:0:0:0:
260,250,42793,1,2,0:0:0:0:
74,190,43332,1,2,0:0:0:0:
74,190,43511,6,0,P|97:270|164:220,1,195,2|2,3:2|0:0,0:0:0:0:
141,145,44230,1,2,0:0:0:0:
374,157,44769,1,2,0:0:0:0:
374,157,44948,6,0,L|367:298,2,130,4|2|10,0:0|0:0|0:0,0:0:0:0:
387,1,46026,1,2,0:0:0:0:
247,71,46386,2,0,P|192:92|118:80,1,130,2|8,0:0|0:0,0:0:0:0:
49,56,46924,1,4,0:3:0:0:
49,56,47104,2,0,P|38:119|60:180,1,130,10|8,0:0|0:3,0:0:0:0:
179,281,47823,6,0,B|242:298|242:298|306:285,1,130,4|10,0:0|0:0,0:0:0:0:
317,129,48541,2,0,B|254:112|254:112|190:125,1,130,0|8,3:0|0:0,0:0:0:0:
46,185,49260,6,0,B|37:216|37:216|44:248,1,65,2|0,3:2|3:0,0:0:0:0:
73,320,49619,1,2,3:2:0:0:
222,276,49978,2,0,B|253:267|253:267|285:274,1,65,2|0,3:2|3:0,0:0:0:0:
357,303,50337,1,2,3:2:0:0:
491,223,50697,2,0,B|514:115|460:132|494:24,1,195,6|8,0:0|0:0,0:0:0:0:
335,29,51595,2,0,P|299:29|252:50,1,65,8|4,0:0|0:3,0:0:0:0:
208,84,51954,1,8,0:0:0:0:
208,84,52134,5,4,0:0:0:0:
85,193,53571,6,0,L|225:196,1,130,4|8,0:0|0:0,0:0:0:0:
284,160,54110,2,0,L|372:163,1,65,4|8,0:3|0:0,0:0:0:0:
418,126,54469,1,4,0:3:0:0:
296,27,54829,2,0,L|208:24,1,65,4|8,0:3|0:0,0:0:0:0:
162,61,55188,1,4,0:3:0:0:
162,61,55368,2,0,P|97:81|15:62,2,130,8|8|8,0:0|0:0|0:0,0:0:0:0:
313,22,56445,6,0,L|310:162,1,130,4|8,0:0|0:0,0:0:0:0:
346,221,56984,2,0,L|343:309,1,65,4|8,0:3|0:0,0:0:0:0:
380,355,57343,1,4,0:3:0:0:
228,315,57703,2,0,B|79:363|119:267|-24:315,1,260,4|4,0:0|0:3,0:0:0:0:
5,168,58781,2,0,L|0:78,2,65,4|8|8,0:3|0:3|0:3,0:0:0:0:
61,221,59320,5,4,0:3:0:0:
212,183,59679,1,8,0:0:0:0:
363,145,60038,1,0,0:0:0:0:
511,103,60397,1,8,0:0:0:0:
512,259,60757,1,4,0:3:0:0:
361,221,61116,1,8,0:0:0:0:
210,183,61475,1,0,0:0:0:0:
63,141,61834,1,8,0:0:0:0:
162,20,62194,6,0,B|210:10|210:10|263:19,2,97.5,4|4|2,0:0|0:3|0:0,0:0:0:0:
165,98,62912,2,0,B|212:106|212:106|260:96,2,97.5,4|4|2,0:0|0:3|0:0,0:0:0:0:
92,68,63631,2,0,P|73:114|77:200,1,130,12|8,0:0|0:0,0:0:0:0:
106,270,64170,1,4,0:3:0:0:
106,270,64350,1,12,0:0:0:0:
415,232,65068,6,0,L|275:235,1,130,4|8,0:0|0:0,0:0:0:0:
216,199,65607,2,0,L|128:202,1,65,4|8,0:3|0:0,0:0:0:0:
82,165,65966,1,4,0:3:0:0:
122,18,66326,2,0,L|210:15,1,65,4|0,0:0|0:0,0:0:0:0:
261,54,66685,1,4,0:3:0:0:
261,54,66865,2,0,P|326:74|408:55,2,130,8|8|8,0:0|0:0|0:0,0:0:0:0:
105,13,67942,6,0,L|108:153,1,130,4|8,0:0|0:0,0:0:0:0:
72,212,68481,2,0,L|75:300,1,65,4|8,0:3|0:0,0:0:0:0:
38,346,68840,1,4,0:3:0:0:
190,313,69200,2,0,B|339:361|299:265|442:313,1,260,4|4,0:0|0:3,0:0:0:0:
512,349,70098,1,8,0:0:0:0:
498,193,70457,1,8,0:0:0:0:
484,37,70817,5,4,0:0:0:0:
328,49,71176,1,4,0:3:0:0:
342,205,71536,1,4,0:3:0:0:
356,361,71895,1,4,0:3:0:0:
200,375,72254,1,4,0:3:0:0:
186,219,72613,1,4,0:3:0:0:
172,63,72972,1,4,0:3:0:0:
16,79,73332,2,0,L|19:168,1,65,8|8,0:0|0:0,0:0:0:0:
23,221,73691,5,6,0:0:0:0:
256,215,74230,1,2,0:0:0:0:
256,215,74409,2,0,L|376:213,2,97.5,6|0|0,0:0|3:0|3:0,0:0:0:0:
174,216,75128,1,8,0:0:0:0:
177,60,75487,2,0,B|242:57|242:57|246:128,2,130,2|2|2,0:0|0:0|0:0,0:0:0:0:
19,54,76568,6,0,L|26:185,1,130,14|8,0:0|0:0,0:0:0:0:
88,240,77106,1,4,0:3:0:0:
88,240,77286,2,0,L|95:332,1,65,10|4,0:0|0:3,0:0:0:0:
155,351,77645,2,0,L|247:344,1,65,8|4,0:0|0:3,0:0:0:0:
298,341,78005,1,8,0:0:0:0:
453,341,78364,2,0,B|459:309|459:309|451:259,1,65,10|4,0:0|0:3,0:0:0:0:
389,232,78723,2,0,B|383:200|383:200|391:150,1,65,10|4,0:0|0:3,0:0:0:0:
452,124,79082,2,0,B|458:92|458:92|450:42,1,65,10|4,0:0|0:3,0:0:0:0:
390,11,79442,6,0,P|313:1|194:65,1,195,10|4,0:0|0:3,0:0:0:0:
177,120,80160,1,10,0:0:0:0:
206,273,80520,2,0,L|298:266,1,65,8|4,0:0|0:3,0:0:0:0:
349,263,80880,1,8,0:0:0:0:
407,118,81238,2,0,B|375:112|375:112|325:120,1,65,10|4,0:0|0:3,0:0:0:0:
298,182,81597,2,0,B|266:188|266:188|216:180,1,65,10|4,0:0|0:3,0:0:0:0:
190,119,81956,2,0,B|158:113|158:113|108:121,1,65,10|0,0:0|0:0,0:0:0:0:
60,160,82316,5,6,0:0:0:0:
241,307,82855,1,2,0:0:0:0:
241,307,83035,2,0,L|394:305,1,130,4|8,0:3|0:0,0:0:0:0:
480,194,83753,2,0,L|327:196,1,130,4|8,0:3|0:0,0:0:0:0:
237,86,84472,2,0,L|390:84,1,130,4|8,0:3|0:0,0:0:0:0:
505,13,85190,5,4,0:0:0:0:
505,13,85370,2,0,P|512:80|501:143,1,130,8|8,0:3|0:3,0:0:0:0:
353,190,86088,2,0,L|272:194,1,65,4|4,0:3|0:3,0:0:0:0:
209,199,86448,1,4,0:0:0:0:
63,141,86807,2,0,L|-1:144,2,65,2|2|2,0:0|0:0|0:0,0:0:0:0:
203,73,87526,1,2,0:0:0:0:
203,73,87705,2,0,L|284:69,1,65,2|0,0:0|0:0,0:0:0:0:
338,103,88065,6,0,B|342:133|342:133|339:167,1,65,0|0,0:0|0:0,0:0:0:0:
282,221,88424,2,0,B|279:255|279:255|284:291,1,65,2|2,0:0|0:0,0:0:0:0:
140,349,88963,2,0,B|109:353|109:353|75:350,2,65,0|2|2,0:0|0:0|0:0,0:0:0:0:
104,197,89681,2,0,B|99:166|99:166|102:132,2,65,0|0|2,0:0|0:0|0:0,0:0:0:0:
175,229,90220,2,0,B|203:240|203:240|231:260,2,65,0|0|0,0:0|0:0|0:0,0:0:0:0:
110,279,90759,1,0,0:0:0:0:
110,279,90939,5,2,0:0:0:0:
456,99,91837,2,0,B|484:110|484:110|512:130,2,65,0|0|0,0:0|0:0|0:0,0:0:0:0:
299,92,92556,2,0,B|270:103|270:103|242:123,2,65,2|2|2,0:0|0:0|0:0,0:0:0:0:
377,129,93125,6,0,L|373:207,1,65,2|0,0:0|0:0,0:0:0:0:
260,221,93644,6,0,L|251:360,1,130,2|2,0:0|0:0,0:0:0:0:
256,192,94885,12,0,102070,0:0:0:0:
