osu file format v14

[General]
AudioFilename: audio.mp3
AudioLeadIn: 0
PreviewTime: 53571
Countdown: 0
SampleSet: Soft
StackLeniency: 0.3
Mode: 0
LetterboxInBreaks: 0
WidescreenStoryboard: 0

[Editor]
DistanceSpacing: 1
BeatDivisor: 4
GridSize: 4
TimelineZoom: 1

[Metadata]
Title:Yuuki wa doko ni? Kimi no Mune ni!
TitleUnicode:勇気はどこに?君の胸に!
Artist:Aqours
ArtistUnicode:Aqours
Creator:Strategas
Version:Insane
Source:Lovelive! Sunshine!!
Tags:season 2 ed ラブライブ!サンシャイン!! tv size lls love live school idol project
BeatmapID:1480266
BeatmapSetID:694300

[Difficulty]
HPDrainRate:5
CircleSize:4
OverallDifficulty:8
ApproachRate:9
SliderMultiplier:1.7
SliderTickRate:1

[Events]
//Background and Video events
0,0,"nibber.jpg",0,0
//Break Periods
//Storyboard Layer 0 (Background)
//Storyboard Layer 1 (Fail)
//Storyboard Layer 2 (Pass)
//Storyboard Layer 3 (Foreground)
//Storyboard Sound Samples

[TimingPoints]
398,359.281437125748,4,2,0,50,1,0
398,-200,4,2,0,50,0,0
7583,-117.647058823529,4,2,0,60,0,0
13332,-100,4,2,0,65,0,0
17553,-100,4,2,0,30,0,0
19081,-100,4,2,0,65,0,0
29859,-66.6666666666667,4,2,0,65,0,0
30577,-90.9090909090909,4,2,0,70,0,0
42074,-166.666666666667,4,2,0,55,0,0
44948,-125,4,2,0,60,0,0
47823,-100,4,2,0,65,0,0
53571,-66.6666666666667,4,2,0,75,0,0
59320,-80,4,2,0,70,0,0
63631,-66.6666666666667,4,2,0,70,0,0
64350,-57.1428571428571,4,2,0,70,0,0
65068,-66.6666666666667,4,2,0,75,0,0
70817,-80,4,2,0,70,0,0
75488,-80,4,2,0,50,0,0
75757,-80,4,2,0,5,0,0
75847,-80,4,2,0,50,0,0
76116,-80,4,2,0,5,0,0
76206,-80,4,2,0,50,0,0
76476,-80,4,2,0,5,0,0
76568,359.281437125748,4,2,0,85,1,1
76568,-50,4,2,0,85,0,1
82316,-66.6666666666667,4,2,0,75,0,0
86627,-100,4,2,0,65,0,0
88065,-133.333333333333,4,2,0,60,0,0
90939,-200,4,2,0,50,0,0
93125,419.58041958042,4,2,0,49,1,0
93125,-200,4,2,0,49,0,0
93644,413.793103448276,4,2,0,49,1,0
93644,-200,4,2,0,49,0,0
94885,359.281437125748,4,2,0,50,1,0
94885,-200,4,2,0,50,0,0
95244,-200,4,2,0,5,0,0

[Colours]
Combo1 : 255,151,47
Combo2 : 0,136,0
Combo3 : 0,62,136
Combo4 : 255,79,79

[HitObjects]
155,125,398,5,0,0:0:0:0:
154,110,577,1,0,0:0:0:0:
153,95,757,1,0,0:0:0:0:
161,207,936,1,2,0:0:0:0:
161,207,1296,5,0,0:0:0:0:
162,222,1475,1,0,0:0:0:0:
155,125,1655,1,2,0:0:0:0:
357,125,2014,5,0,0:0:0:0:
358,110,2193,1,0,0:0:0:0:
359,95,2373,1,2,0:0:0:0:
351,207,2553,5,2,0:0:0:0:
350,222,2732,1,0,0:0:0:0:
349,237,2912,1,0,0:0:0:0:
348,252,3092,1,0,0:0:0:0:
283,302,3272,5,2,0:0:0:0:
268,301,3451,1,0,0:0:0:0:
204,250,3632,1,0,0:0:0:0:
129,280,3811,1,2,0:0:0:0:
129,280,4170,5,2,0:0:0:0:
60,234,4350,1,0,0:0:0:0:
66,155,4529,1,2,0:0:0:0:
66,155,4889,5,2,0:0:0:0:
141,125,5068,1,0,0:0:0:0:
205,176,5249,1,2,0:0:0:0:
280,146,5427,5,2,0:0:0:0:
279,133,5607,1,0,0:0:0:0:
278,120,5787,1,0,0:0:0:0:
277,107,5966,1,0,0:0:0:0:
333,47,6146,6,0,B|394:-2|458:27|458:27|405:78|411:166|454:205,1,318.75,0|0,0:0|0:0,0:0:0:0:
453,191,7583,6,0,P|394:185|330:219,1,108.375002067089,4|0,0:0|0:0,0:0:0:0:
345,207,7942,1,2,0:0:0:0:
245,217,8122,2,0,L|251:290,1,72.2500013780594,2|0,0:0|0:0,0:0:0:0:
347,284,8481,2,0,L|342:212,1,72.2500013780594,4|4,0:3|0:3,0:0:0:0:
239,120,8841,1,2,0:0:0:0:
439,209,9020,5,4,0:0:0:0:
439,209,9200,2,0,L|446:302,1,72.2500013780594,2|0,0:0|0:0,0:0:0:0:
342,213,9559,2,0,L|347:285,1,72.2500013780594,2|4,0:0|0:3,0:0:0:0:
245,217,9918,1,8,0:3:0:0:
245,217,10098,2,0,L|250:289,1,72.2500013780594,2|8,0:0|0:3,0:0:0:0:
171,154,10457,6,0,P|112:139|11:174,1,144.500002756119,4|4,0:0|0:3,0:0:0:0:
171,154,10996,2,0,P|190:85|175:15,1,144.500002756119,0|0,0:0|0:0,0:0:0:0:
245,217,11535,2,0,P|274:224|325:207,1,72.2500013780594,4|0,0:3|0:0,0:0:0:0:
457,48,11895,6,0,P|343:67|432:142,1,289.000005512238,4|8,0:0|0:3,0:0:0:0:
261,13,12793,1,8,0:3:0:0:
233,224,12972,1,8,0:0:0:0:
432,142,13152,1,8,0:0:0:0:
158,162,13332,5,4,0:0:0:0:
294,150,13511,1,0,0:0:0:0:
306,286,13691,1,4,0:3:0:0:
170,298,13871,2,0,L|86:302,1,85,2|4,0:0|0:3,0:0:0:0:
18,232,14230,6,0,L|16:190,1,42.5,8|8,0:3|0:3,0:0:0:0:
80,116,14409,1,4,0:3:0:0:
174,302,14589,2,0,L|90:306,1,85,8|4,0:3|0:3,0:0:0:0:
263,219,14948,6,0,L|262:261,1,42.5,8|8,0:3|0:3,0:0:0:0:
178,306,15128,1,4,0:3:0:0:
350,305,15308,2,0,L|392:306,2,42.5,8|8|4,0:3|0:3|0:3,0:0:0:0:
282,123,15667,5,8,0:3:0:0:
255,114,15756,1,8,0:3:0:0:
227,109,15846,1,4,0:3:0:0:
198,109,15936,1,8,0:3:0:0:
171,114,16026,1,8,0:3:0:0:
144,123,16116,1,8,0:3:0:0:
119,137,16206,6,0,B|107:178|107:178|120:226,1,85,4|0,0:1|0:0,0:0:0:0:
190,365,16565,1,4,0:3:0:0:
190,365,16745,2,0,B|202:324|202:324|189:276,1,85,8|0,0:0|0:0,0:0:0:0:
31,262,17104,1,4,0:3:0:0:
289,286,17284,1,4,0:3:0:0:
248,31,17463,5,4,0:1:0:0:
256,192,17553,12,0,18900,0:0:0:0:
147,126,19080,5,4,0:0:0:0:
147,126,19260,1,0,0:0:0:0:
219,84,19439,2,0,P|261:76|303:82,1,85,2|0,3:2|0:0,0:0:0:0:
452,137,19799,1,2,3:2:0:0:
451,136,19978,2,0,P|409:128|368:135,1,85,2|0,0:0|3:0,0:0:0:0:
224,168,20338,6,0,L|220:83,1,85,2|0,0:0|3:0,0:0:0:0:
159,218,20697,2,0,L|77:195,1,85,2|0,0:0|3:0,0:0:0:0:
186,295,21056,2,0,L|138:365,1,85,2|0,0:0|3:0,0:0:0:0:
267,292,21415,2,0,L|319:358,1,85,2|0,0:0|3:0,0:0:0:0:
291,214,21774,2,0,L|370:184,1,85,2|0,0:0|3:0,0:0:0:0:
85,55,22314,6,0,P|101:100|133:125,1,85,2|0,3:2|0:0,0:0:0:0:
141,255,22673,1,0,3:0:0:0:
141,255,22853,2,0,P|172:226|184:186,1,85,2|0,0:0|3:0,0:0:0:0:
322,181,23212,2,0,P|294:151|254:139,1,85,2|0,0:0|3:0,0:0:0:0:
79,195,23571,5,2,0:0:0:0:
301,265,23751,1,2,3:2:0:0:
169,54,23930,2,0,P|138:82|126:122,1,85,2|0,0:0|3:0,0:0:0:0:
230,315,24290,5,4,0:3:0:0:
282,63,24469,1,4,0:3:0:0:
282,63,24829,6,0,P|329:51|381:65,1,85,2|0,3:2|3:0,0:0:0:0:
511,108,25188,1,2,3:2:0:0:
511,108,25368,2,0,P|470:119|429:114,1,85,2|0,0:0|3:0,0:0:0:0:
287,145,25727,2,0,P|276:104|282:63,1,85,2|0,0:0|3:0,0:0:0:0:
123,29,26086,6,0,P|164:18|206:24,1,85,2|0,0:0|3:0,0:0:0:0:
364,57,26445,1,2,0:0:0:0:
364,57,26625,2,0,P|322:51|281:62,1,85,0|8,3:0|0:3,0:0:0:0:
213,114,26895,1,8,0:3:0:0:
213,114,26984,2,0,B|168:133|168:133|44:119,1,170,8|8,3:0|3:0,0:0:0:0:
363,150,27703,6,0,L|480:146,1,85,2|0,3:2|0:0,0:0:0:0:
285,238,28062,1,0,3:0:0:0:
285,238,28242,2,0,L|370:236,1,85,2|0,0:0|3:0,0:0:0:0:
207,327,28601,2,0,L|291:324,1,85,2|0,0:0|3:0,0:0:0:0:
88,246,28960,5,4,0:0:0:0:
76,251,29320,5,4,0:3:0:0:
86,2,29499,1,4,0:0:0:0:
83,15,29859,6,0,P|150:40|231:15,1,127.500004863739,2|4,3:2|0:3,0:0:0:0:
228,27,30128,1,4,0:3:0:0:
241,48,30218,1,4,0:3:0:0:
249,72,30307,1,4,0:3:0:0:
253,97,30397,1,4,0:3:0:0:
251,123,30487,1,4,0:3:0:0:
244,141,30577,6,0,B|290:154|290:154|345:142,1,93.5000028533936,4|0,0:0|0:0,0:0:0:0:
492,126,30936,1,10,0:0:0:0:
417,168,31116,1,2,3:2:0:0:
334,144,31296,1,2,0:0:0:0:
492,126,31475,2,0,B|501:170|501:170|488:216,1,93.5000028533936,0|8,3:0|0:0,0:0:0:0:
441,56,31835,5,8,0:3:0:0:
441,56,31924,1,8,0:3:0:0:
441,56,32014,1,8,0:3:0:0:
350,227,32194,2,0,P|305:238|242:234,1,93.5000028533936,2|8,0:0|0:0,0:0:0:0:
120,174,32553,2,0,P|165:163|212:164,1,93.5000028533936,2|0,3:2|0:0,0:0:0:0:
91,255,32912,2,0,P|45:267|0:266,1,93.5000028533936,2|8,3:2|0:0,0:0:0:0:
170,293,33272,2,0,P|170:339|159:384,2,93.5000028533936,2|0|0,0:0|3:0|0:0,0:0:0:0:
54,128,33811,5,10,0:0:0:0:
91,255,33990,1,2,0:0:0:0:
218,218,34170,1,2,0:0:0:0:
181,91,34350,1,2,3:2:0:0:
138,172,34529,1,8,0:0:0:0:
373,122,34709,1,4,0:3:0:0:
385,120,35068,5,4,0:3:0:0:
218,218,35248,1,8,0:0:0:0:
181,91,35427,1,8,0:3:0:0:
181,91,35517,1,8,0:0:0:0:
181,91,35607,1,8,0:3:0:0:
407,203,35787,1,4,0:3:0:0:
147,266,35966,1,8,0:0:0:0:
335,250,36146,1,4,0:3:0:0:
88,191,36326,6,0,B|62:230|62:230|70:384,1,187.000005706787,6|10,0:0|0:0,0:0:0:0:
240,258,36865,2,0,L|147:266,1,93.5000028533936,2|0,3:2|0:0,0:0:0:0:
153,352,37224,2,0,L|259:344,1,93.5000028533936,2|8,3:2|0:0,0:0:0:0:
295,132,37583,5,4,0:0:0:0:
297,121,37942,5,4,0:3:0:0:
381,331,38122,1,8,0:0:0:0:
437,209,38302,1,4,0:3:0:0:
305,369,38481,1,4,0:0:0:0:
236,183,38661,1,8,0:3:0:0:
236,183,38751,1,8,0:3:0:0:
236,183,38841,2,0,L|188:186,3,46.7500014266968,8|0|0|0,0:0|3:0|3:0|3:0,0:0:0:0:
176,176,39200,6,0,L|81:182,1,93.5000028533936,4|0,0:0|3:0,0:0:0:0:
129,91,39559,1,2,3:2:0:0:
128,265,39739,1,2,3:2:0:0:
129,277,40098,5,2,3:2:0:0:
329,182,40278,1,0,3:0:0:0:
129,91,40457,1,4,0:3:0:0:
121,86,40817,5,8,0:3:0:0:
129,277,40996,1,8,0:3:0:0:
245,183,41176,1,4,0:3:0:0:
339,384,41356,1,6,0:0:0:0:
192,350,41535,1,4,0:3:0:0:
192,350,41625,1,8,0:3:0:0:
192,350,41715,2,0,P|239:325|293:325,1,93.5000028533936,8|8,0:3|0:3,0:0:0:0:
339,384,41984,1,8,0:3:0:0:
339,384,42074,6,0,P|391:365|458:374,1,101.999996887207,6|0,0:0|0:0,0:0:0:0:
494,308,42613,1,2,0:0:0:0:
494,308,42793,2,0,P|475:256|484:189,1,101.999996887207,2|0,0:0|0:0,0:0:0:0:
512,135,43332,1,2,0:0:0:0:
349,84,43511,6,0,P|383:122|430:143,1,101.999996887207,2|0,3:2|0:0,0:0:0:0:
374,227,44050,1,2,0:0:0:0:
374,227,44230,2,0,P|339:189|293:168,1,101.999996887207,2|0,0:0|3:0,0:0:0:0:
212,178,44769,1,2,0:0:0:0:
274,55,44948,6,0,L|368:50,1,68,4|0,0:0|0:0,0:0:0:0:
124,62,45308,2,0,L|192:59,1,68,2|4,0:0|0:3,0:0:0:0:
129,181,45667,6,0,L|62:185,1,68,10|4,0:0|0:3,0:0:0:0:
279,174,46027,2,0,L|212:178,1,68,2|4,0:0|0:3,0:0:0:0:
368,168,46386,6,0,L|522:159,1,136,2|8,0:0|0:0,0:0:0:0:
441,251,46924,5,4,0:3:0:0:
433,78,47104,1,10,0:0:0:0:
359,277,47284,5,4,0:3:0:0:
223,65,47463,1,8,0:3:0:0:
252,48,47552,1,8,0:3:0:0:
285,40,47642,1,8,0:3:0:0:
319,40,47732,1,8,0:3:0:0:
352,50,47823,6,0,P|359:94|342:138,1,85,4|0,0:0|0:0,0:0:0:0:
196,176,48182,2,0,P|236:189|278:182,1,85,10|2,0:0|0:0,0:0:0:0:
483,201,48541,2,0,P|442:189|401:196,1,85,0|2,3:0|0:0,0:0:0:0:
328,328,48900,2,0,P|320:286|333:246,1,85,8|2,0:0|0:0,0:0:0:0:
454,104,49260,5,2,3:2:0:0:
454,104,49439,1,0,3:0:0:0:
401,196,49619,1,2,3:2:0:0:
401,196,49798,1,0,3:2:0:0:
348,104,49978,1,2,3:2:0:0:
348,104,50157,1,0,3:0:0:0:
295,196,50338,1,2,3:2:0:0:
295,196,50517,1,0,3:0:0:0:
507,196,50697,5,6,0:0:0:0:
401,12,50877,1,0,3:0:0:0:
295,196,51056,1,0,3:0:0:0:
507,196,51236,1,8,0:0:0:0:
512,200,51595,5,8,0:0:0:0:
242,288,51775,1,4,0:3:0:0:
300,10,51954,1,8,0:0:0:0:
331,347,52134,5,4,0:0:0:0:
256,192,52224,12,0,53392,0:0:0:0:
62,108,53571,6,0,B|99:89|99:89|206:93,1,127.500004863739,4|4,0:0|0:3,0:0:0:0:
316,97,53930,1,8,0:0:0:0:
135,309,54110,2,0,B|116:272|116:272|120:187,1,127.500004863739,4|8,0:3|0:0,0:0:0:0:
316,97,54469,2,0,B|335:134|335:134|331:241,1,127.500004863739,4|8,0:3|0:0,0:0:0:0:
44,126,54829,6,0,P|98:94|161:98,1,127.500004863739,4|8,0:3|0:0,0:0:0:0:
316,97,55188,1,4,0:3:0:0:
148,304,55368,2,0,P|116:249|119:186,1,127.500004863739,8|4,0:0|0:3,0:0:0:0:
276,185,55727,2,0,P|338:189|393:157,1,127.500004863739,8|4,0:0|0:3,0:0:0:0:
433,68,55996,1,4,0:3:0:0:
433,68,56086,2,0,P|370:64|315:96,1,127.500004863739,8|4,0:0|0:3,0:0:0:0:
271,273,56445,6,0,B|263:168|263:168|297:215,1,127.500004863739,4|4,0:0|0:3,0:0:0:0:
353,327,56805,1,8,0:0:0:0:
171,228,56984,2,0,L|43:236,1,127.500004863739,4|8,0:3|0:0,0:0:0:0:
403,177,57344,2,0,L|275:185,1,127.500004863739,4|8,0:3|0:0,0:0:0:0:
111,78,57703,6,0,B|216:70|216:70|252:86|252:86|362:79,1,255.000009727478,4|4,0:0|0:3,0:0:0:0:
269,2,58242,1,8,0:0:0:0:
201,154,58421,1,4,0:3:0:0:
444,75,58601,1,8,0:0:0:0:
235,78,58781,1,4,0:3:0:0:
257,214,58960,1,8,0:3:0:0:
256,230,59050,1,8,0:3:0:0:
255,246,59140,1,8,0:3:0:0:
254,262,59230,1,8,0:3:0:0:
253,278,59320,5,4,0:3:0:0:
171,272,59499,1,2,0:0:0:0:
89,278,59679,1,8,0:0:0:0:
172,262,59859,1,2,0:0:0:0:
502,258,60218,5,2,0:0:0:0:
420,252,60397,1,8,0:0:0:0:
338,258,60577,1,2,0:0:0:0:
421,242,60757,1,4,0:3:0:0:
507,248,60936,1,2,0:0:0:0:
422,232,61116,1,8,0:0:0:0:
333,248,61296,2,0,B|275:266|229:246|229:246|193:255|193:255|121:217|15:259,1,318.75,2|8,0:0|0:0,0:0:0:0:
196,153,62014,1,2,0:0:0:0:
233,147,62104,1,2,0:0:0:0:
270,141,62194,6,0,B|331:131|331:131|369:139|369:139|431:129,1,159.375,4|4,0:0|0:3,0:0:0:0:
423,31,62733,2,0,L|371:40,1,53.125,2|0,0:0|0:0,0:0:0:0:
327,228,62912,6,0,B|337:289|337:289|329:327|329:327|339:389,1,159.375,4|4,0:0|0:3,0:0:0:0:
468,200,63451,1,2,0:0:0:0:
398,213,63541,1,2,0:0:0:0:
327,228,63631,6,0,B|283:236|283:236|254:229|254:229|201:236,1,127.500004863739,12|4,0:0|0:3,0:0:0:0:
63,243,63990,1,8,0:0:0:0:
138,104,64170,2,0,L|132:168,1,63.7500024318696,4|0,0:3|0:0,0:0:0:0:
48,353,64350,6,0,B|63:243|63:243|36:181|36:181|47:62,1,297.500002837181,12|8,0:0|0:3,0:0:0:0:
263,26,64889,1,4,0:3:0:0:
263,26,64978,1,4,0:3:0:0:
263,26,65068,6,0,B|281:58|281:58|276:161,1,127.500004863739,4|4,0:0|0:3,0:0:0:0:
249,358,65427,1,8,0:0:0:0:
249,358,65607,2,0,B|231:326|231:326|235:221,1,127.500004863739,4|8,0:3|0:0,0:0:0:0:
452,216,65966,2,0,B|420:234|420:234|329:230,1,127.500004863739,4|8,0:3|0:0,0:0:0:0:
39,267,66326,5,4,0:0:0:0:
48,266,66685,6,0,L|118:257,1,63.7500024318696,4|4,0:3|0:3,0:0:0:0:
329,230,66865,1,8,0:0:0:0:
198,51,67044,1,4,0:3:0:0:
216,246,67224,1,8,0:0:0:0:
198,51,67403,1,4,0:3:0:0:
225,343,67583,1,8,0:0:0:0:
207,148,67763,1,4,0:3:0:0:
331,331,67942,6,0,P|395:345|456:313,1,127.500004863739,4|4,0:0|0:3,0:0:0:0:
449,319,68212,1,4,0:3:0:0:
449,319,68302,1,8,0:0:0:0:
370,129,68481,2,0,P|356:190|382:248,1,127.500004863739,4|8,0:3|0:0,0:0:0:0:
424,46,68841,2,0,P|363:32|305:58,1,127.500004863739,4|8,0:3|0:0,0:0:0:0:
244,314,69200,6,0,B|235:134|235:134|184:214,1,255.000009727478,4|4,0:0|0:3,0:0:0:0:
194,197,69649,1,4,0:3:0:0:
194,197,69739,1,8,0:0:0:0:
337,220,69918,1,4,0:3:0:0:
99,193,70098,1,8,0:0:0:0:
434,231,70278,1,4,0:3:0:0:
277,143,70457,1,8,0:0:0:0:
279,127,70547,1,8,0:3:0:0:
281,111,70637,1,4,0:3:0:0:
283,95,70727,1,8,0:3:0:0:
285,79,70817,6,0,L|422:94,1,106.25,4|0,0:0|0:0,0:0:0:0:
434,231,71176,6,0,L|328:219,1,106.25,4|0,0:3|0:0,0:0:0:0:
422,328,71535,2,0,L|316:316,1,106.25,4|0,0:3|0:0,0:0:0:0:
116,303,71895,6,0,L|-21:288,1,106.25,4|0,0:3|0:0,0:0:0:0:
222,314,72254,2,0,L|85:299,1,106.25,4|0,0:3|0:0,0:0:0:0:
37,153,72613,6,0,L|142:164,1,106.25,4|0,0:3|0:0,0:0:0:0:
49,56,72972,2,0,L|154:67,1,106.25,4|0,0:3|0:0,0:0:0:0:
387,88,73332,5,8,0:0:0:0:
254,343,73511,1,8,0:0:0:0:
254,343,73601,1,4,0:3:0:0:
254,343,73691,6,0,B|136:240|224:134|307:238|176:344,1,318.75,6|2,0:0|0:0,0:0:0:0:
151,157,74409,2,0,P|226:129|298:162,2,159.375,6|0|0,0:0|3:0|3:0,0:0:0:0:
92,266,75128,5,8,0:0:0:0:
92,266,75487,6,0,P|172:286|265:269,1,159.375,2|0,0:0|0:0,0:0:0:0:
247,275,75847,2,0,P|224:195|163:123,1,159.375,2|0,0:0|0:0,0:0:0:0:
178,136,76206,2,0,P|120:195|88:284,1,159.375,2|0,0:0|0:0,0:0:0:0:
92,265,76568,6,0,L|80:71,1,170,14|4,0:0|0:3,0:0:0:0:
324,257,76927,2,0,L|336:63,1,170,8|4,0:0|0:3,0:0:0:0:
189,256,77286,2,0,L|177:62,1,170,10|4,0:0|0:3,0:0:0:0:
420,265,77645,2,0,L|432:71,1,170,8|4,0:0|0:3,0:0:0:0:
189,256,78005,5,8,0:0:0:0:
420,265,78184,1,4,0:3:0:0:
178,86,78364,1,10,0:0:0:0:
430,95,78544,1,4,0:3:0:0:
92,265,78723,1,10,0:0:0:0:
324,257,78903,1,4,0:3:0:0:
81,95,79082,1,10,0:0:0:0:
334,87,79262,1,4,0:3:0:0:
270,351,79442,6,0,L|76:363,1,170,10|4,0:0|0:3,0:0:0:0:
189,128,79801,2,0,L|19:117,1,170,8|4,0:0|0:3,0:0:0:0:
189,256,80160,2,0,L|-5:268,1,170,10|4,0:0|0:3,0:0:0:0:
270,33,80519,2,0,L|100:22,1,170,8|4,0:0|0:3,0:0:0:0:
19,266,80879,5,8,0:0:0:0:
100,22,81059,1,4,0:3:0:0:
189,256,81238,1,10,0:0:0:0:
270,33,81418,1,4,0:3:0:0:
270,351,81597,1,10,0:0:0:0:
19,266,81777,1,4,0:3:0:0:
19,266,81867,1,4,0:3:0:0:
19,266,81957,1,10,0:0:0:0:
188,131,82136,1,0,0:0:0:0:
188,131,82226,1,8,0:0:0:0:
188,131,82316,6,0,B|327:171|300:94|439:132,1,255.000009727478,6|8,0:0|0:0,0:0:0:0:
504,206,82855,1,2,0:0:0:0:
438,277,83035,2,0,B|299:317|326:240|187:278,1,255.000009727478,4|8,0:3|0:0,0:0:0:0:
120,206,83573,1,0,0:0:0:0:
120,206,83753,6,0,B|58:195|58:195|-13:210,1,127.500004863739,4|0,0:3|0:0,0:0:0:0:
92,118,84112,2,0,B|154:129|154:129|225:114,1,127.500004863739,8|0,0:0|0:0,0:0:0:0:
328,199,84472,2,0,B|266:188|266:188|203:202,1,127.500004863739,4|0,0:3|0:0,0:0:0:0:
298,111,84831,2,0,B|360:122|360:122|431:107,1,127.500004863739,8|0,0:0|0:0,0:0:0:0:
255,41,85190,5,4,0:0:0:0:
262,273,85370,1,8,0:3:0:0:
263,284,85729,5,8,0:3:0:0:
264,295,86088,5,4,0:3:0:0:
255,41,86268,1,4,0:3:0:0:
267,384,86448,1,4,0:0:0:0:
259,203,86807,5,2,0:0:0:0:
178,189,86987,1,2,0:0:0:0:
98,206,87166,2,0,P|61:235|43:288,1,85,2|0,0:0|0:0,0:0:0:0:
77,350,87526,1,2,0:0:0:0:
77,350,87705,2,0,P|115:377|170:380,1,85,2|0,0:0|0:0,0:0:0:0:
261,233,88065,5,0,0:0:0:0:
260,218,88244,1,0,0:0:0:0:
259,203,88424,1,2,0:0:0:0:
267,315,88603,1,2,0:0:0:0:
267,315,88963,5,0,0:0:0:0:
268,330,89142,1,2,0:0:0:0:
261,233,89322,1,2,0:0:0:0:
259,203,89681,5,0,0:0:0:0:
260,218,89860,1,0,0:0:0:0:
261,233,90040,1,2,0:0:0:0:
253,121,90220,5,0,0:0:0:0:
252,106,90399,1,0,0:0:0:0:
251,91,90579,1,0,0:0:0:0:
250,76,90759,1,0,0:0:0:0:
179,35,90939,5,2,0:0:0:0:
164,36,91118,1,0,0:0:0:0:
149,37,91298,1,0,0:0:0:0:
85,88,91478,1,2,0:0:0:0:
85,88,91837,5,0,0:0:0:0:
131,157,92017,1,0,0:0:0:0:
210,151,92196,2,0,L|229:150,1,10.625,0|0,0:0|0:0,0:0:0:0:
38,218,92556,5,2,0:0:0:0:
53,217,92735,1,2,0:0:0:0:
68,216,92915,1,2,0:0:0:0:
136,261,93125,6,0,L|182:258,1,42.5,2|0,0:0|0:0,0:0:0:0:
235,320,93644,6,0,L|330:315,1,85,2|2,0:0|0:0,0:0:0:0:
393,353,94885,6,0,L|426:352,3,21.25,0|0|0|0,0:0|0:0|0:0|0:0,0:0:0:0:
256,192,95244,12,0,102070,0:0:0:0:
