osu file format v14

[General]
AudioFilename: audio.mp3
AudioLeadIn: 0
PreviewTime: 53571
Countdown: 0
SampleSet: Soft
StackLeniency: 0.3
Mode: 0
LetterboxInBreaks: 0
WidescreenStoryboard: 1

[Editor]
DistanceSpacing: 1.7
BeatDivisor: 4
GridSize: 4
TimelineZoom: 1

[Metadata]
Title:Yuuki wa doko ni? Kimi no Mune ni!
TitleUnicode:勇気はどこに?君の胸に!
Artist:Aqours
ArtistUnicode:Aqours
Creator:Strategas
Version:Hard
Source:Lovelive! Sunshine!!
Tags:season 2 ed ラブライブ!サンシャイン!! tv size lls love live school idol project
BeatmapID:1480265
BeatmapSetID:694300

[Difficulty]
HPDrainRate:4
CircleSize:4
OverallDifficulty:6.6
ApproachRate:7.6
SliderMultiplier:1.5
SliderTickRate:1

[Events]
//Background and Video events
0,0,"nibber.jpg",0,0
//Break Periods
//Storyboard Layer 0 (Background)
//Storyboard Layer 1 (Fail)
//Storyboard Layer 2 (Pass)
//Storyboard Layer 3 (Foreground)
//Storyboard Sound Samples

[TimingPoints]
398,359.281437125748,4,2,0,50,1,0
398,-200,4,2,0,50,0,0
7583,-117.647058823529,4,2,0,60,0,0
13332,-100,4,2,0,65,0,0
17553,-100,4,2,0,30,0,0
19081,-100,4,2,0,65,0,0
30577,-90.9090909090909,4,2,0,70,0,0
42074,-166.666666666667,4,2,0,55,0,0
44948,-125,4,2,0,60,0,0
47823,-100,4,2,0,65,0,0
53571,-90.9090909090909,4,2,0,75,0,0
59320,-100,4,2,0,70,0,0
63631,-100,4,2,0,75,0,0
64350,-100,4,2,0,80,0,0
65068,-90.9090909090909,4,2,0,75,0,0
70817,-100,4,2,0,70,0,0
75488,-80,4,2,0,50,0,0
75757,-80,4,2,0,5,0,0
75847,-80,4,2,0,50,0,0
76116,-80,4,2,0,5,0,0
76206,-80,4,2,0,50,0,0
76476,-80,4,2,0,5,0,0
76568,359.281437125748,4,2,0,85,1,1
76568,-80,4,2,0,85,0,1
82316,-90.9090909090909,4,2,0,75,0,0
86627,-100,4,2,0,65,0,0
88065,-133.333333333333,4,2,0,60,0,0
90939,-200,4,2,0,50,0,0
93125,419.58041958042,4,2,0,49,1,0
93125,-200,4,2,0,49,0,0
93644,413.793103448276,4,2,0,49,1,0
93644,-200,4,2,0,49,0,0
94885,359.281437125748,4,2,0,50,1,0
94885,-200,4,2,0,50,0,0
95244,-200,4,2,0,5,0,0

[Colours]
Combo1 : 255,151,47
Combo2 : 0,136,0
Combo3 : 0,62,136
Combo4 : 255,79,79

[HitObjects]
107,143,7583,6,0,L|195:137,1,63.7500012159348,4|0,0:0|0:0,0:0:0:0:
247,132,7942,1,2,0:0:0:0:
323,124,8122,2,0,L|377:121,2,31.8750006079674,4|8|4,0:3|0:3|0:3,0:0:0:0:
292,194,8481,2,0,B|295:245|295:245|310:268|310:268|311:317,1,127.50000243187,2|2,0:0|0:0,0:0:0:0:
258,373,9020,5,4,0:0:0:0:
254,377,9200,2,0,L|167:368,1,63.7500012159348,2|0,0:0|0:0,0:0:0:0:
134,318,9559,2,0,L|47:309,1,63.7500012159348,2|4,0:0|0:3,0:0:0:0:
22,252,9918,1,8,0:3:0:0:
18,248,10098,2,0,L|27:161,1,63.7500012159348,2|8,0:0|0:3,0:0:0:0:
82,133,10457,6,0,P|156:136|212:159,1,127.50000243187,6|4,0:0|0:3,0:0:0:0:
261,206,10996,2,0,P|320:227|384:228,1,127.50000243187,2|0,0:0|0:0,0:0:0:0:
436,171,11535,2,0,P|466:164|513:164,1,63.7500012159348,4|0,0:3|0:0,0:0:0:0:
462,73,11895,6,0,B|357:102|371:52|272:75,1,191.250003647804,6|8,0:0|0:3,0:0:0:0:
207,113,12613,1,8,0:3:0:0:
132,93,12793,1,8,0:3:0:0:
139,168,12972,1,8,0:0:0:0:
146,243,13152,1,8,0:0:0:0:
214,289,13332,6,0,B|250:297|250:297|315:287,1,75,4|0,0:0|0:0,0:0:0:0:
337,220,13691,1,4,0:3:0:0:
333,216,13871,2,0,B|297:208|297:208|232:218,1,75,2|4,0:0|0:3,0:0:0:0:
214,289,14230,1,8,0:3:0:0:
214,289,14320,1,8,0:3:0:0:
214,289,14409,1,4,0:3:0:0:
166,356,14589,6,0,P|129:363|92:356,1,75,8|4,0:3|0:3,0:0:0:0:
36,296,14948,1,8,0:3:0:0:
36,296,15038,1,8,0:3:0:0:
36,296,15128,1,4,0:3:0:0:
86,225,15308,2,0,P|93:188|86:151,1,75,8|4,0:3|0:3,0:0:0:0:
60,73,15667,1,8,0:3:0:0:
56,69,15757,1,8,0:3:0:0:
52,65,15847,2,0,L|50:18,3,37.5,4|8|8|8,0:3|0:3|0:3|0:3,0:0:0:0:
68,10,16206,6,0,L|157:17,1,75,4|0,0:1|0:0,0:0:0:0:
202,73,16565,1,4,0:3:0:0:
202,73,16745,1,8,0:0:0:0:
196,235,17104,5,4,0:3:0:0:
199,154,17284,1,4,0:3:0:0:
202,73,17463,1,4,0:1:0:0:
256,192,17553,12,4,19080,0:0:0:0:
155,59,19439,6,0,P|192:52|244:57,1,75,2|0,3:2|0:0,0:0:0:0:
292,117,19799,1,2,3:2:0:0:
292,117,19978,2,0,P|329:124|381:119,1,75,2|0,0:0|3:0,0:0:0:0:
424,180,20338,6,0,L|422:264,1,75,2|0,0:0|3:0,0:0:0:0:
343,201,20697,2,0,L|341:285,1,75,2|0,0:0|3:0,0:0:0:0:
262,222,21056,2,0,L|260:306,1,75,2|0,0:0|3:0,0:0:0:0:
181,243,21415,2,0,L|179:327,1,75,2|0,0:0|3:0,0:0:0:0:
100,264,21775,2,0,L|98:348,1,75,2|0,0:0|3:0,0:0:0:0:
0,182,22314,6,0,P|37:189|89:184,1,75,2|0,3:2|0:0,0:0:0:0:
133,129,22674,1,0,3:0:0:0:
133,129,22853,2,0,P|170:122|222:127,1,75,2|0,0:0|3:0,0:0:0:0:
273,173,23212,2,0,P|310:180|362:175,1,75,2|0,0:0|3:0,0:0:0:0:
421,141,23571,5,2,0:0:0:0:
477,80,23751,1,2,3:2:0:0:
496,0,23930,1,2,0:0:0:0:
347,68,24290,5,4,0:3:0:0:
347,178,24469,1,4,0:3:0:0:
372,341,24829,6,0,P|335:348|283:343,1,75,2|0,3:2|3:0,0:0:0:0:
243,283,25189,1,2,3:2:0:0:
243,283,25368,2,0,P|206:276|154:281,1,75,2|0,0:0|3:0,0:0:0:0:
110,343,25727,2,0,P|73:350|21:345,1,75,2|0,0:0|3:0,0:0:0:0:
35,265,26086,6,0,P|42:228|37:176,1,75,2|0,0:0|3:0,0:0:0:0:
25,109,26445,1,2,0:0:0:0:
25,109,26625,1,0,3:0:0:0:
170,30,26984,2,0,B|207:18|207:18|341:27,1,150,8|8,3:0|3:0,0:0:0:0:
447,128,27703,6,0,B|456:166|456:166|448:210,1,75,2|0,3:2|0:0,0:0:0:0:
398,266,28062,1,0,3:0:0:0:
398,266,28242,2,0,B|389:304|389:304|397:348,1,75,2|0,0:0|3:0,0:0:0:0:
477,352,28601,2,0,B|486:314|486:314|478:270,1,75,2|0,0:0|3:0,0:0:0:0:
449,201,28960,5,4,0:0:0:0:
277,131,29320,5,4,0:3:0:0:
235,253,29499,1,4,0:0:0:0:
235,253,29859,6,0,P|186:227|116:250,1,112.5,2|4,3:2|0:3,0:0:0:0:
109,256,30218,2,0,L|56:248,3,37.5,4|4|4|4,0:3|0:3|0:3|0:3,0:0:0:0:
46,231,30577,6,0,B|35:191|35:191|43:149,1,82.5000025177003,4|0,0:0|0:0,0:0:0:0:
112,92,30936,1,10,0:0:0:0:
202,99,31116,1,2,3:2:0:0:
292,106,31296,1,2,0:0:0:0:
356,169,31475,2,0,L|349:251,1,82.5000025177003,0|8,3:0|0:0,0:0:0:0:
347,342,31835,1,8,0:3:0:0:
347,342,31924,1,8,0:3:0:0:
347,342,32014,5,8,0:3:0:0:
270,292,32194,2,0,P|229:280|179:288,1,82.5000025177003,2|8,0:0|0:0,0:0:0:0:
115,232,32553,2,0,P|111:191|122:151,1,82.5000025177003,2|0,3:2|0:0,0:0:0:0:
199,105,32912,2,0,P|239:109|279:98,1,82.5000025177003,2|8,3:2|0:0,0:0:0:0:
350,39,33272,1,2,0:0:0:0:
350,39,33362,1,0,0:0:0:0:
350,39,33451,6,0,B|390:28|390:28|440:36,1,82.5000025177003,0|0,3:0|0:0,0:0:0:0:
486,107,33811,1,10,0:0:0:0:
493,197,33990,1,2,0:0:0:0:
403,205,34170,1,2,0:0:0:0:
396,115,34350,2,0,B|356:122|356:122|323:149,1,82.5000025177003,2|8,3:2|0:0,0:0:0:0:
288,261,34709,1,4,0:3:0:0:
121,107,35068,5,4,0:3:0:0:
66,221,35248,1,8,0:0:0:0:
191,212,35427,1,8,0:3:0:0:
191,212,35517,1,8,0:0:0:0:
191,212,35607,1,8,0:3:0:0:
121,107,35787,1,4,0:3:0:0:
66,221,35966,2,0,P|61:266|71:318,1,82.5000025177003,8|4,0:0|0:3,0:0:0:0:
179,359,36326,6,0,L|352:343,1,165.000005035401,6|10,0:0|0:0,0:0:0:0:
301,262,36865,2,0,L|218:269,1,82.5000025177003,2|0,3:2|0:0,0:0:0:0:
296,178,37224,2,0,L|213:185,1,82.5000025177003,2|8,3:2|0:0,0:0:0:0:
145,125,37583,6,0,B|126:169|126:169|137:296,1,165.000005035401,4|4,0:0|0:3,0:0:0:0:
45,283,38122,2,0,L|37:193,1,82.5000025177003,8|4,0:0|0:3,0:0:0:0:
37,192,38392,1,4,0:3:0:0:
36,184,38481,1,4,0:0:0:0:
62,97,38661,2,0,L|58:53,2,41.2500012588501,8|8|8,0:3|0:3|0:0,0:0:0:0:
226,100,39200,6,0,B|268:107|268:107|315:96,1,82.5000025177003,4|0,0:0|3:0,0:0:0:0:
375,38,39559,1,2,3:2:0:0:
375,38,39739,2,0,B|417:31|417:31|464:42,1,82.5000025177003,2|0,3:2|0:0,0:0:0:0:
502,118,40098,2,0,L|498:203,1,82.5000025177003,2|0,3:2|0:0,0:0:0:0:
488,314,40457,1,4,0:3:0:0:
266,224,40817,5,8,0:3:0:0:
289,102,40996,1,8,0:3:0:0:
342,175,41176,1,4,0:3:0:0:
213,150,41356,2,0,L|123:136,1,82.5000025177003,6|4,0:0|0:3,0:0:0:0:
122,136,41625,1,8,0:3:0:0:
113,134,41715,1,8,0:3:0:0:
85,274,42074,6,0,P|129:287|187:272,1,89.9999972534181,6|0,0:0|0:0,0:0:0:0:
231,233,42613,1,2,0:0:0:0:
231,233,42793,2,0,P|275:220|333:235,1,89.9999972534181,2|0,0:0|0:0,0:0:0:0:
373,284,43332,1,2,0:0:0:0:
373,284,43511,6,0,L|480:280,1,89.9999972534181,2|0,3:2|0:0,0:0:0:0:
479,204,44050,1,2,0:0:0:0:
479,204,44230,2,0,L|372:208,1,89.9999972534181,2|0,0:0|3:0,0:0:0:0:
331,159,44769,1,2,0:0:0:0:
238,213,44948,6,0,B|182:211|182:211|178:206|178:206|101:204,1,120,4|2,0:0|0:0,0:0:0:0:
47,211,45487,1,4,0:3:0:0:
80,279,45667,2,0,L|140:282,1,60,10|4,0:0|0:3,0:0:0:0:
217,292,46026,2,0,L|276:294,1,60,2|4,0:0|0:3,0:0:0:0:
353,304,46386,6,0,L|412:306,2,60,2|4|8,0:0|0:3|0:0,0:0:0:0:
321,232,46924,5,4,0:3:0:0:
339,156,47104,1,10,0:0:0:0:
395,210,47284,5,4,0:3:0:0:
413,134,47463,2,0,L|418:100,3,30,8|8|8|8,0:3|0:3|0:3|0:3,0:0:0:0:
403,80,47823,6,0,L|320:72,1,75,4|0,0:0|0:0,0:0:0:0:
246,63,48182,2,0,L|163:55,1,75,10|2,0:0|0:0,0:0:0:0:
156,137,48541,6,0,L|239:145,1,75,0|2,3:0|0:0,0:0:0:0:
313,154,48900,2,0,L|396:162,1,75,8|2,0:0|0:0,0:0:0:0:
470,168,49260,5,2,3:2:0:0:
470,168,49439,1,0,3:0:0:0:
451,248,49619,1,2,3:2:0:0:
451,248,49798,1,0,3:2:0:0:
432,328,49978,1,2,3:2:0:0:
432,328,50157,1,0,3:0:0:0:
369,273,50338,1,2,3:2:0:0:
306,218,50517,1,0,3:0:0:0:
246,274,50697,5,6,0:0:0:0:
161,322,50877,1,0,3:0:0:0:
68,258,51056,1,0,3:0:0:0:
122,142,51236,1,8,0:0:0:0:
432,84,51595,5,8,0:0:0:0:
343,125,51775,1,4,0:3:0:0:
230,123,51954,1,8,0:0:0:0:
106,37,52134,5,4,0:0:0:0:
130,110,53571,6,0,P|169:101|222:111,1,82.5000025177003,4|4,0:0|0:3,0:0:0:0:
285,157,53930,1,8,0:0:0:0:
358,210,54110,2,0,P|398:215|438:206,1,82.5000025177003,4|8,0:3|0:0,0:0:0:0:
497,137,54469,2,0,P|502:96|493:56,1,82.5000025177003,4|8,0:3|0:0,0:0:0:0:
409,21,54829,6,0,B|367:12|367:12|325:20,1,82.5000025177003,4|8,0:3|0:0,0:0:0:0:
245,57,55188,1,4,0:3:0:0:
161,20,55368,2,0,B|119:11|119:11|77:19,1,82.5000025177003,8|4,0:0|0:3,0:0:0:0:
21,113,55727,5,8,0:0:0:0:
47,199,55906,1,4,0:3:0:0:
158,168,56086,1,8,0:0:0:0:
184,254,56265,1,4,0:3:0:0:
265,339,56445,6,0,L|354:329,1,82.5000025177003,4|4,0:0|0:3,0:0:0:0:
426,285,56805,1,8,0:0:0:0:
457,200,56984,2,0,L|447:111,1,82.5000025177003,4|8,0:3|0:0,0:0:0:0:
395,43,57344,1,4,0:3:0:0:
312,79,57523,1,8,0:0:0:0:
176,41,57703,6,0,B|170:109|170:109|186:143|186:143|179:212,1,165.000005035401,4|4,0:0|0:3,0:0:0:0:
147,300,58242,5,8,0:0:0:0:
61,274,58421,1,4,0:3:0:0:
92,163,58601,1,8,0:0:0:0:
6,137,58780,1,4,0:3:0:0:
72,74,58960,2,0,L|67:25,3,41.2500012588501,8|8|8|8,0:3|0:3|0:3|0:3,0:0:0:0:
102,10,59320,6,0,P|140:7|184:17,1,75,4|2,0:3|0:0,0:0:0:0:
252,53,59679,1,8,0:0:0:0:
252,53,59859,1,2,0:0:0:0:
353,182,60218,6,0,P|389:189|426:186,2,75,2|8|2,0:0|0:0|0:0,0:0:0:0:
272,202,60757,2,0,P|247:230|231:264,2,75,4|2|8,0:3|0:0|0:0,0:0:0:0:
297,123,61296,2,0,P|225:113|135:144,1,150,2|0,0:0|0:0,0:0:0:0:
92,192,61835,1,8,0:0:0:0:
137,270,62014,5,2,0:0:0:0:
137,270,62104,1,2,0:0:0:0:
137,270,62194,2,0,B|143:328|143:328|76:334,2,112.5,4|4|2,0:0|0:3|0:0,0:0:0:0:
127,187,62912,2,0,B|121:129|121:129|188:123,1,112.5,4|4,0:0|0:3,0:0:0:0:
298,124,63451,5,2,0:0:0:0:
298,124,63541,1,2,0:0:0:0:
298,124,63631,2,0,L|373:122,2,75,12|4|8,0:0|0:3|0:0,0:0:0:0:
255,194,64170,1,4,0:3:0:0:
291,268,64350,2,0,B|358:273|358:273|375:266|375:266|442:270,1,150,12|8,0:0|0:3,0:0:0:0:
477,354,64889,1,4,0:3:0:0:
477,354,64978,1,4,0:3:0:0:
477,354,65068,6,0,P|469:310|436:269,1,82.5000025177003,4|4,0:0|0:3,0:0:0:0:
384,213,65427,1,8,0:0:0:0:
317,151,65607,2,0,P|325:107|358:66,1,82.5000025177003,4|8,0:3|0:0,0:0:0:0:
433,52,65966,2,0,P|477:60|518:93,1,82.5000025177003,4|8,0:3|0:0,0:0:0:0:
346,76,66326,6,0,P|277:62|181:81,1,165.000005035401,4|4,0:0|0:3,0:0:0:0:
189,83,66775,1,4,0:3:0:0:
193,87,66865,2,0,B|202:127|202:127|190:186,1,82.5000025177003,8|4,0:0|0:3,0:0:0:0:
145,274,67224,5,8,0:0:0:0:
87,166,67403,1,4,0:3:0:0:
0,272,67583,5,8,0:0:0:0:
58,164,67762,1,4,0:3:0:0:
145,274,67942,6,0,B|188:283|188:283|254:271,1,82.5000025177003,4|4,0:0|0:3,0:0:0:0:
225,276,68212,1,4,0:3:0:0:
225,276,68302,1,8,0:0:0:0:
301,226,68481,2,0,B|344:217|344:217|410:229,1,82.5000025177003,4|8,0:3|0:0,0:0:0:0:
464,262,68841,2,0,B|470:222|470:222|461:181,1,82.5000025177003,4|8,0:3|0:0,0:0:0:0:
396,78,69200,6,0,B|296:55|315:103|234:79,1,165.000005035401,4|4,0:0|0:3,0:0:0:0:
43,62,69739,5,8,0:0:0:0:
168,14,69918,1,4,0:3:0:0:
40,89,70098,5,8,0:0:0:0:
165,137,70277,1,4,0:3:0:0:
79,169,70457,1,8,0:0:0:0:
152,234,70637,1,4,0:3:0:0:
152,234,70727,1,8,0:3:0:0:
152,234,70817,6,0,L|244:240,1,75,4|0,0:0|0:0,0:0:0:0:
308,201,71176,6,0,P|325:146|320:114,1,75,4|0,0:3|0:0,0:0:0:0:
323,129,71535,2,0,P|306:74|311:42,1,75,4|0,0:3|0:0,0:0:0:0:
226,15,71895,6,0,L|220:107,1,75,4|0,0:3|0:0,0:0:0:0:
221,89,72254,2,0,L|215:181,1,75,4|0,0:3|0:0,0:0:0:0:
132,189,72613,6,0,P|115:134|120:102,1,75,4|0,0:3|0:0,0:0:0:0:
117,117,72972,2,0,P|134:62|129:30,1,75,4|0,0:3|0:0,0:0:0:0:
58,7,73332,5,8,0:0:0:0:
2,67,73511,1,8,0:0:0:0:
2,67,73601,1,4,0:3:0:0:
2,67,73691,1,6,0:0:0:0:
221,170,74230,5,2,0:0:0:0:
221,170,74409,2,0,B|280:181|280:181|333:170,2,112.5,6|0|0,0:0|3:0|3:0,0:0:0:0:
141,145,75128,1,8,0:0:0:0:
168,356,75487,5,2,0:0:0:0:
364,292,75847,1,2,0:0:0:0:
168,228,76206,1,2,0:0:0:0:
168,228,76568,6,0,L|63:225,1,93.75,14|4,0:0|0:3,0:0:0:0:
254,199,76927,2,0,L|359:196,1,93.75,8|4,0:0|0:3,0:0:0:0:
187,141,77286,2,0,L|82:138,1,93.75,10|4,0:0|0:3,0:0:0:0:
273,112,77645,2,0,L|378:109,1,93.75,8|4,0:0|0:3,0:0:0:0:
451,150,78005,6,0,B|462:195|462:195|454:245,1,93.75,8|4,0:0|0:3,0:0:0:0:
382,302,78364,1,10,0:0:0:0:
290,283,78544,1,4,0:3:0:0:
247,180,78723,1,10,0:0:0:0:
155,161,78903,1,4,0:3:0:0:
112,58,79082,1,10,0:0:0:0:
20,39,79262,1,4,0:3:0:0:
213,2,79442,6,0,P|221:47|220:94,1,93.75,10|4,0:0|0:3,0:0:0:0:
378,148,79801,2,0,P|332:156|286:156,1,93.75,8|4,0:0|0:3,0:0:0:0:
224,308,80160,2,0,P|215:262|216:215,1,93.75,10|4,0:0|0:3,0:0:0:0:
58,161,80519,2,0,P|103:152|150:153,1,93.75,8|4,0:0|0:3,0:0:0:0:
220,94,80879,5,8,0:0:0:0:
285,155,81059,1,4,0:3:0:0:
215,215,81238,1,10,0:0:0:0:
150,153,81418,1,4,0:3:0:0:
145,275,81597,1,10,0:0:0:0:
80,212,81777,2,0,L|16:212,2,46.875,4|4|10,0:3|0:3|0:0,0:0:0:0:
75,335,82136,1,0,0:0:0:0:
75,335,82226,1,8,0:0:0:0:
75,335,82316,6,0,B|115:360|115:360|259:352,1,165.000005035401,6|8,0:0|0:0,0:0:0:0:
301,290,82855,1,2,0:0:0:0:
301,290,83035,2,0,B|261:265|261:265|143:271,1,165.000005035401,4|8,0:3|0:0,0:0:0:0:
167,108,83753,6,0,B|258:93|236:124|334:104,1,165.000005035401,4|8,0:3|0:0,0:0:0:0:
495,101,84472,2,0,B|404:116|426:85|328:105,1,165.000005035401,4|8,0:3|0:0,0:0:0:0:
167,108,85190,5,4,0:0:0:0:
140,224,85370,1,8,0:3:0:0:
140,224,85729,5,8,0:3:0:0:
140,224,86088,5,4,0:3:0:0:
229,237,86268,1,4,0:3:0:0:
318,250,86448,1,4,0:0:0:0:
318,250,86807,5,2,0:0:0:0:
312,160,86987,1,2,0:0:0:0:
306,70,87166,1,2,0:0:0:0:
306,70,87526,5,2,0:0:0:0:
394,84,87705,1,2,0:0:0:0:
230,58,88065,6,0,L|167:50,2,56.2500021457673,0|0|2,0:0|0:0|0:0,0:0:0:0:
306,70,88603,1,2,0:0:0:0:
169,128,88963,6,0,L|224:135,1,56.2500021457673,0|2,0:0|0:0,0:0:0:0:
299,145,89322,1,2,0:0:0:0:
275,313,89681,6,0,L|282:257,1,56.2500021457673,0|0,0:0|0:0,0:0:0:0:
295,185,90041,1,2,0:0:0:0:
296,175,90220,1,2,0:0:0:0:
297,165,90400,1,0,0:0:0:0:
298,155,90579,1,0,0:0:0:0:
299,145,90759,1,0,0:0:0:0:
362,93,90939,6,0,P|379:108|395:127,2,37.5,2|0|0,0:0|0:0|0:0,0:0:0:0:
289,68,91478,1,2,0:0:0:0:
139,99,91837,5,0,0:0:0:0:
140,111,92017,1,0,0:0:0:0:
182,176,92196,2,0,L|183:208,1,18.75,0|0,0:0|0:0,0:0:0:0:
127,285,92556,5,2,0:0:0:0:
160,347,92735,1,2,0:0:0:0:
197,287,92915,1,2,0:0:0:0:
276,288,93125,6,0,L|318:291,1,37.5,2|0,0:0|0:0,0:0:0:0:
262,212,93644,6,0,L|353:218,1,75,2|2,0:0|0:0,0:0:0:0:
297,140,94885,6,0,L|328:141,3,18.75
256,192,95244,12,0,102070,0:0:0:0:
