osu file format v14

[General]
AudioFilename: audio.mp3
AudioLeadIn: 0
PreviewTime: 53571
Countdown: 0
SampleSet: Soft
StackLeniency: 0.3
Mode: 0
LetterboxInBreaks: 0
WidescreenStoryboard: 1

[Editor]
DistanceSpacing: 1
BeatDivisor: 4
GridSize: 4
TimelineZoom: 1

[Metadata]
Title:Yuuki wa doko ni? Kimi no Mune ni!
TitleUnicode:勇気はどこに?君の胸に!
Artist:Aqours
ArtistUnicode:Aqours
Creator:Strategas
Version:Easy
Source:Lovelive! Sunshine!!
Tags:season 2 ed ラブライブ!サンシャイン!! tv size lls love live school idol project
BeatmapID:1480368
BeatmapSetID:694300

[Difficulty]
HPDrainRate:2
CircleSize:3
OverallDifficulty:3
ApproachRate:3.5
SliderMultiplier:1
SliderTickRate:1

[Events]
//Background and Video events
0,0,"nibber.jpg",0,0
//Break Periods
//Storyboard Layer 0 (Background)
//Storyboard Layer 1 (Fail)
//Storyboard Layer 2 (Pass)
//Storyboard Layer 3 (Foreground)
//Storyboard Sound Samples

[TimingPoints]
398,359.281437125748,4,2,0,50,1,0
398,-100,4,2,0,50,0,0
7583,-100,4,2,0,60,0,0
13332,-100,4,2,0,65,0,0
17553,-100,4,2,0,30,0,0
19081,-100,4,2,0,65,0,0
30577,-100,4,2,0,70,0,0
42074,-100,4,2,0,55,0,0
44948,-100,4,2,0,60,0,0
47823,-100,4,2,0,65,0,0
53571,-100,4,2,0,75,0,0
59320,-100,4,2,0,70,0,0
63631,-100,4,2,0,75,0,0
64350,-100,4,2,0,80,0,0
65068,-100,4,2,0,75,0,0
70817,-100,4,2,0,70,0,0
75488,-100,4,2,0,50,0,0
75757,-100,4,2,0,5,0,0
75847,-100,4,2,0,50,0,0
76116,-100,4,2,0,5,0,0
76206,-100,4,2,0,50,0,0
76476,-100,4,2,0,5,0,0
76568,359.281437125748,4,2,0,85,1,1
76568,-100,4,2,0,85,0,1
82316,-100,4,2,0,75,0,0
86627,-100,4,2,0,65,0,0
88065,-100,4,2,0,60,0,0
90939,-100,4,2,0,50,0,0
93125,419.58041958042,4,2,0,49,1,0
93125,-100,4,2,0,49,0,0
93644,413.793103448276,4,2,0,49,1,0
93644,-100,4,2,0,49,0,0
94885,359.281437125748,4,2,0,5,1,0

[Colours]
Combo1 : 255,151,47
Combo2 : 0,136,0
Combo3 : 0,62,136
Combo4 : 255,79,79

[HitObjects]
63,52,7583,5,4,0:0:0:0:
455,128,9020,1,4,0:0:0:0:
77,261,10457,1,4,0:0:0:0:
469,337,11894,1,4,0:0:0:0:
147,99,13332,6,0,P|222:66|354:93,1,200,4|4,0:0|0:3,0:0:0:0:
405,270,14769,2,0,P|308:288|215:253,1,200,4|4,0:3|0:3,0:0:0:0:
94,91,16206,2,0,B|134:76|134:76|255:78,1,150,4|8,0:1|0:0,0:0:0:0:
341,80,17104,2,0,L|450:82,1,100,4|4,0:3|0:1,0:0:0:0:
104,80,19080,6,0,L|215:73,1,100,4|2,0:0|3:2,0:0:0:0:
303,67,19799,2,0,L|414:60,1,100,2|0,3:2|3:0,0:0:0:0:
406,160,20517,2,0,L|295:167,1,100,0|0,3:0|3:0,0:0:0:0:
206,176,21236,2,0,L|95:183,1,100,0|0,3:0|3:0,0:0:0:0:
81,279,21954,1,0,3:2:0:0:
180,293,22314,1,2,3:2:0:0:
268,246,22673,2,0,P|316:235|365:245,1,100,0|0,3:0|3:0,0:0:0:0:
451,294,23392,2,0,P|461:244|450:195,1,100,0|2,3:0|3:2,0:0:0:0:
383,123,24110,2,0,P|334:132|285:122,1,100,0|4,3:0|0:3,0:0:0:0:
197,77,24829,5,2,3:2:0:0:
130,152,25188,2,0,P|120:198|135:271,1,100,2|0,3:2|3:0,0:0:0:0:
198,319,25906,1,0,3:0:0:0:
289,278,26266,2,0,L|404:275,2,100,0|0|2,3:0|3:0|3:2,0:0:0:0:
221,204,27344,1,8,3:0:0:0:
156,127,27703,2,0,P|148:77|156:28,1,100,2|0,3:2|3:0,0:0:0:0:
254,9,28421,2,0,B|314:-4|377:5|377:5|369:30,2,150,0|4|4,3:0|0:0|0:0,0:0:0:0:
242,111,29859,1,2,3:2:0:0:
311,297,30577,6,0,L|478:290,2,150,4|2|8,0:0|3:2|0:0,0:0:0:0:
236,229,32014,2,0,L|69:236,2,150,8|2|8,0:3|3:2|0:0,0:0:0:0:
317,170,33451,1,0,3:0:0:0:
247,98,33811,2,0,L|80:105,1,150,10|2,0:0|3:2,0:0:0:0:
26,175,34709,2,0,B|15:212|15:212|23:328,1,150,4|8,0:3|0:0,0:0:0:0:
171,344,35787,2,0,L|239:341,1,50,4|8,0:3|0:0,0:0:0:0:
314,377,36326,6,0,B|325:340|325:340|317:224,1,150,6|2,0:0|3:2,0:0:0:0:
308,129,37224,1,2,3:2:0:0:
209,144,37583,1,4,0:0:0:0:
215,243,37942,2,0,L|217:301,1,50,4|8,0:3|0:0,0:0:0:0:
139,356,38481,2,0,L|20:364,1,100,4|8,0:0|0:0,0:0:0:0:
13,265,39200,2,0,P|-5:205|24:118,1,150,4|2,0:0|3:2,0:0:0:0:
104,70,40098,1,2,3:2:0:0:
203,71,40457,1,4,0:3:0:0:
287,124,40817,2,0,P|303:146|313:174,1,50,8|8,0:3|0:3,0:0:0:0:
336,264,41356,1,6,0:0:0:0:
143,208,42074,6,0,P|77:147|149:114,1,200,6|2,0:0|0:0,0:0:0:0:
343,160,43511,2,0,P|409:99|337:66,1,200,2|2,3:2|0:0,0:0:0:0:
144,14,44948,1,4,0:0:0:0:
148,114,45308,1,2,0:0:0:0:
152,214,45667,1,10,0:0:0:0:
156,314,46026,1,2,0:0:0:0:
243,265,46386,2,0,P|296:238|358:246,1,100,2|8,0:0|0:0,0:0:0:0:
423,285,47104,2,0,P|450:232|442:170,1,100,10|8,0:0|0:3,0:0:0:0:
404,103,47823,6,0,L|286:97,1,100,4|10,0:0|0:0,0:0:0:0:
232,28,48541,2,0,L|114:22,1,100,0|8,3:0|0:0,0:0:0:0:
73,103,49260,1,2,3:2:0:0:
57,201,49619,1,2,3:2:0:0:
156,217,49978,1,2,3:2:0:0:
171,119,50338,1,2,3:2:0:0:
270,123,50697,2,0,B|374:99|361:151|475:122,2,200,6|2|4,0:0|0:0|0:0,0:0:0:0:
45,84,53571,6,0,P|35:137|52:182,1,100,4|8,0:0|0:0,0:0:0:0:
125,245,54290,2,0,P|178:255|223:238,1,100,8|8,0:0|0:0,0:0:0:0:
285,164,55008,2,0,L|277:55,2,100,8|8|8,0:0|0:0|0:0,0:0:0:0:
357,233,56086,1,8,0:0:0:0:
296,312,56445,2,0,B|222:319|222:319|221:314|221:314|134:320,1,150,4|4,0:0|0:3,0:0:0:0:
49,324,57344,1,4,0:3:0:0:
18,228,57703,2,0,P|27:144|87:92,1,150,4|8,0:0|0:0,0:0:0:0:
168,78,58601,1,8,0:0:0:0:
367,98,59320,6,0,B|384:145|384:145|374:203,1,100,4|8,0:3|0:0,0:0:0:0:
308,268,60038,2,0,B|261:285|261:285|203:275,1,100,0|8,0:0|0:0,0:0:0:0:
135,211,60757,2,0,B|118:164|118:164|128:106,1,100,4|8,0:3|0:0,0:0:0:0:
194,41,61475,2,0,B|241:24|241:24|299:34,1,100,0|8,0:0|0:0,0:0:0:0:
362,102,62194,5,4,0:0:0:0:
337,300,62912,1,4,0:0:0:0:
141,346,63631,2,0,P|91:351|44:335,1,100,12|8,0:0|0:0,0:0:0:0:
1,245,64350,2,0,P|-4:195|11:148,1,100,12|8,0:0|0:3,0:0:0:0:
76,72,65068,6,0,P|138:59|221:104,1,150,4|4,0:0|0:3,0:0:0:0:
247,189,65966,1,4,0:3:0:0:
203,279,66326,2,0,B|180:287|152:287|152:287|103:260|39:275,1,150,4|8,0:0|0:0,0:0:0:0:
15,362,67224,1,8,0:0:0:0:
113,381,67583,1,8,0:0:0:0:
212,374,67942,2,0,B|286:381|286:381|287:376|287:376|374:382,1,150,4|4,0:0|0:3,0:0:0:0:
451,346,68841,1,4,0:3:0:0:
507,263,69200,2,0,P|450:200|371:193,1,150,4|8,0:0|0:0,0:0:0:0:
289,206,70098,1,8,0:0:0:0:
209,266,70457,1,8,0:0:0:0:
191,167,70817,5,4,0:0:0:0:
171,69,71176,2,0,P|130:70|57:89,1,100,4|4,0:3|0:3,0:0:0:0:
25,171,71895,1,4,0:3:0:0:
33,270,72254,1,4,0:3:0:0:
98,345,72613,2,0,P|139:344|212:325,1,100,4|4,0:3|0:3,0:0:0:0:
275,270,73332,2,0,L|334:273,2,50,8|8|6,0:0|0:0|0:0,0:0:0:0:
102,169,74409,1,4,0:0:0:0:
301,151,75128,1,8,0:0:0:0:
42,56,76568,6,0,P|97:47|149:62,1,100,14|8,0:0|0:0,0:0:0:0:
224,109,77286,2,0,P|279:118|331:103,1,100,10|8,0:0|0:0,0:0:0:0:
415,73,78005,1,8,0:0:0:0:
463,160,78364,1,10,0:0:0:0:
449,258,78723,1,10,0:0:0:0:
435,356,79082,1,10,0:0:0:0:
345,311,79442,6,0,P|290:302|238:317,1,100,10|8,0:0|0:0,0:0:0:0:
163,364,80160,2,0,P|108:373|56:358,1,100,10|8,0:0|0:0,0:0:0:0:
13,277,80879,1,8,0:0:0:0:
108,248,81238,1,10,0:0:0:0:
127,149,81597,1,10,0:0:0:0:
146,50,81957,1,10,0:0:0:0:
242,23,82316,6,0,P|322:10|445:61,1,200,6|4,0:0|0:3,0:0:0:0:
476,139,83394,1,8,0:0:0:0:
425,225,83753,2,0,P|345:238|222:187,1,200,4|4,0:3|0:3,0:0:0:0:
191,109,84831,1,8,0:0:0:0:
95,79,85190,2,0,B|86:97|89:129|89:129|111:172|86:232,1,150,4|8,0:0|0:3,0:0:0:0:
37,310,86088,1,4,0:3:0:0:
98,382,86448,1,4,0:0:0:0:
79,118,88065,5,0,0:0:0:0:
428,130,89322,1,2,0:0:0:0:
13,303,90939,1,2,0:0:0:0:
362,306,92196,1,0,0:0:0:0:
256,192,94885,12,0,102070,0:0:0:0:
