osu file format v14

[General]
AudioFilename: audio.mp3
AudioLeadIn: 0
PreviewTime: 53571
Countdown: 0
SampleSet: Soft
StackLeniency: 0.2
Mode: 0
LetterboxInBreaks: 0
WidescreenStoryboard: 0

[Editor]
DistanceSpacing: 1
BeatDivisor: 4
GridSize: 4
TimelineZoom: 1

[Metadata]
Title:Yuuki wa doko ni? Kimi no Mune ni!
TitleUnicode:勇気はどこに?君の胸に!
Artist:Aqours
ArtistUnicode:Aqours
Creator:Strategas
Version:Curving
Source:Lovelive! Sunshine!!
Tags:season 2 ed ラブライブ!サンシャイン!! tv size lls love live school idol project
BeatmapID:1468912
BeatmapSetID:694300

[Difficulty]
HPDrainRate:6
CircleSize:3.5
OverallDifficulty:9
ApproachRate:9.1
SliderMultiplier:1.9
SliderTickRate:1

[Events]
//Background and Video events
0,0,"nibber.jpg",0,0
//Break Periods
//Storyboard Layer 0 (Background)
//Storyboard Layer 1 (Fail)
//Storyboard Layer 2 (Pass)
//Storyboard Layer 3 (Foreground)
//Storyboard Sound Samples

[TimingPoints]
398,359.281437125748,4,2,0,50,1,0
398,-200,4,2,0,50,0,0
7403,-200,4,2,0,25,0,0
7583,-117.647058823529,4,2,0,60,0,0
13332,-100,4,2,0,65,0,0
17553,-100,4,2,0,30,0,0
19081,-100,4,2,0,65,0,0
30577,-90.9090909090909,4,2,0,70,0,0
42074,-166.666666666667,4,2,0,55,0,0
44948,-125,4,2,0,60,0,0
47823,-100,4,2,0,65,0,0
53571,-66.6666666666667,4,2,0,75,0,0
59320,-80,4,2,0,70,0,0
65068,-66.6666666666667,4,2,0,75,0,0
70817,-80,4,2,0,70,0,0
75488,-80,4,2,0,50,0,0
75757,-80,4,2,0,5,0,0
75847,-80,4,2,0,50,0,0
76116,-80,4,2,0,5,0,0
76206,-80,4,2,0,50,0,0
76476,-80,4,2,0,5,0,0
76568,359.281437125748,4,2,0,85,1,1
76568,-50,4,2,0,85,0,1
82316,-66.6666666666667,4,2,0,75,0,0
86627,-100,4,2,0,65,0,0
88065,-133.333333333333,4,2,0,60,0,0
90939,-200,4,2,0,50,0,0
93125,419.58041958042,4,2,0,49,1,0
93125,-200,4,2,0,49,0,0
93644,413.793103448276,4,2,0,49,1,0
93644,-200,4,2,0,49,0,0
94885,359.281437125748,4,2,0,50,1,0
94885,-200,4,2,0,50,0,0
95244,-200,4,2,0,5,0,0

[Colours]
Combo1 : 255,151,47
Combo2 : 0,136,0
Combo3 : 0,62,136
Combo4 : 255,79,79

[HitObjects]
220,174,398,5,0,0:0:0:0:
236,174,577,1,0,0:0:0:0:
252,174,757,1,2,0:0:0:0:
323,122,936,5,0,0:0:0:0:
447,218,1296,5,0,0:0:0:0:
447,234,1475,1,0,0:0:0:0:
384,296,1655,5,2,0:0:0:0:
384,296,2014,5,0,0:0:0:0:
368,296,2194,1,0,0:0:0:0:
292,223,2374,5,2,0:0:0:0:
274,138,2553,1,2,0:0:0:0:
285,83,2733,1,0,0:0:0:0:
308,50,2912,1,0,0:0:0:0:
332,37,3092,1,0,0:0:0:0:
192,46,3272,5,2,0:0:0:0:
176,46,3451,1,0,0:0:0:0:
160,46,3631,1,0,0:0:0:0:
88,95,3811,5,2,0:0:0:0:
88,95,4170,5,2,0:0:0:0:
88,111,4350,1,0,0:0:0:0:
146,177,4529,5,2,0:0:0:0:
146,177,4889,5,2,0:0:0:0:
162,177,5068,1,0,0:0:0:0:
253,121,5248,5,2,0:0:0:0:
338,103,5427,1,2,0:0:0:0:
393,114,5607,1,0,0:0:0:0:
426,137,5787,1,0,0:0:0:0:
439,161,5966,1,0,0:0:0:0:
256,192,6146,12,0,7403,0:0:0:0:
332,135,7583,6,0,L|170:143,1,161.500003080368,4|2,0:0|0:0,0:0:0:0:
98,192,8122,1,4,0:3:0:0:
98,192,8212,1,8,0:3:0:0:
98,192,8302,1,4,0:3:0:0:
177,231,8481,2,0,L|338:222,1,161.500003080368,2|2,0:0|0:0,0:0:0:0:
505,218,9020,5,4,0:0:0:0:
505,218,9200,2,0,L|500:137,1,80.750001540184,2|0,0:0|0:0,0:0:0:0:
434,81,9559,2,0,L|353:85,1,80.750001540184,2|4,0:0|0:3,0:0:0:0:
296,150,9918,1,8,0:3:0:0:
296,150,10098,2,0,L|300:230,1,80.750001540184,2|8,0:0|0:3,0:0:0:0:
309,369,10457,5,4,0:0:0:0:
289,14,10817,1,4,0:3:0:0:
309,369,11176,1,4,0:3:0:0:
289,14,11535,1,4,0:3:0:0:
173,191,11895,6,0,L|416:184,1,242.250004620552,4|8,0:0|0:3,0:0:0:0:
503,181,12613,1,8,0:3:0:0:
417,270,12793,5,8,0:3:0:0:
286,97,12972,1,8,0:0:0:0:
165,278,13152,1,8,0:0:0:0:
417,270,13332,5,4,0:0:0:0:
291,201,13511,1,0,0:0:0:0:
299,344,13691,1,4,0:3:0:0:
512,265,13871,2,0,L|422:270,1,95,2|4,0:0|0:3,0:0:0:0:
165,278,14230,1,8,0:3:0:0:
165,278,14320,1,8,0:3:0:0:
165,278,14409,1,4,0:3:0:0:
299,344,14589,2,0,L|299:286,2,47.5,8|8|4,0:3|0:3|0:3,0:0:0:0:
298,193,14948,5,8,0:3:0:0:
298,193,15038,1,8,0:3:0:0:
298,193,15128,1,4,0:3:0:0:
299,78,15308,2,0,L|299:30,2,47.5,8|8|4,0:3|0:3|0:3,0:0:0:0:
197,52,15667,5,8,0:3:0:0:
197,68,15757,1,8,0:3:0:0:
198,93,15847,1,4,0:3:0:0:
199,126,15936,1,8,0:3:0:0:
201,174,16026,1,8,0:3:0:0:
203,228,16116,1,8,0:3:0:0:
205,301,16206,6,0,L|303:297,1,95,4|0,0:1|0:0,0:0:0:0:
403,293,16565,1,4,0:3:0:0:
102,306,16745,1,8,0:0:0:0:
91,307,17104,5,4,0:3:0:0:
383,191,17284,1,4,0:3:0:0:
40,115,17463,5,4,0:1:0:0:
256,192,17553,12,0,18900,0:0:0:0:
208,133,19080,5,4,0:0:0:0:
208,133,19260,1,0,0:0:0:0:
386,77,19439,2,0,L|479:90,1,95,2|0,3:2|0:0,0:0:0:0:
365,226,19799,1,2,3:2:0:0:
365,226,19978,2,0,L|271:211,1,95,2|0,0:0|3:0,0:0:0:0:
116,343,20338,6,0,L|128:242,1,95,2|0,0:0|3:0,0:0:0:0:
259,305,20697,2,0,L|271:204,1,95,2|0,0:0|3:0,0:0:0:0:
127,248,21056,2,0,L|139:147,1,95,2|0,0:0|3:0,0:0:0:0:
271,211,21415,2,0,L|283:110,1,95,2|0,0:0|3:0,0:0:0:0:
139,154,21775,6,0,L|151:53,2,95,2|0|0,0:0|3:0|0:0,0:0:0:0:
377,128,22314,2,0,L|276:115,1,95,2|0,3:2|0:0,0:0:0:0:
178,245,22673,1,0,3:0:0:0:
178,245,22853,2,0,L|278:257,1,95,2|0,0:0|3:0,0:0:0:0:
366,268,23212,2,0,L|265:255,1,95,2|0,0:0|3:0,0:0:0:0:
463,280,23571,5,2,0:0:0:0:
178,245,23751,1,2,3:2:0:0:
366,268,23930,1,2,0:0:0:0:
271,256,24110,1,0,3:0:0:0:
453,71,24290,5,4,0:3:0:0:
405,356,24469,1,4,0:3:0:0:
400,364,24829,6,0,L|299:351,1,95,2|8,3:2|0:3,0:0:0:0:
212,373,25098,1,8,0:3:0:0:
200,372,25188,1,8,3:0:0:0:
18,318,25368,2,0,L|112:329,1,95,2|0,0:0|3:0,0:0:0:0:
124,235,25727,2,0,L|112:329,1,95,2|0,0:0|3:0,0:0:0:0:
218,246,26086,2,0,L|123:234,1,95,2|0,0:0|3:0,0:0:0:0:
314,262,26445,5,2,0:0:0:0:
229,151,26625,2,0,L|216:251,1,95,0|8,3:0|0:3,0:0:0:0:
407,285,26895,1,8,0:3:0:0:
408,273,26984,2,0,L|307:260,1,95,8|8,3:0|0:3,0:0:0:0:
252,337,27254,1,8,0:3:0:0:
251,349,27344,1,8,3:0:0:0:
95,53,27703,6,0,L|195:65,1,95,2|0,3:2|0:0,0:0:0:0:
380,87,28062,1,0,3:0:0:0:
380,87,28242,2,0,L|285:75,1,95,2|0,0:0|3:0,0:0:0:0:
1,42,28601,2,0,L|95:53,1,95,2|0,0:0|3:0,0:0:0:0:
474,98,28960,6,0,L|379:86,1,95,4|0,0:0|3:0,0:0:0:0:
501,4,29320,1,4,0:3:0:0:
471,334,29499,1,4,0:0:0:0:
461,324,29859,6,0,L|413:318,1,47.5,2|0,3:2|0:0,0:0:0:0:
327,272,30038,5,4,0:3:0:0:
311,270,30128,1,4,0:3:0:0:
295,268,30218,1,4,0:3:0:0:
279,266,30308,1,4,0:3:0:0:
264,264,30397,1,4,0:3:0:0:
248,262,30487,1,4,0:3:0:0:
232,260,30577,6,0,P|183:258|123:266,1,104.500003189087,4|0,0:0|0:0,0:0:0:0:
27,294,30936,1,10,0:0:0:0:
102,366,31116,1,2,3:2:0:0:
128,264,31296,1,2,0:0:0:0:
114,108,31475,2,0,P|61:106|10:112,1,104.500003189087,0|8,3:0|0:0,0:0:0:0:
213,142,31835,5,8,0:3:0:0:
217,126,31924,1,8,0:3:0:0:
219,109,32014,1,8,0:3:0:0:
296,206,32194,2,0,P|346:193|394:172,1,104.500003189087,2|8,0:0|0:0,0:0:0:0:
372,342,32553,2,0,P|321:329|274:309,1,104.500003189087,2|0,3:2|0:0,0:0:0:0:
79,384,32912,2,0,P|130:371|178:351,1,104.500003189087,2|8,3:2|0:0,0:0:0:0:
213,142,33272,6,0,P|215:93|207:33,2,104.500003189087,2|0|0,0:0|3:0|0:0,0:0:0:0:
178,351,33811,1,10,0:0:0:0:
94,288,33990,1,2,0:0:0:0:
189,245,34170,1,2,0:0:0:0:
353,314,34350,2,0,P|402:316|462:308,1,104.500003189087,2|8,3:2|0:0,0:0:0:0:
316,125,34709,5,4,0:3:0:0:
303,129,35068,5,4,0:3:0:0:
247,39,35248,1,8,0:0:0:0:
87,115,35427,1,8,0:3:0:0:
87,115,35517,1,8,0:0:0:0:
87,115,35607,1,8,0:3:0:0:
143,24,35787,1,4,0:3:0:0:
210,330,35966,5,8,0:0:0:0:
185,216,36146,1,4,0:3:0:0:
247,39,36326,6,0,P|298:32|350:34,1,104.500003189087,6|0,0:0|0:0,0:0:0:0:
428,258,36685,1,10,0:0:0:0:
263,144,36865,2,0,P|313:155|362:174,1,104.500003189087,2|0,3:2|0:0,0:0:0:0:
254,249,37224,2,0,P|298:277|337:312,1,104.500003189087,2|8,3:2|0:0,0:0:0:0:
477,125,37583,6,0,P|418:73|351:33,1,156.750004783631,4|0,0:0|0:0,0:0:0:0:
338,29,37942,1,4,0:3:0:0:
255,249,38122,5,8,0:0:0:0:
352,208,38302,1,4,0:3:0:0:
100,337,38481,5,4,0:0:0:0:
3,202,38661,1,8,0:3:0:0:
3,202,38751,1,8,0:3:0:0:
3,202,38841,1,8,0:0:0:0:
175,183,39020,1,0,0:0:0:0:
5,384,39200,5,4,0:0:0:0:
200,370,39380,1,0,3:0:0:0:
100,337,39559,1,2,3:2:0:0:
291,317,39739,2,0,P|340:315|400:323,1,104.500003189087,2|0,3:2|0:0,0:0:0:0:
115,232,40098,2,0,P|63:225|11:227,1,104.500003189087,2|0,3:2|0:0,0:0:0:0:
333,219,40457,5,4,0:3:0:0:
343,221,40817,5,8,0:3:0:0:
378,122,40996,1,8,0:3:0:0:
413,23,41176,1,4,0:3:0:0:
510,285,41356,5,6,0:0:0:0:
475,186,41535,1,4,0:3:0:0:
475,186,41625,1,8,0:3:0:0:
475,186,41715,1,8,0:3:0:0:
413,23,41895,1,0,0:0:0:0:
293,130,42074,6,0,P|242:152|165:141,1,113.999996520996,6|0,0:0|0:0,0:0:0:0:
130,91,42613,1,2,0:0:0:0:
49,249,42793,2,0,P|45:192|67:140,1,113.999996520996,2|0,0:0|0:0,0:0:0:0:
130,91,43332,1,2,0:0:0:0:
103,310,43511,6,0,P|154:332|211:328,1,113.999996520996,2|0,3:2|0:0,0:0:0:0:
283,292,44050,1,2,0:0:0:0:
265,113,44230,2,0,P|242:164|246:221,1,113.999996520996,2|0,0:0|3:0,0:0:0:0:
283,292,44769,1,2,0:0:0:0:
428,107,44948,6,0,P|390:111|357:128,1,76,4|0,0:0|0:0,0:0:0:0:
416,195,45308,1,2,0:0:0:0:
511,134,45487,1,4,0:3:0:0:
271,113,45667,2,0,P|275:151|292:185,1,76,10|4,0:0|0:3,0:0:0:0:
200,63,46026,2,0,P|162:67|128:83,1,76,2|4,0:0|0:3,0:0:0:0:
132,241,46386,2,0,P|128:203|112:170,1,76,2|4,0:0|0:3,0:0:0:0:
76,308,46745,5,8,0:0:0:0:
46,112,46924,1,4,0:3:0:0:
257,272,47104,5,10,0:0:0:0:
287,76,47284,1,4,0:3:0:0:
455,255,47463,5,8,0:3:0:0:
430,270,47553,1,8,0:3:0:0:
403,279,47643,1,8,0:3:0:0:
375,280,47733,1,8,0:3:0:0:
347,275,47823,6,0,P|304:260|243:283,1,95,4|0,0:0|0:0,0:0:0:0:
21,271,48182,1,10,0:0:0:0:
93,196,48362,2,0,P|138:184|183:200,1,95,2|0,0:0|3:0,0:0:0:0:
352,140,48721,2,0,P|308:125|262:137,1,95,2|8,0:0|0:0,0:0:0:0:
174,86,49080,1,2,0:0:0:0:
257,271,49260,5,2,3:2:0:0:
257,271,49439,1,0,3:0:0:0:
331,30,49619,1,2,3:2:0:0:
331,30,49799,1,0,3:2:0:0:
503,216,49978,1,2,3:2:0:0:
503,216,50158,1,0,3:0:0:0:
257,271,50338,1,2,3:2:0:0:
331,30,50517,1,0,3:0:0:0:
338,337,50697,5,6,0:0:0:0:
174,209,50877,1,0,3:0:0:0:
174,209,51056,1,0,3:0:0:0:
228,370,51236,1,8,0:0:0:0:
257,271,51415,5,2,0:0:0:0:
143,309,51595,1,8,0:0:0:0:
29,347,51775,1,4,0:3:0:0:
76,103,51954,1,8,0:0:0:0:
228,370,52134,5,4,0:0:0:0:
256,192,52224,12,0,53392,0:0:0:0:
112,146,53571,6,0,P|156:100|241:97,1,142.500005435944,4|4,0:0|0:3,0:0:0:0:
438,93,53930,5,8,0:0:0:0:
470,295,54110,1,4,0:3:0:0:
335,97,54290,5,8,0:0:0:0:
335,315,54469,1,4,0:3:0:0:
231,93,54649,5,8,0:0:0:0:
202,298,54829,2,0,P|158:344|73:347,1,142.500005435944,4|8,0:3|0:0,0:0:0:0:
279,228,55188,1,4,0:3:0:0:
29,125,55368,5,8,0:0:0:0:
231,93,55547,1,4,0:3:0:0:
0,266,55727,5,8,0:0:0:0:
202,298,55906,1,4,0:3:0:0:
202,298,55996,1,4,0:3:0:0:
202,298,56086,2,0,P|158:344|73:347,1,142.500005435944,8|4,0:0|0:3,0:0:0:0:
231,93,56445,6,0,P|265:39|348:20,1,142.500005435944,4|4,0:0|0:3,0:0:0:0:
404,266,56805,5,8,0:0:0:0:
202,298,56984,1,4,0:3:0:0:
351,177,57164,5,8,0:0:0:0:
133,177,57344,1,4,0:3:0:0:
404,88,57523,5,8,0:0:0:0:
64,56,57703,2,0,P|13:168|137:172,1,285.000010871888,4|4,0:0|0:3,0:0:0:0:
404,88,58242,5,8,0:0:0:0:
427,247,58421,1,4,0:3:0:0:
156,18,58601,5,8,0:0:0:0:
133,177,58781,1,4,0:3:0:0:
332,17,58960,5,8,0:3:0:0:
364,31,59050,1,8,0:3:0:0:
389,56,59140,1,8,0:3:0:0:
404,88,59230,1,8,0:3:0:0:
406,123,59320,5,4,0:3:0:0:
304,116,59499,1,2,0:0:0:0:
399,157,59679,1,8,0:0:0:0:
297,150,59859,1,2,0:0:0:0:
35,270,60218,5,2,0:0:0:0:
137,263,60397,1,8,0:0:0:0:
42,304,60577,1,2,0:0:0:0:
144,297,60757,1,4,0:3:0:0:
49,338,60936,1,2,0:0:0:0:
151,331,61116,1,8,0:0:0:0:
75,179,61296,6,0,P|132:89|220:150,1,237.5,2|0,0:0|0:0,0:0:0:0:
242,251,61835,1,8,0:0:0:0:
359,34,62014,1,2,0:0:0:0:
366,29,62104,1,2,0:0:0:0:
374,28,62194,6,0,P|454:79|399:158,1,178.125,4|4,0:0|0:3,0:0:0:0:
511,211,62733,1,2,0:0:0:0:
298,135,62912,6,0,P|218:186|273:265,1,178.125,4|4,0:0|0:3,0:0:0:0:
396,161,63451,1,2,0:0:0:0:
412,147,63541,1,2,0:0:0:0:
433,143,63631,5,12,0:0:0:0:
385,323,63811,1,4,0:3:0:0:
241,250,63990,5,8,0:0:0:0:
512,211,64170,1,4,0:3:0:0:
165,138,64350,5,12,0:0:0:0:
222,11,64529,1,4,0:3:0:0:
241,250,64709,5,8,0:3:0:0:
227,282,64799,1,8,0:3:0:0:
202,307,64889,1,4,0:3:0:0:
170,322,64978,1,4,0:3:0:0:
135,324,65068,6,0,P|89:280|86:195,1,142.500005435944,4|4,0:0|0:3,0:0:0:0:
337,292,65427,5,8,0:0:0:0:
135,324,65607,1,4,0:3:0:0:
333,189,65787,5,8,0:0:0:0:
115,189,65966,1,4,0:3:0:0:
337,85,66146,5,8,0:0:0:0:
132,56,66326,2,0,P|62:59|12:108,1,142.500005435944,4|0,0:0|0:0,0:0:0:0:
234,241,66685,1,4,0:3:0:0:
234,241,66775,1,4,0:3:0:0:
234,241,66865,2,0,P|165:238|115:189,1,142.500005435944,8|4,0:0|0:3,0:0:0:0:
229,16,67224,5,8,0:0:0:0:
302,318,67403,1,4,0:3:0:0:
131,46,67583,5,8,0:0:0:0:
58,348,67763,1,4,0:3:0:0:
405,303,67942,5,4,0:0:0:0:
210,271,68122,1,4,0:3:0:0:
210,271,68212,1,4,0:3:0:0:
210,271,68302,1,8,0:0:0:0:
488,242,68481,5,4,0:3:0:0:
287,204,68661,1,8,0:0:0:0:
469,384,68841,5,4,0:3:0:0:
453,145,69020,1,8,0:0:0:0:
141,149,69200,6,0,P|90:261|214:265,1,285.000010871888,4|4,0:0|0:3,0:0:0:0:
287,204,69649,1,4,0:3:0:0:
285,184,69739,5,8,0:0:0:0:
295,328,69918,1,4,0:3:0:0:
358,111,70098,5,8,0:0:0:0:
375,262,70278,1,4,0:3:0:0:
229,97,70457,5,8,0:0:0:0:
194,99,70547,1,8,0:3:0:0:
162,114,70637,1,4,0:3:0:0:
137,139,70727,1,8,0:3:0:0:
123,171,70817,6,0,P|183:204|214:169,1,118.75,4|0,0:0|0:0,0:0:0:0:
446,103,71176,6,0,P|386:136|355:101,1,118.75,4|0,0:3|0:0,0:0:0:0:
357,108,71535,2,0,P|405:73|446:103,1,118.75,4|0,0:3|0:0,0:0:0:0:
278,277,71895,6,0,P|338:310|369:275,1,118.75,4|0,0:3|0:0,0:0:0:0:
456,288,72254,2,0,P|413:252|366:283,1,118.75,4|0,0:3|0:0,0:0:0:0:
65,278,72613,6,0,P|125:245|156:280,1,118.75,4|0,0:3|0:0,0:0:0:0:
154,273,72972,2,0,P|108:309|65:278,1,118.75,4|0,0:3|0:0,0:0:0:0:
242,24,73332,5,8,0:0:0:0:
270,360,73511,1,8,0:0:0:0:
270,360,73601,1,4,0:3:0:0:
270,360,73691,6,0,P|354:330|265:274,1,237.5,6|0,0:0|0:0,0:0:0:0:
137,180,74230,1,2,0:0:0:0:
137,180,74409,2,0,P|178:118|215:182,2,178.125,6|0|0,0:0|3:0|3:0,0:0:0:0:
146,380,75128,5,8,0:0:0:0:
146,380,75487,6,0,P|187:318|224:382,1,178.125,2|0,0:0|0:0,0:0:0:0:
224,382,75847,2,0,P|261:317|302:379,1,178.125,2|0,0:0|0:0,0:0:0:0:
303,379,76206,2,0,P|344:317|381:381,1,178.125,2|0,0:0|0:0,0:0:0:0:
476,298,76568,5,14,0:0:0:0:
235,226,76747,1,4,0:3:0:0:
512,200,76927,5,8,0:0:0:0:
199,324,77106,1,4,0:3:0:0:
271,128,77286,5,10,0:0:0:0:
283,384,77466,1,4,0:3:0:0:
189,64,77645,5,8,0:0:0:0:
512,200,77825,1,4,0:3:0:0:
235,226,78005,5,8,0:0:0:0:
476,102,78184,1,4,0:3:0:0:
283,384,78364,5,14,0:0:0:0:
189,64,78544,1,4,0:3:0:0:
421,384,78723,5,14,0:0:0:0:
497,0,78903,1,4,0:3:0:0:
283,384,79082,5,14,0:0:0:0:
91,29,79262,1,4,0:3:0:0:
373,290,79442,5,10,0:0:0:0:
112,244,79621,1,4,0:3:0:0:
282,41,79801,5,8,0:0:0:0:
282,342,79981,1,4,0:3:0:0:
112,139,80160,5,10,0:0:0:0:
373,93,80340,1,4,0:3:0:0:
179,324,80520,5,8,0:0:0:0:
179,59,80699,1,4,0:3:0:0:
408,192,80879,5,8,0:0:0:0:
112,244,81059,1,4,0:3:0:0:
491,255,81238,5,14,0:0:0:0:
38,172,81418,1,4,0:3:0:0:
503,152,81597,5,14,0:0:0:0:
14,272,81777,1,4,0:3:0:0:
14,272,81867,1,4,0:3:0:0:
14,272,81957,1,14,0:0:0:0:
65,72,82136,1,0,0:0:0:0:
65,72,82226,1,8,0:0:0:0:
65,72,82316,6,0,B|181:57|181:57|224:81|224:81|343:66,1,285.000010871888,6|8,0:0|0:0,0:0:0:0:
512,177,82855,1,2,0:0:0:0:
512,177,83035,2,0,B|396:192|396:192|353:168|353:168|235:182,1,285.000010871888,4|8,0:3|0:0,0:0:0:0:
0,196,83574,1,0,0:0:0:0:
0,196,83663,1,0,0:0:0:0:
0,196,83753,6,0,B|32:211|32:211|138:197,1,142.500005435944,4|0,0:3|0:0,0:0:0:0:
191,315,84112,2,0,B|159:300|159:300|53:314,1,142.500005435944,8|0,0:0|0:0,0:0:0:0:
238,222,84472,2,0,B|270:237|270:237|376:223,1,142.500005435944,4|0,0:3|0:0,0:0:0:0:
429,341,84831,2,0,B|397:326|397:326|291:340,1,142.500005435944,8|0,0:0|0:0,0:0:0:0:
95,357,85190,5,4,0:0:0:0:
59,107,85370,1,8,0:3:0:0:
57,95,85729,5,8,0:3:0:0:
55,83,86088,5,4,0:3:0:0:
95,357,86268,1,4,0:3:0:0:
321,183,86448,1,4,0:0:0:0:
224,220,86627,6,0,B|202:225|202:225|178:218,1,47.5
311,80,86807,1,2,0:0:0:0:
321,183,86987,1,2,0:0:0:0:
331,286,87166,2,0,B|379:298|379:298|427:286,1,95,2|0,0:0|0:0,0:0:0:0:
512,154,87526,1,2,0:0:0:0:
512,154,87705,2,0,B|464:142|464:142|420:154,1,95,2|0,0:0|0:0,0:0:0:0:
321,183,88065,5,0,0:0:0:0:
305,183,88244,1,0,0:0:0:0:
240,126,88424,5,2,0:0:0:0:
224,126,88603,1,2,0:0:0:0:
81,131,88963,5,0,0:0:0:0:
65,131,89142,1,2,0:0:0:0:
155,177,89322,5,2,0:0:0:0:
389,129,89681,5,0,0:0:0:0:
405,129,89861,1,0,0:0:0:0:
494,193,90041,5,2,0:0:0:0:
512,278,90220,1,0,0:0:0:0:
501,333,90400,1,0,0:0:0:0:
478,366,90580,1,0,0:0:0:0:
454,379,90759,1,0,0:0:0:0:
295,291,90939,6,0,B|269:290|269:290|268:318,2,47.5,2|0|0,0:0|0:0|0:0,0:0:0:0:
382,297,91478,1,2,0:0:0:0:
203,230,91837,5,0,0:0:0:0:
187,230,92017,1,0,0:0:0:0:
116,277,92196,2,0,L|94:276,2,11.875
71,147,92556,5,2,0:0:0:0:
71,132,92735,1,2,0:0:0:0:
71,117,92915,1,2,0:0:0:0:
133,58,93125,6,0,B|156:57|156:57|157:83,1,47.5,2|0,0:0|0:0,0:0:0:0:
204,218,93644,6,0,B|157:219|157:219|156:172,1,95,2|2,0:0|0:0,0:0:0:0:
226,126,94885,6,0,B|240:125|240:125|241:139,3,23.75
256,192,95244,12,0,102070,0:0:0:0:
