osu file format v14

[General]
AudioFilename: audio.mp3
AudioLeadIn: 0
PreviewTime: 34488
Countdown: 0
SampleSet: Soft
StackLeniency: 0.3
Mode: 0
LetterboxInBreaks: 0
WidescreenStoryboard: 0

[Editor]
DistanceSpacing: 1.8
BeatDivisor: 4
GridSize: 4
TimelineZoom: 2.4

[Metadata]
Title:Yuuki wa Doko ni? Kimi no Mune ni! (TV Size)
TitleUnicode:勇気はどこに?君の胸に! (TV Size)
Artist:Aqours
ArtistUnicode:Aqours
Creator:Mitsuna-
Version:Shira's Hard
Source:ラブライブ!サンシャイン!!
Tags:Love Live! Sunshine!! 2nd season school idol project yuki Chika Takami 高海千歌 Anju Inami 伊波杏樹 Riko Sakurauchi 桜内梨子 Rikako Aida 逢田梨香子 Kanan Matsuura 松浦果南 Nanaka Suwa 諏訪ななか Dia Kurosawa 黒澤ダイヤ Arisa Komiya 小宮有紗 You Watanabe 渡辺 曜 Shuka Saitou 斉藤朱夏 Yoshiko Tsushima Yohane 津島善子 Aika Kobayashi 小林愛香 Hanamaru Kunikida 国木田花丸 Kanako Takatsuki 高槻かなこ Mari Ohara 小原鞠莉 Aina Suzuki 鈴木愛奈 Ruby Kurosawa 黒澤ルビィ Ai Furihata 降幡 愛 ed ending TV Size where can you find courage? inside your heart! Owens Kami-senpai Cocoaaa -Nitrous Modem Nardoxyribonucleic Faputa rew0825 Hareimu -Hex- Ponchiwi Tenshichan Shiratoi Phyloukz Rhytoly _Meep_
BeatmapID:1467716
BeatmapSetID:679826

[Difficulty]
HPDrainRate:6
CircleSize:4
OverallDifficulty:7
ApproachRate:7
SliderMultiplier:1.5
SliderTickRate:1

[Events]
//Background and Video events
0,0,"bg.jpg",0,0
Video,0,"video.avi"
//Break Periods
//Storyboard Layer 0 (Background)
//Storyboard Layer 1 (Fail)
//Storyboard Layer 2 (Pass)
//Storyboard Layer 3 (Foreground)
//Storyboard Sound Samples

[TimingPoints]
177,359.281437125748,4,2,1,50,1,0
177,-125,4,2,1,50,0,0
5835,-125,4,2,1,5,0,0
5925,-125,4,2,1,50,0,0
11674,-117.647058823529,4,2,1,50,0,0
20206,-117.647058823529,4,2,1,5,0,0
20296,-117.647058823529,4,2,1,50,0,0
23171,-125,4,2,1,40,0,0
28919,-111.111111111111,4,2,1,60,0,0
33949,-111.111111111111,4,2,1,40,0,0
34668,-100,4,2,1,70,0,1
40416,-100,4,2,1,50,0,0
43290,-100,4,2,1,60,0,0
44727,-100,4,2,1,70,0,1
46075,-100,4,2,1,70,0,0
46165,-100,4,2,1,70,0,1
51913,-100,4,2,1,60,0,0
54787,-111.111111111111,4,2,1,50,0,0
57662,-100,4,2,1,70,0,1
63410,-111.111111111111,4,2,1,60,0,0
69159,-142.857142857143,4,2,1,40,0,0
74205,416.666666666667,4,2,1,40,1,0
74205,-142.857142857143,4,2,1,40,0,0
74736,416.666666666667,4,2,1,40,1,0
74736,-142.857142857143,4,2,1,40,0,0
75986,359.281437125748,4,2,1,60,1,0
79219,-100,4,2,1,5,0,0

[Colours]
Combo1 : 79,79,255
Combo2 : 255,158,62
Combo3 : 255,79,167
Combo4 : 176,140,100
Combo5 : 192,192,192
Combo6 : 255,247,198
Combo7 : 252,255,125

[HitObjects]
377,176,177,5,6,0:0:0:0:
377,176,536,2,0,L|316:183,1,60,2|0,0:0|0:0,0:0:0:0:
245,118,895,2,0,L|185:111,2,60,2|0|2,0:0|0:0|0:0,0:0:0:0:
331,75,1434,1,0,0:0:0:0:
377,176,1614,6,0,P|369:242|370:312,1,120,2|2,0:0|0:0,0:0:0:0:
444,354,2153,1,0,0:0:0:0:
496,274,2332,2,0,P|497:222|494:193,1,60,2|0,0:0|0:0,0:0:0:0:
455,126,2691,2,0,P|453:96|454:66,1,60,2|0,0:0|0:0,0:0:0:0:
331,75,3051,6,0,L|185:80,1,120,2|2,0:0|0:0,0:0:0:0:
140,13,3590,1,0,0:0:0:0:
132,108,3769,2,0,L|136:176,1,60,2|0,0:0|0:0,0:0:0:0:
194,244,4129,1,2,0:0:0:0:
228,154,4308,1,0,0:0:0:0:
132,108,4488,6,0,L|12:112,1,120,2|2,0:0|0:0,0:0:0:0:
42,20,5027,1,0,0:0:0:0:
130,48,5206,2,0,L|132:121,1,60,2|0,0:0|0:0,0:0:0:0:
228,154,5566,2,0,P|271:144|339:145,1,90,2|0,0:0|0:0,0:0:0:0:
364,114,5925,6,0,P|355:162|352:199,1,60,2|0,0:0|0:0,0:0:0:0:
416,245,6284,1,2,0:0:0:0:
500,153,6464,2,0,L|435:162,1,60,0|2,0:0|0:0,0:0:0:0:
440,48,6823,2,0,L|505:57,1,60,0|2,0:0|0:0,0:0:0:0:
500,153,7182,6,0,L|494:293,1,120,0|0,0:0|0:0,0:0:0:0:
428,342,7721,2,0,P|385:338|346:342,1,60,2|0,0:0|0:0,0:0:0:0:
298,245,8081,2,0,P|356:255|423:241,1,120,2|2,0:0|0:0,0:0:0:0:
292,125,8799,6,0,L|297:244,1,120,2|2,0:0|0:0,0:0:0:0:
225,308,9338,2,0,L|155:304,1,60,0|2,0:0|0:0,0:0:0:0:
84,252,9697,1,0,0:0:0:0:
160,193,9877,1,2,0:0:0:0:
83,140,10057,6,0,P|65:186|99:268,1,120,6|2,0:0|0:0,0:0:0:0:
219,194,10596,2,0,P|174:190|137:200,1,60,6|0,0:0|0:0,0:0:0:0:
83,140,10955,2,0,P|101:94|67:12,1,120,2|2,0:0|0:0,0:0:0:0:
3,83,11494,1,2,0:0:0:0:
82,28,11674,6,0,L|218:26,1,127.50000243187,6|8,0:0|0:0,0:0:0:0:
303,9,12212,1,10,0:0:0:0:
349,82,12392,1,0,0:0:0:0:
441,29,12572,2,0,L|504:27,1,63.7500012159348,0|8,0:0|0:0,0:0:0:0:
444,135,12931,1,2,0:0:0:0:
349,82,13111,6,0,L|352:210,1,127.50000243187,2|8,0:0|0:0,0:0:0:0:
266,225,13650,2,0,L|269:96,2,127.50000243187,8|0|2,0:0|0:0|0:0,0:0:0:0:
310,309,14548,5,2,0:0:0:0:
310,309,14907,2,0,L|234:312,2,63.7500012159348,8|8|0,0:0|0:0|0:0,0:0:0:0:
403,287,15446,2,0,L|479:290,1,63.7500012159348,0|8,0:0|0:0,0:0:0:0:
404,200,15805,6,0,P|378:132|406:75,1,127.50000243187,4|0,0:0|0:0,0:0:0:0:
476,56,16344,1,8,0:0:0:0:
465,139,16524,2,0,L|506:137,2,31.8750006079674,4|0|0,0:0|0:0|0:0,0:0:0:0:
397,84,16883,1,0,0:0:0:0:
404,200,17063,2,0,L|329:192,1,63.7500012159348,8|8,0:0|0:0,0:0:0:0:
240,118,17422,6,0,L|108:135,1,127.50000243187,4|8,0:0|0:0,0:0:0:0:
22,103,17961,2,0,P|33:69|39:32,1,63.7500012159348,2|0,0:0|0:0,0:0:0:0:
113,134,18320,2,0,P|118:165|129:195,1,63.7500012159348,2|8,0:0|0:0,0:0:0:0:
237,277,18679,6,0,P|182:276|86:292,1,127.50000243187,6|0,0:0|0:0,0:0:0:0:
19,254,19218,2,0,P|30:220|36:183,1,63.7500012159348,12|0,0:0|0:0,0:0:0:0:
110,285,19577,2,0,P|115:316|126:346,1,63.7500012159348,4|0,0:0|0:0,0:0:0:0:
220,363,19937,2,0,L|336:353,1,95.6250018239022,8|0,0:0|0:0,0:0:0:0:
362,364,20296,6,0,L|355:290,1,63.7500012159348,6|2,0:0|0:0,0:0:0:0:
315,212,20656,1,8,0:0:0:0:
432,269,20835,2,0,P|471:268|500:261,1,63.7500012159348,2|0,0:0|0:0,0:0:0:0:
378,205,21194,2,0,P|339:206|310:213,1,63.7500012159348,2|8,0:0|0:0,0:0:0:0:
206,158,21554,6,0,L|202:21,1,127.50000243187,4|6,0:0|0:0,0:0:0:0:
304,32,22093,2,0,L|379:29,1,63.7500012159348,12|0,0:0|0:0,0:0:0:0:
474,8,22452,1,4,0:0:0:0:
479,110,22632,1,0,0:0:0:0:
377,115,22811,2,0,L|313:117,1,63.7500012159348,8|0,0:0|0:0,0:0:0:0:
206,158,23171,6,0,P|147:140|78:167,1,120,6|0,0:0|0:0,0:0:0:0:
13,209,23709,1,2,0:0:0:0:
92,262,23889,2,0,P|151:280|220:253,1,120,8|0,0:0|0:0,0:0:0:0:
286,210,24428,1,2,0:0:0:0:
369,256,24608,6,0,L|377:380,1,120,2|0,0:0|0:0,0:0:0:0:
290,320,25147,1,0,0:0:0:0:
369,256,25326,2,0,L|493:248,1,120,8|0,0:0|0:0,0:0:0:0:
426,167,25865,1,2,0:0:0:0:
281,150,26045,6,0,L|287:233,1,60,14|0,0:0|0:0,0:0:0:0:
194,172,26404,2,0,L|198:112,1,60,0|2,0:0|0:0,0:0:0:0:
107,159,26763,2,0,L|113:242,1,60,10|0,0:0|0:0,0:0:0:0:
20,172,27122,2,0,L|24:112,1,60,0|2,0:0|0:0,0:0:0:0:
54,14,27482,5,8,0:0:0:0:
127,73,27662,1,0,0:0:0:0:
198,16,27841,2,0,L|272:12,1,60,8|0,0:0|0:0,0:0:0:0:
346,63,28200,2,0,L|405:66,1,60,8|0,0:0|0:0,0:0:0:0:
461,152,28560,2,0,L|503:147,3,30,8|8|8|8,0:0|0:0|0:0|0:0,0:0:0:0:
416,150,28919,6,0,B|428:196|428:196|418:239|418:239|434:283,1,134.999995880127,6|8,0:0|0:0,0:0:0:0:
353,343,29458,2,0,P|310:335|271:344,1,67.4999979400635,0|2,0:0|0:0,0:0:0:0:
193,256,29817,2,0,P|236:264|275:255,1,67.4999979400635,0|8,0:0|0:0,0:0:0:0:
322,181,30176,1,0,0:0:0:0:
223,158,30356,6,0,L|219:16,2,134.999995880127,12|8|8,0:0|0:0|0:0,0:0:0:0:
193,256,31254,1,0,0:0:0:0:
155,160,31434,2,0,L|247:156,1,67.4999979400635,8|0,0:0|0:0,0:0:0:0:
98,227,31793,6,0,P|68:161|104:95,1,134.999995880127,12|8,0:0|0:0,0:0:0:0:
184,70,32332,2,0,L|276:66,1,67.4999979400635,12|0,0:0|0:0,0:0:0:0:
343,24,32691,1,8,0:0:0:0:
312,120,32871,1,0,0:0:0:0:
367,205,33051,1,0,0:0:0:0:
330,298,33230,5,12,0:0:0:0:
330,298,33949,2,0,L|284:291,3,33.7499989700318,0|0|0|0,0:0|0:0|0:0|0:0,0:0:0:0:
247,303,34308,2,0,L|213:308,3,33.7499989700318,0|0|0|0,0:0|0:0|0:0|0:0,0:0:0:0:
161,285,34668,6,0,B|187:255|187:255|198:206|164:134,1,150,12|8,0:0|0:0,0:0:0:0:
96,84,35206,1,0,0:0:0:0:
191,64,35386,2,0,L|275:59,1,75,8|0,0:0|0:0,0:0:0:0:
341,121,35745,1,8,0:0:0:0:
397,41,35925,1,0,0:0:0:0:
450,122,36105,6,0,L|460:216,1,75,8|0,0:0|0:0,0:0:0:0:
372,243,36464,2,0,L|362:337,1,75,8|0,0:0|0:0,0:0:0:0:
266,319,36823,2,0,L|258:244,1,75,8|0,0:0|0:0,0:0:0:0:
172,198,37182,2,0,L|179:123,1,75,8|0,0:0|0:0,0:0:0:0:
22,194,37542,6,0,P|103:192|193:200,1,150,12|8,0:0|0:0,0:0:0:0:
262,155,38081,2,0,P|311:160|351:158,1,75,4|8,0:0|0:0,0:0:0:0:
446,247,38440,2,0,P|397:242|357:244,1,75,0|8,0:0|0:0,0:0:0:0:
250,304,38799,6,0,L|264:128,1,150,4|0,0:0|0:0,0:0:0:0:
230,61,39338,1,8,0:0:0:0:
161,141,39518,1,0,0:0:0:0:
112,48,39697,2,0,L|18:53,1,75,8|0,0:0|0:0,0:0:0:0:
29,144,40057,2,0,L|81:150,3,37.5,8|8|8|8,0:0|0:0|0:0|0:0,0:0:0:0:
85,179,40416,6,0,P|79:227|86:267,1,75,6|0,0:0|0:0,0:0:0:0:
171,335,40775,2,0,P|177:287|170:247,1,75,8|0,0:0|0:0,0:0:0:0:
262,173,41135,2,0,P|256:221|263:261,1,75,2|0,0:0|0:0,0:0:0:0:
348,329,41494,2,0,P|354:281|347:241,1,75,8|0,0:0|0:0,0:0:0:0:
262,173,41853,6,0,L|350:168,1,75,2|0,0:0|0:0,0:0:0:0:
273,77,42212,2,0,L|185:72,1,75,8|0,0:0|0:0,0:0:0:0:
98,168,42572,2,0,L|186:163,1,75,2|0,0:0|0:0,0:0:0:0:
109,72,42931,2,0,L|21:67,1,75,8|2,0:0|0:0,0:0:0:0:
98,168,43290,6,0,P|124:238|133:332,1,150,4|0,0:0|0:0,0:0:0:0:
217,362,43829,1,2,0:0:0:0:
303,317,44009,2,0,P|312:242|338:172,1,150,4|0,0:0|0:0,0:0:0:0:
417,115,44548,1,2,0:0:0:0:
338,172,44727,6,0,L|251:176,1,75,4|0,0:0|0:0,0:0:0:0:
331,93,45087,2,0,L|243:96,1,75,0|2,0:0|0:0,0:0:0:0:
326,13,45446,2,0,L|238:16,1,75,4|0,0:0|0:0,0:0:0:0:
166,64,45805,2,0,L|166:114,3,37.5,0|0|0|0,0:0|0:0|0:0|0:0,0:0:0:0:
159,150,46165,6,0,B|135:125|135:125|75:114|0:148,1,150,12|8,0:0|0:0,0:0:0:0:
13,245,46703,1,0,0:0:0:0:
102,282,46883,2,0,P|107:229|90:182,1,75,8|0,0:0|0:0,0:0:0:0:
21,138,47242,1,8,0:0:0:0:
159,150,47422,6,0,B|240:110|234:188|323:131,1,150,4|0,0:0|0:0,0:0:0:0:
338,55,47961,1,8,0:0:0:0:
393,160,48141,1,0,0:0:0:0:
502,66,48320,2,0,L|404:62,1,75,8|0,0:0|0:0,0:0:0:0:
393,160,48679,2,0,L|491:156,1,75,8|0,0:0|0:0,0:0:0:0:
391,309,49039,6,0,L|393:154,1,150,12|8,0:0|0:0,0:0:0:0:
303,142,49578,2,0,L|302:216,1,75,4|0,0:0|0:0,0:0:0:0:
215,307,49937,2,0,L|215:232,1,75,0|8,0:0|0:0,0:0:0:0:
159,127,50296,6,0,B|210:144|210:144|261:130|261:130|330:149,1,150,4|0,0:0|0:0,0:0:0:0:
394,161,50835,1,8,0:0:0:0:
360,61,51015,1,0,0:0:0:0:
303,142,51194,2,0,L|302:216,1,75,8|0,0:0|0:0,0:0:0:0:
215,307,51554,2,0,L|215:232,1,75,2|0,0:0|0:0,0:0:0:0:
316,304,51913,6,0,P|391:300|479:305,2,150,6|2|2,0:0|0:0|0:0,0:0:0:0:
316,304,52991,1,2,0:0:0:0:
65,306,53350,6,0,P|140:310|228:305,2,150,6|2|2,0:0|0:0|0:0,0:0:0:0:
103,148,54428,2,0,P|108:93|105:50,1,75,10|8,0:0|0:0,0:0:0:0:
193,148,54787,6,0,B|266:120|268:190|343:131,1,134.999995880127,14|0,0:0|0:0,0:0:0:0:
372,68,55326,1,2,0:0:0:0:
290,28,55506,2,0,P|282:95|347:153,1,134.999995880127,12|0,0:0|0:0,0:0:0:0:
430,155,56045,1,8,0:0:0:0:
465,66,56224,5,12,0:0:0:0:
260,347,57662,6,0,B|277:307|277:307|274:262,1,75,12|0,0:0|0:0,0:0:0:0:
155,266,58021,2,0,B|138:306|138:306|141:351,1,75,8|0,0:0|0:0,0:0:0:0:
260,347,58380,2,0,L|349:343,1,75,8|0,0:0|0:0,0:0:0:0:
399,233,58739,1,8,0:0:0:0:
448,334,58919,1,0,0:0:0:0:
484,236,59099,6,0,P|473:185|450:158,1,75,8|0,0:0|0:0,0:0:0:0:
334,173,59458,2,0,P|314:204|310:241,1,75,8|0,0:0|0:0,0:0:0:0:
334,343,59817,2,0,L|260:347,1,75,8|0,0:0|0:0,0:0:0:0:
154,265,60176,2,0,L|229:269,1,75,8|0,0:0|0:0,0:0:0:0:
146,115,60536,6,0,L|154:272,1,150,12|8,0:0|0:0,0:0:0:0:
90,348,61075,1,0,0:0:0:0:
10,292,61254,2,0,P|39:266|83:256,1,75,8|0,0:0|0:0,0:0:0:0:
216,300,61614,2,0,P|180:289|152:264,1,75,8|0,0:0|0:0,0:0:0:0:
146,115,61973,6,0,L|70:118,1,75,8|0,0:0|0:0,0:0:0:0:
156,24,62332,2,0,L|230:26,1,75,8|0,0:0|0:0,0:0:0:0:
314,113,62691,2,0,L|238:116,1,75,8|0,0:0|0:0,0:0:0:0:
343,30,63051,2,0,L|400:32,3,37.5,8|0|0|0,0:0|0:0|0:0|0:0,0:0:0:0:
428,38,63410,6,0,P|417:96|415:192,2,134.999995880127,6|8|2,0:0|0:0|0:0,0:0:0:0:
428,38,64488,1,8,0:0:0:0:
314,113,64847,6,0,P|325:171|327:267,2,134.999995880127,2|8|2,0:0|0:0|0:0,0:0:0:0:
259,27,65745,1,0,0:0:0:0:
207,114,65925,2,0,P|151:114|120:109,1,67.4999979400635,8|0,0:0|0:0,0:0:0:0:
55,208,66284,2,0,L|50:140,2,67.4999979400635,12|0|8,0:0|0:0|0:0,0:0:0:0:
137,268,66823,2,0,L|140:200,1,67.4999979400635,12|0,0:0|0:0,0:0:0:0:
207,114,67182,1,0,0:0:0:0:
303,146,67362,1,8,0:0:0:0:
268,273,67542,6,0,B|223:263|223:263|174:275|174:275|115:264,1,134.999995880127,4|0,0:0|0:0,0:0:0:0:
55,208,68081,1,0,0:0:0:0:
50,315,68260,1,0,0:0:0:0:
136,267,68440,2,0,P|152:226|148:176,1,67.4999979400635,0|0,0:0|0:0,0:0:0:0:
100,116,68799,2,0,P|86:85|82:51,1,67.4999979400635,0|0,0:0|0:0,0:0:0:0:
195,67,69159,6,0,L|266:64,2,52.4999983978272,0|0|2,0:0|0:0|0:0,0:0:0:0:
243,147,69697,2,0,L|349:142,1,104.999996795654,0|0,0:0|0:0,0:0:0:0:
434,104,70236,1,2,0:0:0:0:
408,216,70416,6,0,L|303:220,1,104.999996795654,0|0,0:0|0:0,0:0:0:0:
243,147,70955,1,2,0:0:0:0:
197,229,71135,1,0,0:0:0:0:
149,147,71314,2,0,L|78:150,2,52.4999983978272,0|0|2,0:0|0:0|0:0,0:0:0:0:
197,65,71853,1,0,0:0:0:0:
102,54,72033,6,0,L|31:57,2,52.4999983978272,0|0|2,0:0|0:0|0:0,0:0:0:0:
197,65,72572,2,0,L|303:60,1,104.999996795654,0|0,0:0|0:0,0:0:0:0:
389,23,73111,1,2,0:0:0:0:
434,104,73290,5,0,0:0:0:0:
362,279,73650,2,0,L|291:282,2,52.4999983978272,0|0|0,0:0|0:0|0:0,0:0:0:0:
407,355,74205,6,0,L|459:352,1,52.4999983978272,0|0,0:0|0:0,0:0:0:0:
476,184,74736,5,0,0:0:0:0:
362,279,75152,1,0,0:0:0:0:
208,85,76165,5,0,0:0:0:0:
256,192,76255,12,0,79219,0:0:0:0:
