osu file format v14

[General]
AudioFilename: audio.mp3
AudioLeadIn: 0
PreviewTime: 34488
Countdown: 0
SampleSet: Soft
StackLeniency: 0.7
Mode: 0
LetterboxInBreaks: 0
WidescreenStoryboard: 1

[Editor]
DistanceSpacing: 2.1
BeatDivisor: 4
GridSize: 16
TimelineZoom: 1.7

[Metadata]
Title:Yuuki wa Doko ni? Kimi no Mune ni! (TV Size)
TitleUnicode:勇気はどこに?君の胸に! (TV Size)
Artist:Aqours
ArtistUnicode:Aqours
Creator:Mitsuna-
Version:Owens' Extra
Source:ラブライブ!サンシャイン!!
Tags:Love Live! Sunshine!! 2nd season school idol project yuki Chika Takami 高海千歌 Anju Inami 伊波杏樹 Riko Sakurauchi 桜内梨子 Rikako Aida 逢田梨香子 Kanan Matsuura 松浦果南 Nanaka Suwa 諏訪ななか Dia Kurosawa 黒澤ダイヤ Arisa Komiya 小宮有紗 You Watanabe 渡辺 曜 Shuka Saitou 斉藤朱夏 Yoshiko Tsushima Yohane 津島善子 Aika Kobayashi 小林愛香 Hanamaru Kunikida 国木田花丸 Kanako Takatsuki 高槻かなこ Mari Ohara 小原鞠莉 Aina Suzuki 鈴木愛奈 Ruby Kurosawa 黒澤ルビィ Ai Furihata 降幡 愛 ed ending TV Size where can you find courage? inside your heart! Owens Kami-senpai Cocoaaa -Nitrous Modem Nardoxyribonucleic Faputa rew0825 Hareimu -Hex- Ponchiwi Tenshichan Shiratoi Phyloukz Rhytoly _Meep_
BeatmapID:1444591
BeatmapSetID:679826

[Difficulty]
HPDrainRate:6
CircleSize:4.2
OverallDifficulty:8
ApproachRate:9.2
SliderMultiplier:1.8
SliderTickRate:1

[Events]
//Background and Video events
0,0,"bg.jpg",0,0
Video,0,"video.avi"
//Break Periods
//Storyboard Layer 0 (Background)
//Storyboard Layer 1 (Fail)
//Storyboard Layer 2 (Pass)
//Storyboard Layer 3 (Foreground)
//Storyboard Sound Samples

[TimingPoints]
177,359.281437125748,4,2,1,45,1,0
356,-133.333333333333,4,2,1,45,0,0
10057,-100,4,2,1,60,0,0
10596,-80,4,2,1,60,0,0
10955,-90.9090909090909,4,2,1,45,0,0
11674,-100,4,2,1,45,0,0
14907,-100,4,2,1,50,0,0
17063,-100,4,2,1,35,0,0
17422,-100,4,2,1,40,0,0
19578,-100,4,2,1,35,0,0
20297,-100,4,2,1,45,0,0
23171,-133.333333333333,4,2,1,40,0,0
26045,-100,4,2,1,45,0,0
27482,-100,4,2,1,50,0,0
27841,-100,4,2,1,55,0,0
28201,-100,4,2,1,55,0,0
28919,-100,4,2,1,50,0,0
30356,-100,4,2,1,55,0,0
30716,-100,4,2,1,60,0,0
31075,-100,4,2,1,65,0,0
31434,-100,4,2,1,70,0,0
31794,-100,4,2,1,75,0,0
32692,-100,4,2,1,75,0,0
33231,-111.111111111111,4,2,1,75,0,0
33410,-111.111111111111,4,2,1,25,0,0
34668,-90.9090909090909,4,2,1,80,0,1
40416,-90.9090909090909,4,2,1,60,0,0
43111,-90.9090909090909,4,2,1,65,0,0
43829,-83.3333333333333,4,2,1,70,0,0
44548,-76.9230769230769,4,2,1,75,0,0
45267,-76.9230769230769,4,2,1,80,0,0
46165,-90.9090909090909,4,2,1,80,0,1
51554,-90.9090909090909,4,2,1,60,0,0
51794,-90.9090909090909,4,2,1,60,0,0
51823,-90.9090909090909,4,2,1,5,0,0
51913,-90.9090909090909,4,2,1,60,0,0
52153,-90.9090909090909,4,2,1,60,0,0
52183,-90.9090909090909,4,2,1,5,0,0
52273,-90.9090909090909,4,2,1,60,0,0
52512,-90.9090909090909,4,2,1,60,0,0
52542,-90.9090909090909,4,2,1,5,0,0
52632,-90.9090909090909,4,2,1,60,0,0
52871,-90.9090909090909,4,2,1,60,0,0
52901,-90.9090909090909,4,2,1,5,0,0
52991,-90.9090909090909,4,2,1,60,0,0
53231,-90.9090909090909,4,2,1,60,0,0
53261,-90.9090909090909,4,2,1,5,0,0
53350,-90.9090909090909,4,2,1,60,0,0
53590,-90.9090909090909,4,2,1,60,0,0
53620,-90.9090909090909,4,2,1,5,0,0
53710,-90.9090909090909,4,2,1,60,0,0
53949,-90.9090909090909,4,2,1,60,0,0
53979,-90.9090909090909,4,2,1,5,0,0
54069,-90.9090909090909,4,2,1,60,0,0
54308,-90.9090909090909,4,2,1,60,0,0
54338,-90.9090909090909,4,2,1,5,0,0
54428,-90.9090909090909,4,2,1,45,0,0
54608,-90.9090909090909,4,2,1,55,0,0
54788,-90.9090909090909,4,2,1,65,0,0
55506,-90.9090909090909,4,2,1,65,0,0
56045,-90.9090909090909,4,2,1,25,0,0
56225,-90.9090909090909,4,2,1,70,0,0
56404,-90.9090909090909,4,2,1,20,0,0
57662,-83.3333333333333,4,2,1,65,0,1
63410,-83.3333333333333,4,2,1,50,0,0
63770,-83.3333333333333,4,2,1,55,0,0
64129,-83.3333333333333,4,2,1,60,0,0
64488,-83.3333333333333,4,2,1,65,0,0
64847,-83.3333333333333,4,2,1,70,0,0
65207,-83.3333333333333,4,2,1,75,0,0
65566,-83.3333333333333,4,2,1,80,0,0
65925,-83.3333333333333,4,2,1,70,0,0
66285,-83.3333333333333,4,2,1,80,0,0
67901,-133.333333333333,4,2,1,50,0,0
68261,-133.333333333333,4,2,1,45,0,0
69159,-133.333333333333,4,2,0,40,0,0
72572,-133.333333333333,4,2,0,40,0,0
73291,-133.333333333333,4,2,0,40,0,0
74205,416.666666666667,4,2,0,40,1,0
74205,-133.333333333333,4,2,0,40,0,0
74736,416.666666666667,4,2,0,35,1,0
74736,-200,4,2,0,35,0,0
75986,359.281437125748,4,2,0,30,1,0
77063,-100,4,2,0,25,0,0
77782,-100,4,2,0,20,0,0
78500,-100,4,2,0,15,0,0
79219,-100,4,2,0,10,0,0

[Colours]
Combo1 : 79,79,255
Combo2 : 255,158,62
Combo3 : 255,79,167
Combo4 : 176,140,100
Combo5 : 192,192,192
Combo6 : 255,247,198
Combo7 : 252,255,125

[HitObjects]
64,128,177,5,6,0:0:0:0:
96,224,356,1,0,0:0:0:0:
164,149,536,2,0,L|240:144,1,67.5000025749208,2|0,0:0|0:0,0:0:0:0:
352,96,895,1,2,0:0:0:0:
352,96,1075,2,0,P|368:160|384:176,1,67.5000025749208,0|2,0:0|0:0,0:0:0:0:
304,288,1434,6,0,P|288:224|272:208,1,67.5000025749208,0|2,0:0|0:0,0:0:0:0:
136,265,1794,2,0,P|199:283|221:277,1,67.5000025749208,0|2,0:0|0:0,0:0:0:0:
239,131,2153,2,0,P|191:176|185:198,1,67.5000025749208,0|2,0:0|0:0,0:0:0:0:
344,136,2512,2,0,P|328:72|312:56,1,67.5000025749208,0|2,0:0|0:0,0:0:0:0:
287,224,2871,1,0,0:0:0:0:
368,304,3051,5,2,0:0:0:0:
464,240,3231,1,0,0:0:0:0:
464,240,3410,2,0,L|480:160,1,67.5000025749208,2|0,0:0|0:0,0:0:0:0:
368,48,3770,1,2,0:0:0:0:
368,48,3949,2,0,L|384:128,1,67.5000025749208,0|2,0:0|0:0,0:0:0:0:
192,240,4308,1,0,0:0:0:0:
270,138,4488,5,2,0:0:0:0:
320,256,4668,1,0,0:0:0:0:
242,358,4847,1,2,0:0:0:0:
192,240,5027,2,0,P|144:224|112:224,1,67.5000025749208,0|2,0:0|0:0,0:0:0:0:
0,288,5386,5,0,0:0:0:0:
0,144,5566,2,0,P|48:128|80:128,1,67.5000025749208,2|0,0:0|0:0,0:0:0:0:
208,96,5925,6,0,L|192:16,1,67.5000025749208,2|0,0:0|0:0,0:0:0:0:
288,176,6285,1,2,0:0:0:0:
288,176,6464,2,0,L|272:256,1,67.5000025749208,0|2,0:0|0:0,0:0:0:0:
400,240,6823,2,0,L|477:213,1,67.5000025749208,0|2,0:0|0:0,0:0:0:0:
400,112,7183,2,0,L|338:58,1,67.5000025749208,0|2,0:0|0:0,0:0:0:0:
176,112,7542,5,0,0:0:0:0:
176,112,7722,2,0,L|237:58,1,67.5000025749208,2|0,0:0|0:0,0:0:0:0:
288,192,8081,1,2,0:0:0:0:
160,240,8260,1,0,0:0:0:0:
160,240,8350,1,0,0:0:0:0:
160,240,8440,1,2,0:0:0:0:
108,281,8800,6,0,P|137:264|159:239,1,67.5000025749208,2|0,0:0|0:0,0:0:0:0:
272,304,9159,1,2,0:0:0:0:
272,304,9338,2,0,P|304:336|352:352,1,67.5000025749208,0|2,0:0|0:0,0:0:0:0:
352,176,9698,2,0,P|308:187|270:221,1,67.5000025749208,0|2,0:0|0:0,0:0:0:0:
464,288,10057,6,0,P|512:240|496:128,1,180,6|2,0:0|0:0,0:0:0:0:
352,64,10596,2,0,B|304:80|256:64|256:64|208:48|160:64,1,168.75,6|0,0:0|0:0,0:0:0:0:
112,96,10955,2,0,L|128:160,3,49.5000015106202,2|2|2|2,0:0|0:0|0:0|0:0,0:0:0:0:
144,224,11314,1,2,0:0:0:0:
164,254,11403,1,2,0:0:0:0:
193,277,11493,1,2,0:0:0:0:
228,289,11583,1,2,0:0:0:0:
265,289,11674,6,0,L|359:279,1,90,6|0,0:0|0:0,0:0:0:0:
464,272,12033,1,8,0:0:0:0:
402,182,12213,1,10,0:0:0:0:
354,280,12392,1,0,0:0:0:0:
480,192,12572,2,0,P|472:144|432:112,1,90,0|8,0:0|0:0,0:0:0:0:
323,34,12931,1,2,0:0:0:0:
323,34,13021,1,2,0:0:0:0:
323,34,13111,6,0,P|331:82|371:114,1,90,2|0,0:0|0:0,0:0:0:0:
416,32,13470,1,8,0:0:0:0:
256,128,13650,2,0,L|160:112,1,90,8|0,0:0|0:0,0:0:0:0:
64,224,14009,2,0,L|160:208,1,90,0|8,0:0|0:0,0:0:0:0:
96,32,14368,1,2,0:0:0:0:
96,32,14458,1,2,0:0:0:0:
96,32,14548,6,0,P|64:80|64:144,1,90,2|0,0:0|0:0,0:0:0:0:
64,224,14907,1,8,0:0:0:0:
176,272,15087,1,8,0:0:0:0:
160,160,15267,1,0,0:0:0:0:
192,384,15446,2,0,L|288:368,1,90,0|8,0:0|0:0,0:0:0:0:
432,320,15806,6,0,P|352:288|308:204,1,180,4|0,0:0|0:0,0:0:0:0:
432,192,16344,1,8,0:0:0:0:
432,320,16524,1,4,0:0:0:0:
432,320,16614,1,0,0:0:0:0:
432,320,16704,1,0,0:0:0:0:
512,128,16883,1,0,0:0:0:0:
512,256,17063,1,8,0:0:0:0:
432,64,17243,1,8,0:0:0:0:
306,230,17422,6,0,P|246:237|190:217,1,90,4|0,0:0|0:0,0:0:0:0:
64,144,17782,1,8,0:0:0:0:
64,143,17961,2,0,P|124:136|180:156,1,90,2|0,0:0|0:0,0:0:0:0:
154,318,18320,2,0,P|117:269|107:211,1,90,2|8,0:0|0:0,0:0:0:0:
261,153,18679,2,0,P|237:208|191:246,1,90,6|0,0:0|0:0,0:0:0:0:
216,55,19039,1,0,0:0:0:0:
216,55,19219,2,0,P|276:48|332:68,1,90,12|0,0:0|0:0,0:0:0:0:
384,128,19578,5,4,0:0:0:0:
380,150,19667,1,0,0:0:0:0:
376,172,19757,1,0,0:0:0:0:
372,194,19847,1,0,0:0:0:0:
369,216,19938,5,8,0:0:0:0:
338,202,20027,1,0,0:0:0:0:
305,197,20117,1,0,0:0:0:0:
271,200,20207,1,0,0:0:0:0:
240,212,20297,6,0,L|256:304,1,90,6|2,0:0|0:0,0:0:0:0:
368,352,20656,1,8,0:0:0:0:
368,352,20835,2,0,P|432:320|480:336,1,90,2|0,0:0|0:0,0:0:0:0:
255,301,21195,2,0,P|191:269|143:285,1,90,2|8,0:0|0:0,0:0:0:0:
64,320,21554,6,0,B|48:256|48:256|80:144,1,180,4|6,0:0|0:0,0:0:0:0:
79,146,22003,1,0,0:0:0:0:
79,146,22093,1,12,0:0:0:0:
208,208,22273,1,0,0:0:0:0:
272,80,22452,1,4,0:0:0:0:
160,64,22632,1,0,0:0:0:0:
160,64,22722,1,0,0:0:0:0:
160,64,22811,1,8,0:0:0:0:
320,192,22991,1,0,0:0:0:0:
486,164,23171,6,0,B|496:208|496:208|464:320,1,135.000005149842,6|0,0:0|0:0,0:0:0:0:
400,384,23710,1,2,0:0:0:0:
288,360,23889,2,0,L|208:344,1,67.5000025749208,8|0,0:0|0:0,0:0:0:0:
48,336,24249,2,0,L|128:320,1,67.5000025749208,0|2,0:0|0:0,0:0:0:0:
176,232,24608,6,0,P|192:168|160:104,1,135.000005149842,2|0,0:0|0:0,0:0:0:0:
104,176,25147,1,2,0:0:0:0:
272,160,25326,2,0,L|256:80,1,67.5000025749208,8|0,0:0|0:0,0:0:0:0:
416,48,25686,2,0,L|402:114,1,67.5000025749208,0|2,0:0|0:0,0:0:0:0:
384,240,26045,6,0,P|384:288|416:336,1,90,14|0,0:0|0:0,0:0:0:0:
464,264,26404,1,0,0:0:0:0:
414,135,26584,1,2,0:0:0:0:
304,216,26764,2,0,L|208:224,1,90,10|0,0:0|0:0,0:0:0:0:
64,128,27123,2,0,L|160:136,1,90,2|2,0:0|0:0,0:0:0:0:
176,320,27482,6,0,P|128:288|112:256,1,90,8|0,0:0|0:0,0:0:0:0:
288,336,27841,1,8,0:0:0:0:
303,215,28021,6,0,L|310:171,1,45
328,64,28201,1,8,0:0:0:0:
176,16,28380,6,0,L|182:60,1,45,0|0,0:0|0:0,0:0:0:0:
198,181,28560,1,8,0:0:0:0:
199,192,28649,1,8,0:0:0:0:
201,203,28739,1,8,0:0:0:0:
202,214,28829,1,8,0:0:0:0:
204,225,28919,6,0,P|272:216|320:240,1,90,6|0,0:0|0:0,0:0:0:0:
432,256,29279,1,8,0:0:0:0:
432,256,29458,2,0,P|390:201|386:148,1,90,0|2,0:0|0:0,0:0:0:0:
345,44,29817,2,0,P|318:107|274:136,1,90,0|8,0:0|0:0,0:0:0:0:
204,225,30177,1,0,0:0:0:0:
144,112,30356,5,12,0:0:0:0:
96,256,30536,1,0,0:0:0:0:
252,81,30716,1,8,0:0:0:0:
204,225,30895,1,0,0:0:0:0:
176,16,31075,1,8,0:0:0:0:
10,145,31255,1,0,0:0:0:0:
48,32,31434,1,8,0:0:0:0:
96,256,31614,1,0,0:0:0:0:
252,81,31794,6,0,L|348:97,1,90,12|0,0:0|0:0,0:0:0:0:
496,118,32153,1,8,0:0:0:0:
343,306,32332,1,12,0:0:0:0:
112,32,32692,5,8,0:0:0:0:
192,384,32871,1,0,0:0:0:0:
401,81,33051,1,0,0:0:0:0:
170,255,33231,6,0,B|146:207|114:199|72:231|20:185|64:81|145:131|145:131|182:39|283:122|265:184|200:169|173:185|182:268|236:305|296:285,1,566.999982696534,12|0,0:0|0:0,0:0:0:0:
432,320,34668,6,0,P|456:264|440:208,1,99.0000030212403,12|0,0:0|0:0,0:0:0:0:
384,128,35027,1,8,0:0:0:0:
272,192,35207,2,0,P|308:240|364:254,1,99.0000030212403,0|8,0:0|0:0,0:0:0:0:
280,80,35566,2,0,P|219:87|179:129,1,99.0000030212403,0|8,0:0|0:0,0:0:0:0:
142,306,35925,6,0,L|128:208,1,99.0000030212403,0|8,0:0|0:0,0:0:0:0:
240,384,36285,1,0,0:0:0:0:
320,224,36464,1,8,0:0:0:0:
336,320,36644,1,0,0:0:0:0:
304,128,36823,1,8,0:0:0:0:
244,285,37003,1,0,0:0:0:0:
288,32,37182,1,8,0:0:0:0:
396,163,37362,1,0,0:0:0:0:
128,256,37542,6,0,P|97:217|88:169,1,99.0000030212403,12|0,0:0|0:0,0:0:0:0:
192,112,37901,1,8,0:0:0:0:
88,169,38081,2,0,L|-16:160,1,99.0000030212403,4|8,0:0|0:0,0:0:0:0:
200,104,38440,2,0,L|304:94,1,99.0000030212403,0|8,0:0|0:0,0:0:0:0:
416,16,38800,6,0,P|448:80|384:208,1,198.000006042481,4|0,0:0|0:0,0:0:0:0:
256,240,39338,1,8,0:0:0:0:
200,104,39518,1,0,0:0:0:0:
200,104,39608,1,0,0:0:0:0:
200,104,39698,1,8,0:0:0:0:
7,155,39877,6,0,L|71:171,1,49.5000015106202,0|0,0:0|0:0,0:0:0:0:
304,227,40057,2,0,L|240:243,1,49.5000015106202,8|8,0:0|0:0,0:0:0:0:
212,55,40237,2,0,L|196:119,1,49.5000015106202,8|8,0:0|0:0,0:0:0:0:
123,263,40416,6,0,P|160:320|208:336,1,99.0000030212403,6|0,0:0|0:0,0:0:0:0:
272,192,40776,1,8,0:0:0:0:
400,288,40955,2,0,L|416:176,1,99.0000030212403,0|2,0:0|0:0,0:0:0:0:
432,80,41314,1,0,0:0:0:0:
192,112,41494,1,8,0:0:0:0:
320,144,41674,1,0,0:0:0:0:
284,18,41853,1,2,0:0:0:0:
228,238,42033,5,0,0:0:0:0:
397,310,42213,1,8,0:0:0:0:
192,112,42392,2,0,P|120:165|103:203,1,99.0000030212403,0|2,0:0|0:0,0:0:0:0:
16,144,42752,2,0,P|25:232|50:266,1,99.0000030212403,0|8,0:0|0:0,0:0:0:0:
128,288,43111,5,2,0:0:0:0:
128,288,43201,1,2,0:0:0:0:
128,288,43291,2,0,B|192:256|256:288|256:288|320:320|384:288,1,247.500007553101,4|0,0:0|0:0,0:0:0:0:
336,224,43829,5,2,0:0:0:0:
336,224,43919,1,2,0:0:0:0:
336,224,44009,2,0,P|416:240|356:372,1,269.999991760254,4|0,0:0|0:0,0:0:0:0:
366,295,44548,5,2,0:0:0:0:
366,295,44638,1,2,0:0:0:0:
366,295,44728,2,0,L|512:272,1,116.999994644165,4|0,0:0|0:0,0:0:0:0:
240,192,45087,2,0,L|94:169,1,116.999994644165,0|2,0:0|0:0,0:0:0:0:
416,112,45446,1,4,0:0:0:0:
336,32,45626,5,0,0:0:0:0:
313,66,45715,1,0,0:0:0:0:
304,107,45805,1,0,0:0:0:0:
310,148,45895,1,0,0:0:0:0:
331,185,45985,1,0,0:0:0:0:
363,211,46075,1,0,0:0:0:0:
403,223,46165,6,0,L|512:208,1,99.0000030212403,12|0,0:0|0:0,0:0:0:0:
304,320,46524,1,8,0:0:0:0:
192,224,46704,2,0,P|160:272|160:336,1,99.0000030212403,0|8,0:0|0:0,0:0:0:0:
331,185,47063,1,0,0:0:0:0:
176,56,47243,1,8,0:0:0:0:
64,240,47422,6,0,B|48:160|48:160|64:112|64:112|48:48,1,198.000006042481,4|0,0:0|0:0,0:0:0:0:
64,16,47871,1,0,0:0:0:0:
64,16,47961,1,8,0:0:0:0:
288,96,48141,1,0,0:0:0:0:
144,128,48320,1,8,0:0:0:0:
384,0,48500,1,0,0:0:0:0:
368,224,48679,1,8,0:0:0:0:
200,48,48859,1,0,0:0:0:0:
368,224,49039,6,0,P|416:240|480:208,1,99.0000030212403,12|0,0:0|0:0,0:0:0:0:
460,226,49308,1,0,0:0:0:0:
460,226,49398,1,8,0:0:0:0:
464,48,49578,2,0,P|426:81|421:152,1,99.0000030212403,4|0,0:0|0:0,0:0:0:0:
382,322,49937,2,0,L|366:210,1,99.0000030212403,0|8,0:0|0:0,0:0:0:0:
304,96,50297,6,0,P|288:64|256:144,1,198.000006042481,4|0,0:0|0:0,0:0:0:0:
245,142,50746,1,0,0:0:0:0:
245,142,50835,1,8,0:0:0:0:
176,224,51015,5,0,0:0:0:0:
193,240,51104,1,0,0:0:0:0:
217,248,51194,1,8,0:0:0:0:
192,352,51374,5,0,0:0:0:0:
241,351,51463,1,0,0:0:0:0:
287,336,51554,6,0,P|320:320|352:272,1,49.5000015106202,2|0,0:0|0:0,0:0:0:0:
400,176,51734,2,0,P|397:211|423:263,1,49.5000015106202,2|0,0:0|0:0,0:0:0:0:
480,352,51913,5,6,0:0:0:0:
320,232,52093,1,0,0:0:0:0:
408,312,52273,5,2,0:0:0:0:
320,112,52452,1,0,0:0:0:0:
304,296,52632,5,2,0:0:0:0:
448,96,52811,1,0,0:0:0:0:
192,192,52991,5,2,0:0:0:0:
448,240,53171,1,0,0:0:0:0:
96,288,53350,5,6,0:0:0:0:
336,144,53530,1,0,0:0:0:0:
16,208,53710,5,2,0:0:0:0:
304,32,53889,1,0,0:0:0:0:
176,320,54069,5,2,0:0:0:0:
128,0,54249,1,0,0:0:0:0:
32,320,54428,5,10,0:0:0:0:
368,128,54608,1,8,0:0:0:0:
96,0,54787,6,0,L|112:208,1,198.000006042481,14|0,0:0|0:0,0:0:0:0:
48,272,55326,1,2,0:0:0:0:
48,272,55506,2,0,P|112:296|184:264,2,148.50000453186,12|8|8,0:0|0:0|0:0,0:0:0:0:
208,368,56224,5,12,0:0:0:0:
208,368,57662,6,0,P|272:368|320:320,1,107.999996704102,12|0,0:0|0:0,0:0:0:0:
336,112,58021,2,0,P|304:167|321:232,1,107.999996704102,8|0,0:0|0:0,0:0:0:0:
512,352,58380,1,8,0:0:0:0:
384,176,58560,1,0,0:0:0:0:
304,352,58740,1,8,0:0:0:0:
480,176,58919,6,0,L|464:64,1,107.999996704102,0|8,0:0|0:0,0:0:0:0:
288,16,59279,1,0,0:0:0:0:
272,176,59458,2,0,P|235:228|194:258,1,107.999996704102,8|0,0:0|0:0,0:0:0:0:
48,48,59817,2,0,P|112:80|136:117,1,107.999996704102,8|0,0:0|0:0,0:0:0:0:
16,336,60177,2,0,L|32:224,1,107.999996704102,8|0,0:0|0:0,0:0:0:0:
257,160,60536,5,12,0:0:0:0:
256,304,60716,1,0,0:0:0:0:
123,121,60895,1,8,0:0:0:0:
368,80,61075,1,0,0:0:0:0:
128,256,61255,1,8,0:0:0:0:
224,16,61434,1,0,0:0:0:0:
368,224,61614,1,8,0:0:0:0:
96,112,61794,2,0,B|80:160|80:160|96:240,1,107.999996704102,0|8,0:0|0:0,0:0:0:0:
16,352,62153,1,0,0:0:0:0:
176,304,62332,6,0,P|240:288|304:304,1,107.999996704102,8|0,0:0|0:0,0:0:0:0:
464,288,62692,2,0,P|418:240|400:177,1,107.999996704102,8|0,0:0|0:0,0:0:0:0:
307,47,63051,2,0,P|288:110|243:157,1,107.999996704102,8|0,0:0|0:0,0:0:0:0:
176,176,63320,1,0,0:0:0:0:
176,176,63410,6,0,L|64:160,1,107.999996704102,6|0,0:0|0:0,0:0:0:0:
280,294,63770,2,0,L|392:278,1,107.999996704102,8|0,0:0|0:0,0:0:0:0:
320,144,64129,5,2,0:0:0:0:
128,224,64308,1,0,0:0:0:0:
144,64,64488,1,8,0:0:0:0:
280,294,64668,1,0,0:0:0:0:
272,64,64847,6,0,P|352:60|400:96,1,107.999996704102,2|0,0:0|0:0,0:0:0:0:
176,176,65207,2,0,P|123:185|73:168,1,107.999996704102,8|0,0:0|0:0,0:0:0:0:
136,72,65566,5,2,0:0:0:0:
112,288,65746,1,0,0:0:0:0:
296,134,65925,5,8,0:0:0:0:
320,350,66105,1,0,0:0:0:0:
200,254,66285,5,12,0:0:0:0:
416,230,66465,1,0,0:0:0:0:
288,55,66644,1,8,0:0:0:0:
320,350,66823,1,12,0:0:0:0:
320,350,67183,5,0,0:0:0:0:
109,90,67362,1,8,0:0:0:0:
440,38,67542,1,4,0:0:0:0:
440,38,67901,6,0,L|424:118,1,67.5000025749208,0|0,0:0|0:0,0:0:0:0:
344,189,68261,2,0,P|405:217|472:214,2,135.000005149842,0|0|0,0:0|0:0|0:0,0:0:0:0:
224,176,69159,6,0,L|240:256,1,67.5000025749208,0|0,0:0|0:0,0:0:0:0:
168,304,69518,1,2,0:0:0:0:
168,304,69698,2,0,L|152:224,1,67.5000025749208,0|0,0:0|0:0,0:0:0:0:
128,96,70057,6,0,L|144:176,1,67.5000025749208,0|2,0:0|0:0,0:0:0:0:
56,144,70416,2,0,L|40:64,1,67.5000025749208,0|0,0:0|0:0,0:0:0:0:
216,128,70776,6,0,L|200:48,1,67.5000025749208,0|2,0:0|0:0,0:0:0:0:
288,96,71135,1,0,0:0:0:0:
288,96,71315,2,0,L|304:176,1,67.5000025749208,0|0,0:0|0:0,0:0:0:0:
376,128,71674,2,0,L|392:208,1,67.5000025749208,2|0,0:0|0:0,0:0:0:0:
320,304,72033,6,0,P|368:304|400:288,1,67.5000025749208,0|0,0:0|0:0,0:0:0:0:
248,256,72392,1,2,0:0:0:0:
248,256,72572,2,0,P|200:256|168:240,1,67.5000025749208,0|0,0:0|0:0,0:0:0:0:
48,304,72931,2,0,P|96:304|128:288,1,67.5000025749208,0|2,0:0|0:0,0:0:0:0:
68,204,73291,6,0,L|64:172,2,22.5000008583069,0|0|0,0:0|0:0|0:0,0:0:0:0:
144,64,73650,5,0,0:0:0:0:
144,64,73829,2,0,P|192:96|208:96,1,67.5000025749208,0|0,0:0|0:0,0:0:0:0:
212,184,74205,2,0,P|263:158|284:128,1,67.5000025749208,0|0,0:0|0:0,0:0:0:0:
352,184,74736,2,0,P|354:126|328:88,1,90,0|0,0:0|0:0,0:0:0:0:
339,99,75986,6,0,L|347:19,2,45
280,152,76255,1,0,0:0:0:0:
256,192,76345,12,0,79219,0:0:0:0:
