osu file format v14

[General]
AudioFilename: audio.mp3
AudioLeadIn: 0
PreviewTime: 34488
Countdown: 0
SampleSet: Soft
StackLeniency: 0.5
Mode: 0
LetterboxInBreaks: 0
WidescreenStoryboard: 1

[Editor]
DistanceSpacing: 1
BeatDivisor: 4
GridSize: 8
TimelineZoom: 1.3

[Metadata]
Title:Yuuki wa Doko ni? Kimi no Mune ni! (TV Size)
TitleUnicode:勇気はどこに?君の胸に! (TV Size)
Artist:Aqours
ArtistUnicode:Aqours
Creator:Mitsuna-
Version:Normal
Source:ラブライブ!サンシャイン!!
Tags:Love Live! Sunshine!! 2nd season school idol project yuki Chika Takami 高海千歌 Anju Inami 伊波杏樹 Riko Sakurauchi 桜内梨子 Rikako Aida 逢田梨香子 Kanan Matsuura 松浦果南 Nanaka Suwa 諏訪ななか Dia Kurosawa 黒澤ダイヤ Arisa Komiya 小宮有紗 You Watanabe 渡辺 曜 Shuka Saitou 斉藤朱夏 Yoshiko Tsushima Yohane 津島善子 Aika Kobayashi 小林愛香 Hanamaru Kunikida 国木田花丸 Kanako Takatsuki 高槻かなこ Mari Ohara 小原鞠莉 Aina Suzuki 鈴木愛奈 Ruby Kurosawa 黒澤ルビィ Ai Furihata 降幡 愛 ed ending TV Size where can you find courage? inside your heart! Owens Kami-senpai Cocoaaa -Nitrous Modem Nardoxyribonucleic Faputa rew0825 Hareimu -Hex- Ponchiwi Tenshichan Shiratoi Phyloukz Rhytoly _Meep_
BeatmapID:1444144
BeatmapSetID:679826

[Difficulty]
HPDrainRate:4
CircleSize:3.5
OverallDifficulty:4
ApproachRate:5
SliderMultiplier:1.1
SliderTickRate:1

[Events]
//Background and Video events
0,0,"bg.jpg",0,0
Video,0,"video.avi"
//Break Periods
//Storyboard Layer 0 (Background)
//Storyboard Layer 1 (Fail)
//Storyboard Layer 2 (Pass)
//Storyboard Layer 3 (Foreground)
//Storyboard Sound Samples

[TimingPoints]
177,359.281437125748,4,2,1,40,1,0
177,-111.111111111111,4,2,1,40,0,0
10057,-111.111111111111,4,2,1,60,0,0
10955,-111.111111111111,4,2,1,45,0,0
11674,-111.111111111111,4,2,1,40,0,0
17422,-111.111111111111,4,2,1,35,0,0
20297,-111.111111111111,4,2,1,37,0,0
23171,-111.111111111111,4,2,1,30,0,0
26045,-111.111111111111,4,2,1,35,0,0
27841,-111.111111111111,4,2,1,50,0,0
28919,-111.111111111111,4,2,1,40,0,0
30356,-111.111111111111,4,2,1,50,0,0
31794,-111.111111111111,4,2,1,60,0,0
34668,-100,4,2,1,65,0,1
40416,-100,4,2,1,55,0,0
43290,-111.111111111111,4,2,1,60,0,0
46165,-100,4,2,1,65,0,1
51554,-111.111111111111,4,2,1,60,0,0
54428,-111.111111111111,4,2,1,45,0,0
54788,-111.111111111111,4,2,1,65,0,0
56224,-111.111111111111,4,2,1,75,0,0
57662,-100,4,2,1,65,0,1
63410,-111.111111111111,4,2,1,50,0,0
64129,-111.111111111111,4,2,1,60,0,0
64847,-111.111111111111,4,2,1,70,0,0
66285,-111.111111111111,4,2,1,75,0,0
69159,-117.647058823529,4,2,0,25,0,0
74205,416.666666666667,4,2,0,20,1,0
74736,416.666666666667,4,2,0,15,1,0
74736,-117.647058823529,4,2,0,15,0,0
75986,359.281437125748,4,2,0,50,1,0
76704,-100,4,2,0,40,0,0
77423,-100,4,2,0,30,0,0
78141,-100,4,2,0,20,0,0
78860,-100,4,2,0,10,0,0
79219,-100,4,2,0,5,0,0

[Colours]
Combo1 : 79,79,255
Combo2 : 255,158,62
Combo3 : 255,79,167
Combo4 : 176,140,100
Combo5 : 192,192,192
Combo6 : 255,247,198
Combo7 : 252,255,125

[HitObjects]
116,72,177,6,0,P|164:56|212:72,1,98.9999969787598,6|2,0:0|0:0,0:0:0:0:
234,111,715,1,0,0:0:0:0:
234,111,895,2,0,L|295:100,1,49.4999984893799,2|0,0:0|0:0,0:0:0:0:
371,58,1434,2,0,L|355:170,1,98.9999969787599,0|0,0:0|0:0,0:0:0:0:
297,235,2153,2,0,P|342:253|391:248,2,98.9999969787599,0|0|0,0:0|0:0|0:0,0:0:0:0:
250,218,3051,2,0,P|201:213|155:232,1,98.9999969787599,2|2,0:0|0:0,0:0:0:0:
111,253,3590,1,0,0:0:0:0:
111,253,3769,6,0,L|119:197,1,49.4999984893799,2|0,0:0|0:0,0:0:0:0:
78,113,4308,2,0,P|126:122|173:109,1,98.9999969787599,0|0,0:0|0:0,0:0:0:0:
213,80,4847,2,0,L|266:87,1,49.4999984893799,2|0,0:0|0:0,0:0:0:0:
311,84,5206,2,0,L|360:77,2,49.4999984893799,2|0|2,0:0|0:0|0:0,0:0:0:0:
246,160,5925,6,0,P|250:217|229:258,1,98.9999969787599,2|2,0:0|0:0,0:0:0:0:
267,288,6464,2,0,P|261:345|281:386,1,98.9999969787599,0|0,0:0|0:0,0:0:0:0:
375,354,7182,2,0,P|384:306|366:261,1,98.9999969787599,0|0,0:0|0:0,0:0:0:0:
415,257,7721,2,0,P|464:249|505:216,2,98.9999969787599,2|2|2,0:0|0:0|0:0,0:0:0:0:
426,158,8799,6,0,P|393:117|344:100,1,98.9999969787599,2|2,0:0|0:0,0:0:0:0:
306,123,9338,2,0,P|242:107|216:68,1,98.9999969787599,0|0,0:0|0:0,0:0:0:0:
184,51,9877,1,2,0:0:0:0:
149,86,10057,6,0,P|158:156|122:241,1,148.49999546814,6|6,0:0|0:0,0:0:0:0:
57,295,10955,2,0,P|134:281|169:290,1,98.9999969787599,2|2,0:0|0:0,0:0:0:0:
200,298,11494,1,2,0:0:0:0:
247,311,11674,6,0,B|295:327|295:327|344:313,1,98.9999969787599,6|8,0:0|0:0,0:0:0:0:
389,300,12212,1,10,0:0:0:0:
436,286,12392,2,0,P|465:234|452:178,1,98.9999969787599,0|8,0:0|0:0,0:0:0:0:
413,181,12931,2,0,P|384:129|396:73,1,98.9999969787599,2|0,0:0|0:0,0:0:0:0:
298,46,13650,2,0,B|249:69|202:46,1,98.9999969787599,8|0,0:0|0:0,0:0:0:0:
56,0,14368,5,2,0:0:0:0:
104,24,14548,2,0,P|117:71|105:118,1,98.9999969787599,2|8,0:0|0:0,0:0:0:0:
81,163,15087,1,8,0:0:0:0:
58,206,15266,2,0,P|45:253|57:300,1,98.9999969787599,0|8,0:0|0:0,0:0:0:0:
101,323,15805,6,0,B|149:339|149:339|201:326,1,98.9999969787599,4|0,0:0|0:0,0:0:0:0:
244,316,16344,1,8,0:0:0:0:
292,308,16524,2,0,B|308:302|308:302|316:352|360:384|415:379,1,148.49999546814,4|8,0:0|0:0,0:0:0:0:
401,283,17422,6,0,L|430:137,1,148.49999546814,4|2,0:0|0:0,0:0:0:0:
456,41,18320,1,2,0:0:0:0:
456,41,18679,2,0,P|387:45|333:107,1,148.49999546814,6|12,0:0|0:0,0:0:0:0:
263,171,19578,2,0,L|263:235,2,49.4999984893799,4|0|8,0:0|0:0|0:0,0:0:0:0:
183,119,20296,6,0,P|139:58|68:45,1,148.49999546814,6|2,0:0|0:0,0:0:0:0:
70,44,21194,1,2,0:0:0:0:
94,140,21554,2,0,L|113:236,1,98.9999969787599,4|6,0:0|0:0,0:0:0:0:
123,285,22093,1,12,0:0:0:0:
217,252,22452,2,0,P|265:236|313:252,1,98.9999969787599,4|8,0:0|0:0,0:0:0:0:
400,208,23171,6,0,P|446:102|400:41,1,197.99999395752,6|8,0:0|0:0,0:0:0:0:
355,129,24248,1,0,0:0:0:0:
355,129,24608,2,0,B|307:97|259:129|259:129|211:161|147:129,1,197.99999395752,2|8,0:0|0:0,0:0:0:0:
86,82,25685,1,0,0:0:0:0:
86,82,26045,6,0,L|102:242,1,148.49999546814,14|2,0:0|0:0,0:0:0:0:
108,278,26763,1,10,0:0:0:0:
189,221,27123,1,2,0:0:0:0:
272,280,27482,2,0,P|272:232|287:172,2,98.9999969787599,8|8|8,0:0|0:0|0:0,0:0:0:0:
359,242,28560,1,8,0:0:0:0:
436,187,28919,6,0,L|388:91,1,98.9999969787599,6|8,0:0|0:0,0:0:0:0:
335,16,29638,2,0,P|298:61|293:111,1,98.9999969787599,2|8,0:0|0:0,0:0:0:0:
200,137,30356,2,0,P|137:124|105:134,2,98.9999969787599,12|8|8,0:0|0:0|0:0,0:0:0:0:
150,223,31434,1,8,0:0:0:0:
53,248,31793,6,0,P|87:303|172:322,1,148.49999546814,12|12,0:0|0:0,0:0:0:0:
262,307,32691,1,8,0:0:0:0:
262,307,32871,2,0,B|271:361,2,49.4999984893799,0|0|12,0:0|0:0|0:0,0:0:0:0:
432,192,34668,6,0,L|448:320,2,110,12|8|8,0:0|0:0|0:0,0:0:0:0:
449,83,35745,1,8,0:0:0:0:
449,83,35925,2,0,P|363:103|339:128,1,110,0|0,0:0|0:0,0:0:0:0:
313,158,36464,1,8,0:0:0:0:
250,247,36823,2,0,P|186:247|138:215,1,110,8|8,0:0|0:0,0:0:0:0:
63,152,37542,6,0,L|79:40,2,110,12|8|8,0:0|0:0|0:0,0:0:0:0:
89,258,38620,1,8,0:0:0:0:
89,258,38799,2,0,P|146:240|200:263,1,110,4|0,0:0|0:0,0:0:0:0:
246,257,39338,1,8,0:0:0:0:
341,311,39697,2,0,P|356:253|340:200,1,110,8|8,0:0|0:0,0:0:0:0:
389,175,40236,1,8,0:0:0:0:
432,141,40416,6,0,P|387:103|329:96,1,110,6|8,0:0|0:0,0:0:0:0:
266,180,41135,2,0,P|212:170|171:134,1,110,2|8,0:0|0:0,0:0:0:0:
85,66,41853,2,0,P|97:123|76:177,1,110,2|8,0:0|0:0,0:0:0:0:
178,221,42572,2,0,P|166:278|187:332,1,110,2|8,0:0|0:0,0:0:0:0:
263,268,43290,6,0,P|339:299|367:356,1,148.49999546814,4|2,0:0|0:0,0:0:0:0:
374,306,44009,2,0,P|430:244|492:238,1,148.49999546814,4|2,0:0|0:0,0:0:0:0:
446,214,44727,2,0,P|407:140|423:79,1,148.49999546814,4|2,0:0|0:0,0:0:0:0:
384,114,45446,2,0,P|301:124|249:89,1,148.49999546814,4|0,0:0|0:0,0:0:0:0:
202,60,46165,6,0,B|186:108|186:108|202:172,1,110,12|8,0:0|0:0,0:0:0:0:
299,212,46883,2,0,B|315:260|315:260|299:324,1,110,8|8,0:0|0:0,0:0:0:0:
245,318,47422,2,0,P|178:325|126:299,1,110,4|0,0:0|0:0,0:0:0:0:
96,275,47961,1,8,0:0:0:0:
80,166,48320,1,8,0:0:0:0:
189,172,48679,1,8,0:0:0:0:
136,72,49039,6,0,B|180:47|180:47|246:52,1,110,12|8,0:0|0:0,0:0:0:0:
238,106,49578,2,0,B|308:115|308:115|395:78,1,165,4|8,0:0|0:0,0:0:0:0:
441,99,50296,2,0,P|499:138|467:321,1,275,4|8,0:0|0:0,0:0:0:0:
373,310,51554,1,2,0:0:0:0:
405,216,51913,6,0,L|329:149,1,98.9999969787599,6|2,0:0|0:0,0:0:0:0:
260,80,52632,2,0,P|214:94|166:80,1,98.9999969787599,2|2,0:0|0:0,0:0:0:0:
79,32,53350,2,0,P|92:78|79:127,1,98.9999969787599,6|2,0:0|0:0,0:0:0:0:
9,191,54069,2,0,P|-1:240|12:287,1,98.9999969787599,2|10,0:0|0:0,0:0:0:0:
55,310,54608,1,8,0:0:0:0:
103,323,54787,6,0,B|232:335|232:335|303:293,1,197.99999395752,14|12,0:0|0:0,0:0:0:0:
336,104,56224,1,12,0:0:0:0:
336,104,57662,6,0,P|274:119|224:104,1,110,12|8,0:0|0:0,0:0:0:0:
177,93,58200,1,0,0:0:0:0:
125,75,58380,2,0,P|140:127|128:180,1,110,8|8,0:0|0:0,0:0:0:0:
92,283,59099,2,0,P|144:267|197:279,1,110,8|8,0:0|0:0,0:0:0:0:
294,329,59817,2,0,P|306:281|292:221,1,110,8|8,0:0|0:0,0:0:0:0:
402,208,60536,6,0,P|378:148|397:87,1,110,12|8,0:0|0:0,0:0:0:0:
414,57,61075,1,0,0:0:0:0:
365,31,61254,2,8,P|315:46|255:35,1,110,8|8,0:0|0:0,0:0:0:0:
204,125,61973,2,0,P|148:141|92:125,1,110,8|8,0:0|0:0,0:0:0:0:
60,231,62691,2,0,P|116:215|172:231,1,110,8|8,0:0|0:0,0:0:0:0:
258,272,63410,6,0,P|302:285|354:272,1,98.9999969787599,6|8,0:0|0:0,0:0:0:0:
381,232,63949,1,0,0:0:0:0:
403,187,64129,2,0,P|352:172|306:184,1,98.9999969787599,2|8,0:0|0:0,0:0:0:0:
210,168,64847,2,0,P|158:181|113:170,1,98.9999969787599,2|8,0:0|0:0,0:0:0:0:
66,84,65566,2,0,P|120:71|162:84,1,98.9999969787599,2|8,0:0|0:0,0:0:0:0:
210,168,66284,5,6,0:0:0:0:
353,205,66823,2,0,P|309:227|283:270,1,98.9999969787599,2|8,0:0|0:0,0:0:0:0:
376,302,67542,1,4,0:0:0:0:
128,96,69159,6,0,L|80:48,2,46.7500008916855,0|0|2,0:0|0:0|0:0,0:0:0:0:
160,129,69697,2,0,P|176:177|160:225,1,93.500001783371,0|0,0:0|0:0,0:0:0:0:
133,251,70236,1,2,0:0:0:0:
133,251,70416,2,0,B|165:235|197:251|197:251|229:267|277:251,1,140.250002675057,0|2,0:0|0:0,0:0:0:0:
350,299,71314,2,0,P|361:250|348:204,1,93.500001783371,0|2,0:0|0:0,0:0:0:0:
337,116,72033,6,0,P|289:132|241:116,1,93.500001783371,0|2,0:0|0:0,0:0:0:0:
207,99,72572,2,0,P|159:83|111:99,1,93.500001783371,0|0,0:0|0:0,0:0:0:0:
80,119,73111,1,2,0:0:0:0:
80,119,73290,2,0,B|96:167|96:167|80:215,1,93.500001783371,0|0,0:0|0:0,0:0:0:0:
112,243,73829,6,0,L|168:243,1,46.7500008916855,0|0,0:0|0:0,0:0:0:0:
208,227,74205,6,0,L|272:227,1,55,0|0,0:0|0:0,0:0:0:0:
343,279,74736,6,0,L|436:279,1,93.500001783371,0|0,0:0|0:0,0:0:0:0:
256,192,75986,12,0,79219,0:0:0:0:
