osu file format v14

[General]
AudioFilename: audio.mp3
AudioLeadIn: 0
PreviewTime: 34488
Countdown: 0
SampleSet: Soft
StackLeniency: 0.7
Mode: 0
LetterboxInBreaks: 0
WidescreenStoryboard: 1

[Editor]
DistanceSpacing: 1
BeatDivisor: 4
GridSize: 8
TimelineZoom: 1.7

[Metadata]
Title:Yuuki wa Doko ni? Kimi no Mune ni! (TV Size)
TitleUnicode:勇気はどこに?君の胸に! (TV Size)
Artist:Aqours
ArtistUnicode:Aqours
Creator:Mitsuna-
Version:Nitrous' Easy
Source:ラブライブ!サンシャイン!!
Tags:Love Live! Sunshine!! 2nd season school idol project yuki Chika Takami 高海千歌 Anju Inami 伊波杏樹 Riko Sakurauchi 桜内梨子 Rikako Aida 逢田梨香子 Kanan Matsuura 松浦果南 Nanaka Suwa 諏訪ななか Dia Kurosawa 黒澤ダイヤ Arisa Komiya 小宮有紗 You Watanabe 渡辺 曜 Shuka Saitou 斉藤朱夏 Yoshiko Tsushima Yohane 津島善子 Aika Kobayashi 小林愛香 Hanamaru Kunikida 国木田花丸 Kanako Takatsuki 高槻かなこ Mari Ohara 小原鞠莉 Aina Suzuki 鈴木愛奈 Ruby Kurosawa 黒澤ルビィ Ai Furihata 降幡 愛 ed ending TV Size where can you find courage? inside your heart! Owens Kami-senpai Cocoaaa -Nitrous Modem Nardoxyribonucleic Faputa rew0825 Hareimu -Hex- Ponchiwi Tenshichan Shiratoi Phyloukz Rhytoly _Meep_
BeatmapID:1463461
BeatmapSetID:679826

[Difficulty]
HPDrainRate:2
CircleSize:2.7
OverallDifficulty:2
ApproachRate:3
SliderMultiplier:0.9
SliderTickRate:1

[Events]
//Background and Video events
0,0,"bg.jpg",0,0
Video,0,"video.avi"
//Break Periods
//Storyboard Layer 0 (Background)
//Storyboard Layer 1 (Fail)
//Storyboard Layer 2 (Pass)
//Storyboard Layer 3 (Foreground)
//Storyboard Sound Samples

[TimingPoints]
177,359.281437125748,4,2,1,40,1,0
177,-100,4,2,1,40,0,0
10057,-100,4,2,1,60,0,0
10955,-100,4,2,1,45,0,0
11674,-100,4,2,1,40,0,0
17422,-100,4,2,1,35,0,0
20297,-100,4,2,1,37,0,0
23171,-100,4,2,1,30,0,0
26045,-100,4,2,1,35,0,0
27841,-100,4,2,1,50,0,0
28919,-100,4,2,1,40,0,0
30356,-100,4,2,1,50,0,0
31794,-100,4,2,1,60,0,0
34668,-100,4,2,1,65,0,1
40416,-100,4,2,1,55,0,0
43290,-100,4,2,1,60,0,0
46165,-100,4,2,1,65,0,1
51554,-100,4,2,1,60,0,0
54428,-100,4,2,1,45,0,0
54788,-100,4,2,1,65,0,0
55506,-100,4,2,1,65,0,0
56404,-100,4,2,1,20,0,0
57662,-100,4,2,1,65,0,1
63410,-100,4,2,1,50,0,0
64129,-100,4,2,1,60,0,0
64847,-100,4,2,1,70,0,0
66285,-100,4,2,1,75,0,0
69159,-100,4,2,1,25,0,0
74205,416.666666666667,4,2,1,20,1,0
74736,416.666666666667,4,2,1,15,1,0
75152,-100,4,2,1,5,0,0
75986,359.281437125748,4,2,1,10,1,0
79219,-100,4,2,1,5,0,0

[Colours]
Combo1 : 79,79,255
Combo2 : 255,158,62
Combo3 : 255,79,167
Combo4 : 176,140,100
Combo5 : 192,192,192
Combo6 : 255,247,198
Combo7 : 252,255,125

[HitObjects]
70,323,177,5,6,0:0:0:0:
146,274,536,2,0,B|235:261|235:261|290:282,1,135,2|0,0:0|0:0,0:0:0:0:
356,319,1434,1,0,0:0:0:0:
438,282,1793,2,0,P|449:235|437:188,1,90,0|2,0:0|0:0,0:0:0:0:
407,110,2512,2,0,L|412:56,1,45
320,65,3051,5,2,0:0:0:0:
247,12,3410,2,0,P|231:82|273:143,1,135,2|2,0:0|0:0,0:0:0:0:
319,202,4308,2,0,B|363:194|363:194|412:201,1,90,2|2,0:0|0:0,0:0:0:0:
488,241,5027,1,0,0:0:0:0:
411,288,5386,2,0,L|404:342,1,45,2|0,0:0|0:0,0:0:0:0:
316,346,5925,5,2,0:0:0:0:
232,312,6284,2,0,P|195:352|112:346,1,135,2|0,0:0|0:0,0:0:0:0:
49,292,7182,1,0,0:0:0:0:
85,209,7542,2,0,L|80:54,1,135,0|2,0:0|0:0,0:0:0:0:
155,24,8440,5,2,0:0:0:0:
214,92,8799,2,0,B|302:82|302:82|330:130,1,135,2|0,0:0|0:0,0:0:0:0:
286,203,9697,1,0,0:0:0:0:
366,242,10057,2,0,P|458:199|457:153,1,135,6|6,0:0|0:0,0:0:0:0:
415,100,10955,2,0,L|419:55,2,45,2|2|2,0:0|0:0|0:0,0:0:0:0:
335,142,11674,5,6,0:0:0:0:
263,86,12033,2,0,B|176:68|176:68|132:89,1,135,8|0,0:0|0:0,0:0:0:0:
61,140,12931,2,0,B|58:249,1,90,2|0,0:0|0:0,0:0:0:0:
106,307,13650,2,0,P|163:340|229:328,1,135,8|8,0:0|0:0,0:0:0:0:
281,255,14548,5,2,0:0:0:0:
241,174,14907,2,0,B|153:188|153:188|93:165,1,135,8|0,0:0|0:0,0:0:0:0:
29,211,15805,2,0,P|19:165|33:122,1,90,4|0,0:0|0:0,0:0:0:0:
92,58,16524,2,0,B|180:49|180:49|239:61,1,135,4|8,0:0|0:0,0:0:0:0:
279,130,17422,6,0,P|246:219|202:235,1,135,4|2,0:0|0:0,0:0:0:0:
194,145,18320,1,2,0:0:0:0:
132,210,18679,2,0,B|77:203|77:203|53:210|53:210|-10:202,1,135,6|12,0:0|0:0,0:0:0:0:
0,112,19578,2,0,L|8:64,2,45,4|0|8,0:0|0:0|0:0,0:0:0:0:
93,101,20296,6,0,P|97:188|141:212,1,135,6|2,0:0|0:0,0:0:0:0:
210,253,21194,1,2,0:0:0:0:
267,322,21554,2,0,B|362:317|362:317|399:283,1,135,4|12,0:0|0:0,0:0:0:0:
414,202,22452,2,0,L|418:145,2,45,4|0|8,0:0|0:0|0:0,0:0:0:0:
327,175,23171,6,0,B|195:148|195:148|140:161,1,180,6|8,0:0|0:0,0:0:0:0:
257,311,24608,2,0,P|336:235|326:174,1,180,2|8,0:0|0:0,0:0:0:0:
146,186,26045,6,0,B|209:300|209:300|258:311,1,180,14|10,0:0|0:0,0:0:0:0:
342,339,27123,1,2,0:0:0:0:
411,279,27482,2,0,P|421:236|406:182,1,90,8|8,0:0|0:0,0:0:0:0:
332,147,28200,2,0,P|322:190|337:244,1,90,8|8,0:0|0:0,0:0:0:0:
411,279,28919,5,6,0:0:0:0:
333,324,29278,2,0,L|243:330,2,90,8|2|8,0:0|0:0|0:0,0:0:0:0:
411,279,30356,2,0,L|500:284,1,90,12|8,0:0|0:0,0:0:0:0:
508,194,31075,2,0,L|402:187,1,90,8|8,0:0|0:0,0:0:0:0:
256,192,31793,12,12,33230,0:0:0:0:
163,137,34668,6,0,L|60:130,2,90,12|8|8,0:0|0:0|0:0,0:0:0:0:
243,176,35745,1,8,0:0:0:0:
316,227,36105,2,0,L|416:216,1,90,8|8,0:0|0:0,0:0:0:0:
402,127,36823,2,0,L|302:116,1,90,8|8,0:0|0:0,0:0:0:0:
249,52,37542,6,0,B|161:42|161:42|114:73,1,135,12|4,0:0|0:0,0:0:0:0:
183,134,38440,1,0,0:0:0:0:
272,146,38799,2,0,P|280:187|209:258,1,135,4|8,0:0|0:0,0:0:0:0:
144,214,39697,2,0,B|97:205|97:205|48:215,1,90,8|8,0:0|0:0,0:0:0:0:
96,293,40416,6,0,B|109:221|109:221|94:189|94:189|107:81,1,180,6|2,0:0|0:0,0:0:0:0:
169,56,41494,1,8,0:0:0:0:
258,47,41853,2,0,P|356:97|356:163,1,180,2|0,0:0|0:0,0:0:0:0:
297,222,42931,1,8,0:0:0:0:
239,290,43290,6,0,B|152:270|152:270|59:295,2,180,4|4|4,0:0|0:0|0:0,0:0:0:0:
320,251,45087,1,0,0:0:0:0:
240,202,45446,2,0,P|231:245|243:301,1,90,4|0,0:0|0:0,0:0:0:0:
314,338,46165,5,12,0:0:0:0:
397,303,46524,2,0,B|486:281|486:281|496:238,1,135,8|0,0:0|0:0,0:0:0:0:
488,148,47422,2,0,P|476:120|353:107,1,135,4|8,0:0|0:0,0:0:0:0:
296,65,48320,2,0,P|251:71|207:62,1,90,8|8,0:0|0:0,0:0:0:0:
129,17,49039,6,0,B|114:64|114:64|135:160,1,135,12|4,0:0|0:0,0:0:0:0:
174,227,49937,1,0,0:0:0:0:
256,192,50296,2,0,P|309:205|331:288,1,135,4|8,0:0|0:0,0:0:0:0:
287,351,51194,2,0,L|219:347,2,45,8|0|2,0:0|0:0|0:0,0:0:0:0:
376,356,51913,5,6,0:0:0:0:
443,297,52272,2,0,L|446:192,1,90,2|2,0:0|0:0,0:0:0:0:
488,127,52991,1,2,0:0:0:0:
419,68,53350,5,6,0:0:0:0:
338,107,53709,2,0,L|241:102,1,90,2|2,0:0|0:0,0:0:0:0:
163,133,54428,2,0,L|169:182,1,45,10|8,0:0|0:0,0:0:0:0:
203,205,54787,6,0,P|145:197|97:310,2,180,14|12|12,0:0|0:0|0:0,0:0:0:0:
203,205,57662,6,0,L|309:197,1,90,12|8,0:0|0:0,0:0:0:0:
342,123,58380,2,0,L|401:127,2,45,8|0|8,0:0|0:0|0:0,0:0:0:0:
287,50,59099,1,8,0:0:0:0:
200,72,59458,1,8,0:0:0:0:
193,160,59817,2,0,L|204:213,2,45,8|0|8,0:0|0:0|0:0,0:0:0:0:
103,146,60536,6,0,L|96:248,1,90,12|8,0:0|0:0,0:0:0:0:
67,320,61254,2,0,L|9:311,2,45,8|0|8,0:0|0:0|0:0,0:0:0:0:
151,351,61973,1,8,0:0:0:0:
225,300,62332,1,8,0:0:0:0:
303,343,62691,2,0,L|358:337,2,45,8|0|8,0:0|0:0|0:0,0:0:0:0:
225,300,63410,6,0,P|235:251|221:202,1,90,6|8,0:0|0:0,0:0:0:0:
148,167,64129,2,0,P|138:216|152:265,1,90,2|8,0:0|0:0,0:0:0:0:
225,300,64847,1,2,0:0:0:0:
304,257,65206,2,0,L|407:251,1,90,8|2,0:0|0:0,0:0:0:0:
456,187,65925,1,8,0:0:0:0:
410,109,66284,6,0,P|394:79|237:110,1,225,12|0,0:0|0:0,0:0:0:0:
271,190,67542,1,4,0:0:0:0:
206,252,67901,2,0,L|160:245,2,45,0|0|0,0:0|0:0|0:0,0:0:0:0:
264,320,68620,1,0,0:0:0:0:
390,272,69159,6,0,B|398:183|398:183|381:133,1,135,0|0,0:0|0:0,0:0:0:0:
313,82,70057,1,0,0:0:0:0:
244,140,70416,2,0,B|200:159|160:135|160:135|120:111|56:119|35:193|67:254|142:233,1,315,0|2,0:0|0:0,0:0:0:0:
182,308,72033,6,0,P|275:351|220:234,1,315
256,192,73650,12,0,75152,0:0:0:0:
256,192,76165,12,0,79219,0:0:0:0:
