osu file format v14

[General]
AudioFilename: audio.mp3
AudioLeadIn: 0
PreviewTime: 34488
Countdown: 0
SampleSet: Soft
StackLeniency: 0.7
Mode: 0
LetterboxInBreaks: 0
WidescreenStoryboard: 0

[Editor]
DistanceSpacing: 1.2
BeatDivisor: 4
GridSize: 4
TimelineZoom: 1.8

[Metadata]
Title:Yuuki wa Doko ni? Kimi no Mune ni! (TV Size)
TitleUnicode:勇気はどこに?君の胸に! (TV Size)
Artist:Aqours
ArtistUnicode:Aqours
Creator:Mitsuna-
Version:Insane
Source:ラブライブ!サンシャイン!!
Tags:Love Live! Sunshine!! 2nd season school idol project yuki Chika Takami 高海千歌 Anju Inami 伊波杏樹 Riko Sakurauchi 桜内梨子 Rikako Aida 逢田梨香子 Kanan Matsuura 松浦果南 Nanaka Suwa 諏訪ななか Dia Kurosawa 黒澤ダイヤ Arisa Komiya 小宮有紗 You Watanabe 渡辺 曜 Shuka Saitou 斉藤朱夏 Yoshiko Tsushima Yohane 津島善子 Aika Kobayashi 小林愛香 Hanamaru Kunikida 国木田花丸 Kanako Takatsuki 高槻かなこ Mari Ohara 小原鞠莉 Aina Suzuki 鈴木愛奈 Ruby Kurosawa 黒澤ルビィ Ai Furihata 降幡 愛 ed ending TV Size where can you find courage? inside your heart! Owens Kami-senpai Cocoaaa -Nitrous Modem Nardoxyribonucleic Faputa rew0825 Hareimu -Hex- Ponchiwi Tenshichan Shiratoi Phyloukz Rhytoly _Meep_
BeatmapID:1437586
BeatmapSetID:679826

[Difficulty]
HPDrainRate:6
CircleSize:4
OverallDifficulty:7.5
ApproachRate:9
SliderMultiplier:1.8
SliderTickRate:1

[Events]
//Background and Video events
0,0,"bg.jpg",0,0
Video,0,"video.avi"
//Break Periods
//Storyboard Layer 0 (Background)
//Storyboard Layer 1 (Fail)
//Storyboard Layer 2 (Pass)
//Storyboard Layer 3 (Foreground)
//Storyboard Sound Samples

[TimingPoints]
177.26217629307,359.281437125748,4,2,1,45,1,0
10057,-80,4,2,1,60,0,0
10955,-90.9090909090909,4,2,1,45,0,0
11314,-166.666666666667,4,2,1,45,0,0
11674,-125,4,2,1,45,0,0
14907,-111.111111111111,4,2,1,50,0,0
17063,-142.857142857143,4,2,1,55,0,0
17422,-111.111111111111,4,2,1,40,0,0
19578,-117.647058823529,4,2,1,35,0,0
20297,-111.111111111111,4,2,1,45,0,0
23171,-142.857142857143,4,2,1,40,0,0
26045,-133.333333333333,4,2,1,45,0,0
27482,-142.857142857143,4,2,1,50,0,0
27841,-125,4,2,1,55,0,0
28201,-111.111111111111,4,2,1,55,0,0
28919,-111.111111111111,4,2,1,50,0,0
30356,-111.111111111111,4,2,1,55,0,0
30716,-111.111111111111,4,2,1,60,0,0
31075,-111.111111111111,4,2,1,65,0,0
31434,-111.111111111111,4,2,1,70,0,0
31794,-111.111111111111,4,2,1,75,0,0
32692,-111.111111111111,4,2,1,75,0,0
33320,-111.111111111111,4,2,1,25,0,0
34668,-83.3333333333333,4,2,1,80,0,1
40416,-99.9999999999999,4,2,1,60,0,0
43111,-125,4,2,1,65,0,0
43829,-111.111111111111,4,2,1,70,0,0
44548,-100,4,2,1,75,0,0
45267,-90.9090909090909,4,2,1,80,0,0
46165,-83.3333333333333,4,2,1,80,0,1
51554,-90.9090909090908,4,2,1,60,0,0
51823,-111.111111111111,4,2,1,5,0,0
51913,-111.111111111111,4,2,1,60,0,0
52183,-111.111111111111,4,2,1,5,0,0
52273,-111.111111111111,4,2,1,60,0,0
52542,-111.111111111111,4,2,1,5,0,0
52632,-111.111111111111,4,2,1,60,0,0
52901,-111.111111111111,4,2,1,5,0,0
52991,-90.9090909090908,4,2,1,60,0,0
53261,-111.111111111111,4,2,1,5,0,0
53350,-111.111111111111,4,2,1,60,0,0
53620,-111.111111111111,4,2,1,5,0,0
53710,-111.111111111111,4,2,1,60,0,0
53979,-111.111111111111,4,2,1,5,0,0
54069,-111.111111111111,4,2,1,60,0,0
54338,-111.111111111111,4,2,1,5,0,0
54428,-111.111111111111,4,2,1,45,0,0
54608,-111.111111111111,4,2,1,55,0,0
54788,-142.857142857143,4,2,1,65,0,0
55506,-111.111111111111,4,2,1,65,0,0
56045,-142.857142857143,4,2,1,25,0,0
56225,-142.857142857143,4,2,1,70,0,0
56404,-142.857142857143,4,2,1,25,0,0
57662,-90.909090909091,4,2,1,65,0,1
63410,-100,4,2,1,55,0,0
63770,-100,4,2,1,60,0,0
64129,-100,4,2,1,65,0,0
64488,-100,4,2,1,70,0,0
64847,-90.9090909090909,4,2,1,75,0,0
65207,-90.9090909090909,4,2,1,80,0,0
65566,-90.9090909090909,4,2,1,85,0,0
65925,-90.9090909090909,4,2,1,70,0,0
66285,-111.111111111111,4,2,1,80,0,0
67901,-111.111111111111,4,2,1,50,0,0
68261,-133.333333333333,4,2,1,45,0,0
69159,-166.666666666667,4,2,0,20,0,0
72572,-181.818181818182,4,2,0,20,0,0
73291,-200,4,2,0,20,0,0
74205,416.666666666667,4,2,0,20,1,0
74205,-166.666666666667,4,2,0,20,0,0
74736,416.666666666667,4,2,0,20,1,0
74736,-200,4,2,0,20,0,0
75986,359.281437125748,4,2,0,25,1,0
76704,-100,4,2,0,20,0,0
77423,-100,4,2,0,15,0,0
78141,-100,4,2,0,10,0,0
78860,-100,4,2,0,5,0,0

[Colours]
Combo1 : 79,79,255
Combo2 : 255,158,62
Combo3 : 255,79,167
Combo4 : 176,140,100
Combo5 : 192,192,192
Combo6 : 255,247,198
Combo7 : 252,255,125

[HitObjects]
40,120,177,5,6,0:0:0:0:
88,210,356,1,0,0:0:0:0:
161,131,536,2,0,P|191:180|194:224,1,90,2|0,0:0|0:0,0:0:0:0:
248,305,895,1,2,0:0:0:0:
304,212,1075,1,0,0:0:0:0:
377,291,1255,2,0,P|403:252|411:202,1,90,2|0,0:0|0:0,0:0:0:0:
348,121,1614,5,2,0:0:0:0:
433,54,1794,1,0,0:0:0:0:
327,31,1973,2,0,P|275:66|259:101,1,90,2|0,0:0|0:0,0:0:0:0:
186,165,2332,1,2,0:0:0:0:
112,85,2512,1,0,0:0:0:0:
94,191,2692,2,0,P|128:241|171:260,1,90,2|0,0:0|0:0,0:0:0:0:
260,228,3051,5,2,0:0:0:0:
260,336,3231,1,0,0:0:0:0:
348,276,3410,2,0,P|358:235|349:186,1,90,2|0,0:0|0:0,0:0:0:0:
260,124,3770,1,2,0:0:0:0:
208,28,3949,1,0,0:0:0:0:
316,44,4129,2,0,P|351:86|356:131,1,90,2|0,0:0|0:0,0:0:0:0:
253,184,4488,5,2,0:0:0:0:
253,184,4668,2,0,P|297:211|324:264,1,90,0|2,0:0|0:0,0:0:0:0:
150,210,5027,2,0,P|154:141|184:102,1,90,0|2,0:0|0:0,0:0:0:0:
200,306,5386,1,0,0:0:0:0:
200,306,5566,2,0,P|141:318|88:297,1,90,2|0,0:0|0:0,0:0:0:0:
307,256,5925,6,0,P|335:320|326:364,1,90,2|0,0:0|0:0,0:0:0:0:
219,212,6285,1,2,0:0:0:0:
331,152,6464,2,0,P|382:174|413:213,1,90,0|2,0:0|0:0,0:0:0:0:
264,72,6823,2,0,P|314:46|368:54,1,90,0|2,0:0|0:0,0:0:0:0:
204,160,7183,6,0,P|162:109|157:56,1,90,0|2,0:0|0:0,0:0:0:0:
302,176,7542,1,0,0:0:0:0:
230,271,7722,2,0,P|155:258|121:225,1,90,2|0,0:0|0:0,0:0:0:0:
264,72,8081,1,2,0:0:0:0:
321,265,8261,1,0,0:0:0:0:
321,265,8350,1,0,0:0:0:0:
321,265,8440,1,2,0:0:0:0:
383,126,8620,1,0,0:0:0:0:
416,287,8800,6,0,P|384:342|352:358,1,90,2|0,0:0|0:0,0:0:0:0:
375,205,9159,1,2,0:0:0:0:
375,205,9338,2,0,P|424:194|468:212,1,90,0|2,0:0|0:0,0:0:0:0:
317,104,9698,1,0,0:0:0:0:
460,206,9877,1,2,0:0:0:0:
254,164,10057,6,0,P|220:87|317:107,1,225,6|2,0:0|0:0,0:0:0:0:
144,176,10596,2,0,P|90:173|116:261,1,168.75,6|0,0:0|0:0,0:0:0:0:
167,285,10955,6,2,L|218:307,3,49.5000015106202
236,317,11314,1,2,0:0:0:0:
261,323,11403,1,2,0:0:0:0:
287,327,11493,1,2,0:0:0:0:
311,324,11583,1,2,0:0:0:0:
343,310,11674,5,6,0:0:0:0:
285,244,11853,1,0,0:0:0:0:
201,222,12033,1,8,0:0:0:0:
262,158,12213,2,0,P|324:162|351:180,1,72,10|0,0:0|0:0,0:0:0:0:
419,208,12572,1,0,0:0:0:0:
423,113,12752,1,8,0:0:0:0:
341,63,12931,1,2,0:0:0:0:
341,63,13021,1,2,0:0:0:0:
341,63,13111,5,2,0:0:0:0:
262,121,13291,1,0,0:0:0:0:
283,216,13470,1,8,0:0:0:0:
189,184,13650,2,0,P|169:147|170:95,1,72,8|0,0:0|0:0,0:0:0:0:
81,154,14009,1,0,0:0:0:0:
2,117,14189,1,8,0:0:0:0:
19,220,14368,1,2,0:0:0:0:
19,220,14458,1,2,0:0:0:0:
19,220,14548,2,0,P|66:245|101:244,1,72,2|0,0:0|0:0,0:0:0:0:
263,251,14907,5,8,0:0:0:0:
249,126,15087,1,8,0:0:0:0:
160,241,15267,1,0,0:0:0:0:
326,112,15446,2,0,P|302:69|265:50,1,80.9999975280763,0|8,0:0|0:0,0:0:0:0:
253,224,15806,6,0,P|312:258|395:223,1,161.999995056153,4|0,0:0|0:0,0:0:0:0:
400,75,16344,1,8,0:0:0:0:
260,153,16524,2,0,L|243:318,1,161.999995056153,4|0,0:0|0:0,0:0:0:0:
137,251,17063,1,8,0:0:0:0:
118,227,17152,1,8,0:0:0:0:
99,202,17242,1,8,0:0:0:0:
80,179,17332,1,8,0:0:0:0:
62,155,17422,6,0,P|26:191|12:224,1,80.9999975280763,4|0,0:0|0:0,0:0:0:0:
170,69,17782,1,8,0:0:0:0:
302,97,17961,2,0,P|308:32|285:-10,1,80.9999975280763,2|0,0:0|0:0,0:0:0:0:
214,177,18320,2,0,P|264:214|313:215,1,80.9999975280763,2|8,0:0|0:0,0:0:0:0:
170,69,18680,6,0,P|96:148|107:221,1,161.999995056153,6|0,0:0|0:0,0:0:0:0:
365,296,19219,1,12,0:0:0:0:
365,296,19578,6,0,L|370:242,3,38.2500007295609,4|0|0|0,0:0|0:0|0:0|0:0,0:0:0:0:
363,212,19937,2,0,L|368:158,3,38.2500007295609,8|0|0|0,0:0|0:0|0:0|0:0,0:0:0:0:
363,123,20297,6,0,L|448:96,1,80.9999975280763,6|2,0:0|0:0,0:0:0:0:
292,32,20656,1,8,0:0:0:0:
216,172,20835,2,0,P|228:132|220:88,1,80.9999975280763,2|0,0:0|0:0,0:0:0:0:
112,125,21195,1,2,0:0:0:0:
160,24,21374,1,8,0:0:0:0:
24,112,21554,6,0,P|47:192|93:216,1,121.499996292114,4|0,0:0|0:0,0:0:0:0:
94,217,21913,1,6,0:0:0:0:
271,79,22093,1,12,0:0:0:0:
271,79,22452,1,4,0:0:0:0:
385,168,22632,1,0,0:0:0:0:
261,200,22811,1,8,0:0:0:0:
340,284,22991,1,0,0:0:0:0:
237,288,23171,6,0,P|170:199|207:125,1,188.999994232178,6|2,0:0|0:0,0:0:0:0:
157,62,23889,1,8,0:0:0:0:
94,124,24069,1,0,0:0:0:0:
75,210,24249,1,0,0:0:0:0:
128,281,24428,1,2,0:0:0:0:
193,221,24608,6,0,P|215:306|138:367,1,188.999994232178,2|2,0:0|0:0,0:0:0:0:
60,342,25326,1,8,0:0:0:0:
128,281,25506,1,0,0:0:0:0:
41,264,25686,1,0,0:0:0:0:
81,188,25865,1,2,0:0:0:0:
25,124,26045,6,0,P|83:107|152:140,1,135.000005149842,14|0,0:0|0:0,0:0:0:0:
186,215,26584,1,2,0:0:0:0:
225,81,26764,2,0,P|283:98|352:76,1,135.000005149842,10|2,0:0|0:0,0:0:0:0:
423,25,27303,1,2,0:0:0:0:
394,139,27482,5,8,0:0:0:0:
457,247,27662,1,0,0:0:0:0:
307,119,27841,5,8,0:0:0:0:
359,269,28021,1,0,0:0:0:0:
224,131,28201,5,8,0:0:0:0:
172,280,28380,1,0,0:0:0:0:
255,42,28560,5,8,0:0:0:0:
215,49,28649,1,8,0:0:0:0:
175,56,28739,1,8,0:0:0:0:
135,64,28829,1,8,0:0:0:0:
95,71,28919,6,0,L|80:168,1,80.9999975280763,6|0,0:0|0:0,0:0:0:0:
200,312,29279,2,0,L|215:215,1,80.9999975280763,8|0,0:0|0:0,0:0:0:0:
272,40,29638,2,0,P|320:64|344:96,1,80.9999975280763,2|0,0:0|0:0,0:0:0:0:
424,264,29997,2,0,P|368:288|328:280,1,80.9999975280763,8|0,0:0|0:0,0:0:0:0:
192,176,30356,5,12,0:0:0:0:
176,304,30536,1,0,0:0:0:0:
296,160,30716,5,8,0:0:0:0:
344,296,30895,1,0,0:0:0:0:
144,104,31075,5,8,0:0:0:0:
126,243,31255,1,0,0:0:0:0:
257,86,31435,5,8,0:0:0:0:
309,234,31614,1,0,0:0:0:0:
144,104,31794,5,12,0:0:0:0:
272,260,31973,1,0,0:0:0:0:
304,96,32153,1,8,0:0:0:0:
112,264,32332,1,12,0:0:0:0:
112,264,32692,5,8,0:0:0:0:
312,168,32872,1,0,0:0:0:0:
136,80,33051,1,0,0:0:0:0:
264,304,33231,1,12,0:0:0:0:
256,192,33320,12,0,34308,0:0:0:0:
200,104,34668,5,12,0:0:0:0:
320,224,34847,1,0,0:0:0:0:
172,235,35027,1,8,0:0:0:0:
336,104,35207,2,0,P|400:132|428:172,1,107.999996704102,0|8,0:0|0:0,0:0:0:0:
200,104,35566,2,0,P|226:32|253:15,1,107.999996704102,0|8,0:0|0:0,0:0:0:0:
264,248,35925,5,0,0:0:0:0:
120,152,36105,1,8,0:0:0:0:
135,329,36284,1,0,0:0:0:0:
200,104,36464,2,0,P|151:66|104:62,1,107.999996704102,8|0,0:0|0:0,0:0:0:0:
264,248,36823,2,0,P|308:222|335:175,1,107.999996704102,8|0,0:0|0:0,0:0:0:0:
107,231,37183,2,0,P|107:282|134:328,1,107.999996704102,8|0,0:0|0:0,0:0:0:0:
287,341,37542,5,12,0:0:0:0:
348,156,37722,1,0,0:0:0:0:
186,263,37901,1,8,0:0:0:0:
432,217,38081,2,0,P|454:165|443:115,1,107.999996704102,4|8,0:0|0:0,0:0:0:0:
266,104,38440,1,0,0:0:0:0:
443,116,38620,1,8,0:0:0:0:
196,50,38800,6,0,B|166:98|192:151|192:151|222:203|194:260,1,215.999993408203,4|0,0:0|0:0,0:0:0:0:
112,206,39338,2,0,L|5:201,1,107.999996704102,8|0,0:0|0:0,0:0:0:0:
276,100,39698,2,0,L|383:95,1,107.999996704102,8|0,0:0|0:0,0:0:0:0:
442,233,40057,5,8,0:0:0:0:
413,248,40146,1,8,0:0:0:0:
382,255,40236,1,8,0:0:0:0:
349,254,40326,1,8,0:0:0:0:
317,238,40416,5,6,0:0:0:0:
383,94,40596,1,0,0:0:0:0:
413,248,40776,1,8,0:0:0:0:
248,180,40955,2,0,P|269:138|303:107,1,90,0|2,0:0|0:0,0:0:0:0:
350,317,41315,1,0,0:0:0:0:
188,254,41494,1,8,0:0:0:0:
372,160,41674,1,0,0:0:0:0:
241,321,41853,5,2,0:0:0:0:
296,126,42033,1,0,0:0:0:0:
407,307,42213,1,8,0:0:0:0:
229,175,42392,2,0,P|226:76|288:41,1,180
296,126,42931,1,8,0:0:0:0:
144,37,43111,5,2,0:0:0:0:
144,37,43201,1,2,0:0:0:0:
144,37,43291,2,0,B|141:94|95:134|95:134|113:166,1,144,4|0,0:0|0:0,0:0:0:0:
34,285,43829,5,2,0:0:0:0:
34,285,43919,1,2,0:0:0:0:
34,285,44009,2,0,B|75:238|70:172|70:172|109:162,1,161.999995056153,4|0,0:0|0:0,0:0:0:0:
246,77,44548,5,2,0:0:0:0:
246,77,44638,1,2,0:0:0:0:
246,77,44728,2,0,B|194:123|121:117|121:117|109:160,1,180,4|0,0:0|0:0,0:0:0:0:
150,333,45266,5,2,0:0:0:0:
150,333,45356,1,2,0:0:0:0:
150,333,45446,2,0,B|146:257|84:204|84:204|108:161,1,198.000006042481,4|0,0:0|0:0,0:0:0:0:
252,225,45985,1,0,0:0:0:0:
440,136,46165,6,0,P|378:139|333:171,1,107.999996704102,12|0,0:0|0:0,0:0:0:0:
252,225,46524,1,8,0:0:0:0:
409,330,46704,2,0,P|354:321|314:286,1,107.999996704102,0|8,0:0|0:0,0:0:0:0:
188,135,47063,2,0,P|245:114|304:127,1,107.999996704102,0|8,0:0|0:0,0:0:0:0:
127,218,47422,6,0,P|81:143|144:45,1,215.999993408203,4|0,0:0|0:0,0:0:0:0:
197,269,47961,2,0,P|144:304|102:298,1,107.999996704102,8|0,0:0|0:0,0:0:0:0:
323,185,48320,2,0,P|379:212|395:251,1,107.999996704102,8|0,0:0|0:0,0:0:0:0:
181,125,48680,2,0,P|176:61|202:28,1,107.999996704102,8|0,0:0|0:0,0:0:0:0:
317,263,49039,5,12,0:0:0:0:
181,125,49219,1,0,0:0:0:0:
196,128,49308,1,0,0:0:0:0:
212,132,49398,1,8,0:0:0:0:
109,168,49578,2,0,P|96:108|125:60,1,107.999996704102,4|0,0:0|0:0,0:0:0:0:
335,162,49937,1,0,0:0:0:0:
181,125,50117,1,8,0:0:0:0:
391,73,50297,6,0,B|424:153|424:153|380:279,1,215.999993408203,4|0,0:0|0:0,0:0:0:0:
182,303,50835,1,8,0:0:0:0:
381,275,51015,1,0,0:0:0:0:
192,196,51195,1,8,0:0:0:0:
392,148,51375,1,0,0:0:0:0:
232,52,51554,6,0,P|172:61|92:16,1,148.50000453186,2|0,0:0|0:0,0:0:0:0:
64,58,51913,2,0,B|74:92|66:117|66:117|54:157|54:157|69:187,1,121.499996292114,6|0,0:0|0:0,0:0:0:0:
36,221,52273,2,0,P|48:261|131:254,1,121.499996292114,2|0,0:0|0:0,0:0:0:0:
161,236,52632,2,0,P|232:249|228:293,1,121.499996292114,2|0,0:0|0:0,0:0:0:0:
204,348,52991,6,0,P|271:331|358:364,1,148.50000453186,2|0,0:0|0:0,0:0:0:0:
386,371,53350,2,4,B|370:343|390:282|390:282|372:242,1,121.499996292114,6|4,0:0|0:0,0:0:0:0:
335,208,53710,2,0,P|403:208|439:163,1,121.499996292114,2|0,0:0|0:0,0:0:0:0:
369,144,54069,2,0,B|396:80|380:56|380:56|368:80|336:88,1,121.499996292114,2|0,0:0|0:0,0:0:0:0:
232,52,54428,5,10,0:0:0:0:
256,276,54608,1,8,0:0:0:0:
452,112,54788,2,0,P|345:137|304:211,1,188.999994232178,14|2,0:0|0:0,0:0:0:0:
134,176,55506,6,8,L|100:33,2,121.499996292114,12|8|8,0:0|0:0|0:0,0:0:0:0:
168,304,56225,1,12,0:0:0:0:
256,192,56404,12,0,57482,0:0:0:0:
173,172,57662,5,12,0:0:0:0:
152,312,57841,1,0,0:0:0:0:
288,152,58021,5,8,0:0:0:0:
320,288,58201,1,0,0:0:0:0:
112,120,58380,5,8,0:0:0:0:
91,260,58559,1,0,0:0:0:0:
222,98,58739,5,8,0:0:0:0:
259,250,58919,1,0,0:0:0:0:
156,39,59099,6,0,L|22:21,1,99.0000030212403,8|0,0:0|0:0,0:0:0:0:
311,84,59458,2,0,L|445:66,1,99.0000030212403,8|0,0:0|0:0,0:0:0:0:
253,208,59817,2,0,L|387:190,1,99.0000030212403,8|0,0:0|0:0,0:0:0:0:
195,332,60177,2,0,L|329:314,1,99.0000030212403,8|0,0:0|0:0,0:0:0:0:
133,228,60536,5,12,0:0:0:0:
307,191,60716,1,0,0:0:0:0:
195,332,60895,5,8,0:0:0:0:
360,307,61075,1,0,0:0:0:0:
216,201,61255,5,8,0:0:0:0:
399,161,61434,1,0,0:0:0:0:
266,280,61614,5,8,0:0:0:0:
449,235,61794,1,0,0:0:0:0:
230,104,61973,6,0,P|191:146|181:191,1,99.0000030212403,8|0,0:0|0:0,0:0:0:0:
422,325,62332,2,0,P|448:281|443:220,1,99.0000030212403,8|0,0:0|0:0,0:0:0:0:
274,186,62692,2,0,P|299:229|353:256,1,99.0000030212403,8|0,0:0|0:0,0:0:0:0:
469,127,63051,2,0,P|415:125|366:159,1,99.0000030212403,8|0,0:0|0:0,0:0:0:0:
316,112,63320,1,0,0:0:0:0:
316,112,63410,6,0,L|325:21,1,90,6|0,0:0|0:0,0:0:0:0:
216,128,63770,2,0,L|164:52,1,90,8|0,0:0|0:0,0:0:0:0:
144,208,64129,2,0,L|55:183,1,90,2|0,0:0|0:0,0:0:0:0:
152,308,64488,2,0,L|68:345,1,90,8|0,0:0|0:0,0:0:0:0:
244,360,64847,6,0,P|260:302|235:243,1,99.0000030212403,2|0,0:0|0:0,0:0:0:0:
175,119,65207,2,0,P|214:159|276:168,1,99.0000030212403,8|0,0:0|0:0,0:0:0:0:
416,180,65566,2,0,P|356:192|317:243,1,99.0000030212403,2|0,0:0|0:0,0:0:0:0:
411,294,65925,1,8,0:0:0:0:
326,337,66105,1,0,0:0:0:0:
416,180,66285,5,12,0:0:0:0:
188,224,66464,1,0,0:0:0:0:
326,337,66644,1,8,0:0:0:0:
291,97,66823,1,12,0:0:0:0:
291,97,67183,5,0,0:0:0:0:
326,337,67362,1,8,0:0:0:0:
104,256,67542,2,0,P|99:201|127:159,1,80.9999975280763,4|0,0:0|0:0,0:0:0:0:
259,247,67901,5,0,0:0:0:0:
177,224,68081,1,0,0:0:0:0:
332,176,68261,2,0,B|332:224|345:272|345:272|328:288|315:316,2,135.000005149842
365,106,69159,6,0,L|428:135,2,53.9999983520508,0|0|2,0:0|0:0|0:0,0:0:0:0:
277,77,69698,2,0,P|219:89|169:82,1,107.999996704102,0|0,0:0|0:0,0:0:0:0:
90,38,70237,1,2,0:0:0:0:
90,129,70416,2,0,L|112:237,1,107.999996704102,0|0,0:0|0:0,0:0:0:0:
192,235,70955,2,2,L|184:305,1,53.9999983520508,2|0,0:0|0:0,0:0:0:0:
267,232,71314,2,0,L|260:284,1,53.9999983520508
342,229,71674,2,2,L|335:281,1,53.9999983520508,2|0,0:0|0:0,0:0:0:0:
417,226,72033,5,0,0:0:0:0:
389,144,72213,1,0,0:0:0:0:
473,158,72392,1,2,0:0:0:0:
416,69,72572,2,0,P|352:74|323:105,1,99.0000030212403,0|0,0:0|0:0,0:0:0:0:
389,144,73111,1,2,0:0:0:0:
291,166,73291,2,0,P|253:122|256:73,1,90,0|0,0:0|0:0,0:0:0:0:
187,155,73829,6,0,L|179:219,1,45
247,237,74205,6,0,L|267:303,1,53.9999983520508,0|0,0:0|0:0,0:0:0:0:
357,274,74736,6,0,L|437:326,1,90,0|0,0:0|0:0,0:0:0:0:
256,192,75986,12,0,79219,0:0:0:0:
