osu file format v14

[General]
AudioFilename: audio.mp3
AudioLeadIn: 0
PreviewTime: 126587
Countdown: 0
SampleSet: Soft
StackLeniency: 0.7
Mode: 0
LetterboxInBreaks: 0
WidescreenStoryboard: 0

[Editor]
DistanceSpacing: 1.1
BeatDivisor: 4
GridSize: 32
TimelineZoom: 3.299999

[Metadata]
Title:Yuuki wa Doko ni? Kimi no Mune ni!
TitleUnicode:勇気はどこに?君の胸に!
Artist:Aqours
ArtistUnicode:Aqours
Creator:Sotarks
Version:Sunshine
Source:ラブライブ!サンシャイン!!
Tags:Love Live! Sunshine!! 2nd season school idol project yuki Chika Takami 高海千歌 Anju Inami 伊波杏樹 Riko Sakurauchi 桜内梨子 Rikako Aida 逢田梨香子 Kanan Matsuura 松浦果南 Nanaka Suwa 諏訪ななか Dia Kurosawa 黒澤ダイヤ Arisa Komiya 小宮有紗 You Watanabe 渡辺 曜 Shuka Saitou 斉藤朱夏 Yoshiko Tsushima Yohane 津島善子 Aika Kobayashi 小林愛香 Hanamaru Kunikida 国木田花丸 Kanako Takatsuki 高槻かなこ Mari Ohara 小原鞠莉 Aina Suzuki 鈴木愛奈 Ruby 黒澤ルビィ Ai Furihata 降幡 愛 ed ending where can you find courage? inside your heart! full version japanese anime vocalist smokelind
BeatmapID:2203622
BeatmapSetID:1054647

[Difficulty]
HPDrainRate:5.2
CircleSize:3.8
OverallDifficulty:8.7
ApproachRate:9.2
SliderMultiplier:1.72
SliderTickRate:1

[Events]
//Background and Video events
0,0,"bg.jpg",0,0
//Break Periods
2,88253,93233
2,207535,211975
//Storyboard Layer 0 (Background)
//Storyboard Layer 1 (Fail)
//Storyboard Layer 2 (Pass)
//Storyboard Layer 3 (Foreground)
//Storyboard Layer 4 (Overlay)
//Storyboard Sound Samples

[TimingPoints]
390,359.281437125748,4,2,22,22,1,0
390,-138.888888888889,4,2,22,22,0,0
3264,-138.888888888889,4,2,22,32,0,0
6138,-161.290322580645,4,2,22,42,0,0
6228,-161.290322580645,4,2,22,5,0,0
7575,-121.951219512195,4,2,22,52,0,0
11887,-121.951219512195,4,2,22,62,0,0
12605,-121.951219512195,4,2,22,72,0,0
13324,-108.695652173913,4,2,22,62,0,0
17455,-192.307692307692,4,2,22,62,0,0
17545,-192.307692307692,4,2,22,5,0,0
19072,-121.951219512195,4,2,22,52,0,0
30569,-108.695652173913,4,2,22,62,0,0
42066,-138.888888888889,4,2,22,52,0,0
47815,-98.0392156862745,4,2,22,62,0,0
48084,-98.0392156862745,4,2,22,5,0,0
48174,-98.0392156862745,4,2,22,62,0,0
49251,-98.0392156862745,4,2,22,72,0,0
49252,-98.0392156862745,4,2,22,72,0,0
50689,-98.0392156862745,4,2,22,82,0,0
53563,-89.2857142857143,4,2,22,92,0,1
62186,-81.9672131147541,4,2,22,82,0,1
62904,-75.7575757575758,4,2,22,82,0,1
63623,-75.7575757575758,4,2,22,92,0,1
65060,-89.2857142857143,4,2,22,92,0,1
73683,-138.888888888889,4,2,22,72,0,0
76557,-121.951219512195,4,2,22,52,0,0
80869,-121.951219512195,4,2,22,62,0,0
81587,-121.951219512195,4,2,22,72,0,0
82306,-108.695652173913,4,2,22,62,0,0
86437,-192.307692307692,4,2,22,62,0,0
86527,-192.307692307692,4,2,22,5,0,0
88053,-192.307692307692,4,2,22,42,0,0
88054,-192.307692307692,4,2,22,42,0,0
93803,-138.888888888889,4,2,22,52,0,0
99551,-108.695652173913,4,2,22,52,0,0
111048,-138.888888888889,4,2,22,52,0,0
116797,-98.0392156862746,4,2,22,62,0,0
117066,-98.0392156862746,4,2,22,5,0,0
117156,-98.0392156862746,4,2,22,62,0,0
119671,-98.0392156862746,4,2,22,72,0,0
122545,-98.0392156862746,4,2,22,62,0,0
122814,-98.0392156862746,4,2,22,5,0,0
122904,-98.0392156862746,4,2,22,62,0,0
123982,-98.0392156862746,4,2,22,72,0,0
125419,-98.0392156862746,4,2,22,82,0,0
126857,-238.095238095238,4,2,22,82,0,0
126946,-238.095238095238,4,2,22,5,0,0
128294,-238.095238095238,4,2,22,22,0,0
129012,-238.095238095238,4,2,22,42,0,0
129372,-238.095238095238,4,2,22,52,0,0
129731,-89.2857142857144,4,2,22,92,0,1
138354,-81.9672131147541,4,2,22,82,0,1
139072,-75.7575757575758,4,2,22,82,0,1
140509,-98.0392156862745,4,2,22,92,0,1
149851,-138.888888888889,4,2,22,72,0,0
152725,-121.951219512195,4,2,22,62,0,0
158473,-98.0392156862746,4,2,22,62,0,0
184431,-98.0392156862746,4,2,22,5,0,0
185240,-98.0392156862746,4,2,22,52,0,0
185779,-108.695652173913,4,2,22,52,0,0
187036,-98.0392156862745,4,2,22,82,0,0
198713,-98.0392156862745,4,2,22,62,0,1
199431,-98.0392156862745,4,2,22,72,0,1
200150,-98.0392156862745,4,2,22,82,0,1
200869,-98.0392156862745,4,2,22,92,0,1
201587,-98.0392156862745,4,2,22,92,0,0
203204,-98.0392156862745,4,2,22,72,0,0
204461,-312.5,4,2,22,82,0,0
204551,-312.5,4,2,22,5,0,0
205898,-312.5,4,2,22,42,0,0
205988,-312.5,4,2,22,5,0,0
207335,-312.5,4,2,22,22,0,0
207336,-312.5,4,2,22,22,0,0
212545,-192.307692307692,4,2,22,52,0,0
212635,-192.307692307692,4,2,22,5,0,0
212725,-312.5,4,2,22,52,0,0
212994,-312.5,4,2,22,5,0,0
213084,-161.290322580645,4,2,22,52,0,0
215958,-121.951219512195,4,2,22,62,0,0
218833,-121.951219512195,4,2,22,72,0,0
219641,-121.951219512195,4,2,22,5,0,0
221706,-121.951219512195,4,2,22,52,0,0
221707,-121.951219512195,4,2,22,52,0,0
222066,-121.951219512195,4,2,22,32,0,0
222425,-121.951219512195,4,2,22,42,0,0
222785,-121.951219512195,4,2,22,52,0,0
223863,-121.951219512195,4,2,22,62,0,0
224581,-89.2857142857142,4,2,22,92,0,1
233204,-81.9672131147541,4,2,22,82,0,1
233922,-75.7575757575758,4,2,22,82,0,1
234641,-70.4225352112676,4,2,22,82,0,1
236078,-312.5,4,2,22,42,0,0
236347,-312.5,4,2,22,5,0,0
236348,-312.5,4,2,22,5,0,0
236437,-89.2857142857143,4,2,22,92,0,1
246138,-89.2857142857143,4,2,22,72,0,0
247575,-98.0392156862745,4,2,22,92,0,0
253324,-98.0392156862745,4,2,22,82,0,0
257635,-98.0392156862745,4,2,22,62,0,0
259072,-192.307692307692,4,2,22,22,0,0
264122,416.666666666667,4,2,22,22,1,0
264122,-192.307692307692,4,2,22,22,0,0
264663,416.666666666667,4,2,22,22,1,0
265079,-312.499999999999,4,2,22,22,0,0
265183,-312.499999999999,4,2,22,5,0,0
265916,-312.499999999999,4,2,22,22,0,0
266006,359.281437125748,4,2,22,22,1,0
266006,-312.5,4,2,22,22,0,0
266185,-833.333333333326,4,2,22,22,0,0
266275,-833.333333333326,4,2,22,5,0,0

[Colours]
Combo1 : 169,130,95
Combo2 : 203,225,128
Combo3 : 107,202,209
Combo4 : 211,95,138

[HitObjects]
323,139,390,6,0,P|328:180|333:212,2,61.9200015117188,2|0|0,0:0|0:0|0:0,0:0:0:0:
236,203,928,2,0,P|192:189|108:180,1,123.840003023438,2|0,0:0|0:0,0:0:0:0:
115,179,1467,1,2,0:0:0:0:
254,70,1647,2,0,P|298:56|382:47,1,123.840003023438,2|0,0:0|0:0,0:0:0:0:
281,156,2186,2,0,P|228:148|205:140,1,61.9200015117188,2|0,0:0|0:0,0:0:0:0:
170,74,2545,2,0,P|117:82|94:90,1,61.9200015117188,2|0,0:0|0:0,0:0:0:0:
73,167,2904,2,0,P|20:159|-3:151,1,61.9200015117188,2|0,0:0|0:0,0:0:0:0:
169,228,3264,5,2,0:0:0:0:
169,228,3443,2,0,P|179:279|179:302,1,61.9200015117188,2|0,0:0|0:0,0:0:0:0:
254,363,3803,2,0,P|261:273|269:210,1,123.840003023438,2|0,0:0|0:0,0:0:0:0:
264,239,4342,1,2,0:0:0:0:
348,322,4521,2,0,P|416:301|493:299,2,123.840003023438,2|0|0,0:0|0:0|0:0,0:0:0:0:
416,221,5419,2,0,P|421:167|425:146,1,61.9200015117188,2|0,0:0|0:0,0:0:0:0:
333,111,5779,2,0,P|337:141|339:172,1,61.9200015117188,2|0,0:0|0:0,0:0:0:0:
420,38,6138,6,0,B|366:13|244:21|300:212|182:240|93:203,1,399.899984134827,2|0,0:0|0:0,0:0:0:0:
25,187,7575,6,0,P|117:176|167:162,1,141.0400021521,6|2,1:0|0:0,0:0:0:0:
232,277,8114,1,6,3:0:0:0:
232,277,8204,1,4,3:0:0:0:
232,277,8294,1,4,3:0:0:0:
252,178,8473,2,0,P|284:164|318:155,1,70.5200010760498,10|0,3:3|0:0,0:0:0:0:
418,174,8833,1,2,0:0:0:0:
344,332,9012,1,12,0:0:0:0:
432,288,9192,2,0,P|356:250|292:271,1,141.0400021521,2|2,0:0|0:0,0:0:0:0:
150,357,9731,1,8,0:0:0:0:
101,268,9910,2,0,P|92:211|96:181,2,70.5200010760498,2|0|0,3:0|3:0|3:0,0:0:0:0:
166,126,10449,1,14,0:0:0:0:
166,126,10809,5,8,0:0:0:0:
228,186,10988,1,2,0:0:0:0:
169,43,11168,1,8,0:0:0:0:
85,135,11348,1,2,0:0:0:0:
290,66,11527,1,10,0:0:0:0:
166,126,11707,1,0,0:0:0:0:
340,285,11887,5,14,0:0:0:0:
294,192,12066,1,8,0:0:0:0:
235,301,12246,1,8,0:0:0:0:
385,205,12425,1,8,0:0:0:0:
203,111,12605,1,8,0:0:0:0:
319,318,12785,1,10,0:0:0:0:
458,92,12964,1,10,0:0:0:0:
155,228,13144,1,10,0:0:0:0:
464,306,13324,6,0,P|475:245|469:217,1,79.1199973439942,6|2,1:0|0:0,0:0:0:0:
288,140,13683,2,0,P|285:179|296:217,1,79.1199973439942,2|2,1:0|0:0,0:0:0:0:
425,64,14042,2,0,P|378:43|328:43,1,79.1199973439942,0|2,1:0|0:0,0:0:0:0:
337,53,14312,1,0,3:0:0:0:
337,53,14401,1,2,1:0:0:0:
441,205,14581,1,2,0:0:0:0:
257,127,14761,6,0,P|208:145|173:180,1,79.1199973439942,2|2,1:0|0:0,0:0:0:0:
186,181,15031,1,0,3:0:0:0:
186,181,15120,1,2,1:0:0:0:
329,204,15300,1,10,0:0:0:0:
205,54,15479,1,0,1:0:0:0:
262,264,15659,1,2,3:0:0:0:
262,264,15749,1,0,3:0:0:0:
262,264,15839,1,8,0:0:0:0:
292,288,15928,1,8,0:0:0:0:
331,294,16018,1,8,0:0:0:0:
368,282,16108,1,8,0:0:0:0:
395,254,16198,6,0,P|404:178|410:146,1,79.1199973439942,4|0,1:0|1:0,0:0:0:0:
305,49,16557,1,2,1:0:0:0:
491,193,16737,2,2,P|487:153|481:114,1,79.1199973439942,10|2,0:0|0:0,0:0:0:0:
325,205,17096,1,2,1:0:0:0:
493,292,17276,1,2,1:0:0:0:
338,113,17455,6,0,B|288:98|143:133|234:307|42:310,1,380.119997679932,14|0,0:0|0:0,0:0:0:0:
23,296,19072,5,4,1:0:0:0:
23,296,19431,2,0,P|31:344|34:371,1,70.5200010760498,2|0,1:0|0:0,0:0:0:0:
156,248,19791,1,2,1:0:0:0:
156,248,19970,2,0,P|148:296|145:323,1,70.5200010760498,2|0,0:0|1:0,0:0:0:0:
226,372,20330,1,2,0:0:0:0:
328,222,20509,1,0,1:0:0:0:
328,222,20689,2,0,P|336:273|339:302,1,70.5200010760498,2|0,0:0|1:0,0:0:0:0:
258,346,21048,1,2,0:0:0:0:
199,190,21228,1,0,1:0:0:0:
199,190,21407,1,2,0:0:0:0:
128,308,21587,1,0,1:0:0:0:
289,238,21767,1,2,0:0:0:0:
127,142,21946,5,0,1:0:0:0:
127,142,22126,1,0,0:0:0:0:
209,257,22306,2,0,P|217:194|222:154,1,70.5200010760498,2|0,1:0|0:0,0:0:0:0:
97,164,22665,1,2,1:0:0:0:
97,164,22845,2,0,P|101:198|105:233,1,70.5200010760498,2|0,0:0|1:0,0:0:0:0:
49,317,23204,1,2,0:0:0:0:
186,268,23384,1,0,1:0:0:0:
186,268,23563,1,2,0:0:0:0:
281,360,23743,1,2,1:0:0:0:
400,308,23922,2,0,P|384:251|371:224,1,70.5200010760498,2|0,0:0|1:0,0:0:0:0:
296,334,24282,1,0,3:0:0:0:
462,231,24461,1,8,0:2:0:0:
462,231,24821,6,0,P|386:210|302:209,1,141.0400021521,6|2,1:0|1:0,0:0:0:0:
196,175,25360,2,0,P|240:165|282:150,1,70.5200010760498,2|0,0:0|1:0,0:0:0:0:
138,258,25719,2,0,P|171:268|206:275,1,70.5200010760498,2|0,0:0|1:0,0:0:0:0:
35,238,26078,2,0,P|61:311|94:380,1,141.0400021521,2|2,0:0|0:0,0:0:0:0:
101,171,26617,2,0,P|109:110|109:81,1,70.5200010760498,2|0,1:0|0:0,0:0:0:0:
138,258,26976,1,2,1:0:0:0:
351,99,27336,1,0,1:0:0:0:
434,353,27695,6,0,P|390:323|292:354,1,141.0400021521,2|2,1:0|1:0,0:0:0:0:
417,244,28234,2,0,P|426:198|425:168,1,70.5200010760498,2|0,0:0|1:0,0:0:0:0:
270,242,28593,2,0,P|270:277|278:311,1,70.5200010760498,2|0,0:0|1:0,0:0:0:0:
307,140,28952,2,0,P|240:121|180:154,1,141.0400021521,6|2,0:0|0:0,0:0:0:0:
91,340,29491,2,0,P|91:304|99:270,1,70.5200010760498,6|0,1:0|0:0,0:0:0:0:
236,202,29851,2,0,P|244:236|245:272,1,70.5200010760498,2|0,1:0|0:0,0:0:0:0:
91,157,30210,1,0,1:0:0:0:
215,300,30389,5,8,0:0:0:0:
215,300,30479,1,8,0:0:0:0:
215,300,30569,2,0,B|309:302|262:249|391:260,1,158.239994687988,4|10,1:0|0:0,0:0:0:0:
236,202,31108,1,2,1:0:0:0:
342,348,31288,1,2,0:0:0:0:
236,202,31467,2,0,P|251:137|260:117,1,79.1199973439942,2|8,1:0|0:0,0:0:0:0:
419,239,31827,1,2,1:0:0:0:
419,239,31916,1,8,0:0:0:0:
419,239,32006,1,0,1:0:0:0:
332,160,32186,1,2,0:0:0:0:
219,310,32366,1,8,0:0:0:0:
101,232,32545,2,0,P|87:194|81:155,1,79.1199973439942,2|0,1:0|0:0,0:0:0:0:
236,202,32904,1,2,1:0:0:0:
79,343,33084,1,8,0:0:0:0:
169,155,33264,5,2,1:0:0:0:
169,155,33354,1,8,0:0:0:0:
169,155,33443,2,0,B|263:153|216:206|345:195,1,158.239994687988,0|10,1:0|0:0,0:0:0:0:
192,239,33982,1,2,1:0:0:0:
314,116,34162,1,2,0:0:0:0:
242,306,34342,2,0,P|184:323|151:317,1,79.1199973439942,2|8,1:0|0:0,0:0:0:0:
317,196,34701,2,0,P|405:201|488:247,1,158.239994687988,2|2,1:0|1:0,0:0:0:0:
338,275,35240,1,10,0:0:0:0:
468,135,35419,1,2,1:0:0:0:
468,135,35509,1,8,0:0:0:0:
468,135,35599,1,0,1:0:0:0:
282,56,35779,1,0,1:0:0:0:
385,181,35958,2,0,P|389:104|390:78,1,79.1199973439942,8|0,0:0|1:0,0:0:0:0:
195,240,36318,6,0,P|122:272|47:231,1,158.239994687988,6|10,1:0|0:0,0:0:0:0:
267,87,36857,2,0,P|278:149|280:191,1,79.1199973439942,2|0,1:0|0:0,0:0:0:0:
133,197,37216,1,2,1:0:0:0:
314,249,37395,1,8,0:0:0:0:
345,36,37575,2,0,P|272:4|197:45,1,158.239994687988,6|2,1:0|1:0,0:0:0:0:
321,222,38114,2,0,P|325:182|333:143,1,79.1199973439942,10|0,0:0|1:0,0:0:0:0:
146,105,38473,2,0,P|154:143|158:183,1,79.1199973439942,6|0,1:0|1:0,0:0:0:0:
90,320,38833,1,8,0:0:0:0:
90,320,39192,5,6,1:0:0:0:
237,264,39372,1,0,1:0:0:0:
70,202,39551,1,2,1:0:0:0:
265,290,39731,2,0,P|350:269|432:260,1,158.239994687988,6|2,1:0|1:0,0:0:0:0:
272,184,40270,1,0,1:0:0:0:
407,335,40449,1,14,0:0:0:0:
407,335,40809,1,10,3:0:0:0:
452,96,40988,1,10,3:0:0:0:
364,228,41168,1,0,1:0:0:0:
288,45,41348,2,0,P|235:29|197:33,1,79.1199973439942,6|0,0:0|1:0,0:0:0:0:
161,83,41617,1,0,1:0:0:0:
161,83,41707,2,0,P|108:99|70:95,1,79.1199973439942,8|8,3:0|3:0,0:0:0:0:
241,116,42066,6,0,P|247:193|253:252,1,123.840003023438,6|0,1:0|0:0,0:0:0:0:
217,318,42605,1,2,3:0:0:0:
165,243,42785,2,0,P|123:253|87:259,1,61.9200015117188,2|0,3:0|0:0,0:0:0:0:
101,353,43144,2,0,P|70:347|40:339,1,61.9200015117188,0|2,0:0|3:0,0:0:0:0:
217,318,43503,2,0,P|300:303|360:304,1,123.840003023438,2|0,1:0|0:0,0:0:0:0:
430,336,44042,1,2,3:0:0:0:
383,245,44222,2,0,P|331:260|302:262,1,61.9200015117188,2|0,0:0|0:0,0:0:0:0:
372,141,44581,2,0,P|402:146|431:156,1,61.9200015117188,0|2,3:0|0:0,0:0:0:0:
270,168,44940,6,0,P|234:137|140:140,1,123.840003023438,6|2,1:0|0:0,0:0:0:0:
70,210,45479,1,0,1:0:0:0:
135,57,45659,1,10,0:0:0:0:
208,215,45839,2,0,P|202:254|201:279,1,61.9200015117188,0|2,1:0|0:0,0:0:0:0:
145,153,46198,1,0,1:0:0:0:
321,73,46378,2,0,P|325:103|327:134,1,61.9200015117188,2|0,0:0|1:0,0:0:0:0:
225,14,46737,1,8,0:0:0:0:
405,121,46916,1,2,1:0:0:0:
208,215,47096,1,10,0:0:0:0:
321,73,47276,1,0,1:0:0:0:
259,277,47455,1,8,0:0:0:0:
231,296,47544,1,8,0:0:0:0:
197,302,47634,1,2,3:0:0:0:
164,295,47724,1,0,3:0:0:0:
137,276,47815,6,0,P|132:194|123:122,1,131.580000803101,6|0,1:0|0:0,0:0:0:0:
104,87,48174,2,0,P|97:142|91:182,1,87.7200005354004,10|2,0:0|0:0,0:0:0:0:
259,277,48533,2,0,P|252:233|247:190,1,87.7200005354004,0|2,1:0|0:0,0:0:0:0:
89,72,48892,2,0,P|82:127|76:167,1,87.7200005354004,8|2,0:0|0:0,0:0:0:0:
266,69,49251,1,6,1:0:0:0:
136,227,49431,1,0,1:0:0:0:
346,137,49611,1,10,0:0:0:0:
160,152,49791,1,0,1:0:0:0:
332,326,49970,1,2,1:0:0:0:
215,215,50150,1,0,1:0:0:0:
156,381,50330,1,10,0:0:0:0:
255,98,50509,1,8,0:0:0:0:
131,304,50689,6,0,P|79:291|45:273,1,87.7200005354004,6|0,1:0|1:0,0:0:0:0:
199,39,51048,1,0,1:0:0:0:
345,255,51228,2,0,P|397:242|431:224,1,87.7200005354004,10|2,0:0|0:0,0:0:0:0:
275,20,51587,1,8,0:0:0:0:
152,222,51767,1,0,1:0:0:0:
430,118,51946,1,10,0:0:0:0:
116,343,52126,1,14,0:0:0:0:
116,343,53563,5,14,0:0:0:0:
173,135,53743,1,0,1:0:0:0:
352,320,53922,1,10,0:0:0:0:
187,248,54102,1,2,1:0:0:0:
380,86,54282,5,8,0:0:0:0:
272,315,54461,1,2,1:0:0:0:
112,55,54641,1,8,0:0:0:0:
416,170,54821,1,2,1:0:0:0:
98,311,55000,5,8,0:0:0:0:
245,100,55180,1,2,1:0:0:0:
334,365,55360,1,10,0:0:0:0:
80,221,55539,1,0,1:0:0:0:
430,140,55719,5,10,0:0:0:0:
256,347,55898,1,0,1:0:0:0:
256,347,55988,1,0,1:0:0:0:
256,347,56078,1,10,0:0:0:0:
316,44,56258,1,0,1:0:0:0:
420,315,56437,5,14,0:0:0:0:
251,105,56617,1,0,1:0:0:0:
154,309,56797,1,10,0:0:0:0:
414,176,56976,1,2,1:0:0:0:
121,78,57156,5,8,0:0:0:0:
368,243,57336,1,2,1:0:0:0:
251,0,57515,1,8,0:0:0:0:
135,339,57695,2,0,P|71:329|54:203,1,192.640002351563,6|0,1:0|1:0,0:0:0:0:
307,93,58234,5,8,0:0:0:0:
131,259,58413,1,0,1:0:0:0:
408,182,58593,1,8,0:0:0:0:
141,234,58773,1,2,1:0:0:0:
479,224,58952,1,10,0:0:0:0:
488,177,59041,1,8,0:0:0:0:
472,132,59131,1,10,0:0:0:0:
434,103,59221,1,8,0:0:0:0:
387,98,59312,6,0,P|322:109|268:126,1,96.3200011757813,6|0,1:0|0:0,0:0:0:0:
435,8,59671,1,10,0:0:0:0:
326,224,59851,2,0,P|278:217|231:205,1,96.3200011757813,2|0,0:0|1:0,0:0:0:0:
133,63,60210,1,2,0:0:0:0:
261,300,60389,1,8,0:0:0:0:
212,112,60569,1,2,0:0:0:0:
150,338,60749,5,2,1:2:0:0:
217,139,60928,1,2,0:0:0:0:
405,185,61108,1,10,0:0:0:0:
338,384,61288,2,0,P|323:317|322:260,1,96.3200011757813,2|0,0:0|1:0,0:0:0:0:
362,67,61647,1,0,3:0:0:0:
212,207,61827,1,8,0:0:0:0:
91,141,62006,5,2,0:0:0:0:
91,141,62096,1,2,0:0:0:0:
91,141,62186,2,0,P|146:98|210:118,1,104.919995677429,6|0,1:0|0:0,0:0:0:0:
259,118,62455,2,0,P|314:161|378:141,1,104.919995677429,8|0,3:0|0:0,0:0:0:0:
428,123,62725,2,0,L|418:62,1,52.4599978387147,10|0,3:0|0:0,0:0:0:0:
391,235,62904,6,0,L|378:384,1,113.519999653564,6|0,1:0|0:0,0:0:0:0:
289,373,63174,2,0,L|278:254,1,113.519999653564,8|0,3:0|0:0,0:0:0:0:
207,204,63443,1,2,3:0:0:0:
207,204,63533,1,2,3:0:0:0:
207,204,63623,5,14,0:0:0:0:
342,158,63803,1,0,1:0:0:0:
131,126,63982,5,8,0:0:0:0:
421,204,64162,1,2,1:0:0:0:
78,254,64342,5,10,0:0:0:0:
469,104,64521,2,0,P|417:72|331:70,1,113.519999653564,0|0,3:0|0:0,0:0:0:0:
206,312,64881,1,8,0:0:0:0:
206,312,64970,1,8,0:0:0:0:
206,312,65060,5,10,0:0:0:0:
262,103,65240,1,0,1:0:0:0:
328,341,65419,1,10,0:0:0:0:
184,124,65599,1,2,1:0:0:0:
124,342,65779,5,8,0:0:0:0:
276,74,65958,1,2,1:0:0:0:
203,309,66138,1,8,0:0:0:0:
120,54,66318,6,0,L|104:255,1,192.640002351563,6|2,1:0|1:0,0:0:0:0:
127,346,66767,1,0,1:0:0:0:
127,346,66857,2,0,L|229:329,1,96.3200011757813,10|0,0:0|1:0,0:0:0:0:
259,94,67216,2,0,L|354:109,1,96.3200011757813,10|0,0:0|1:0,0:0:0:0:
447,295,67575,1,10,0:0:0:0:
406,51,67755,1,0,1:0:0:0:
201,221,67934,5,14,0:0:0:0:
382,178,68114,1,0,1:0:0:0:
382,178,68204,1,0,1:0:0:0:
382,178,68294,1,10,0:0:0:0:
142,132,68473,1,2,1:0:0:0:
429,263,68653,5,8,0:0:0:0:
114,344,68833,1,2,1:0:0:0:
357,199,69012,1,8,0:0:0:0:
74,263,69192,6,0,B|197:243|142:323|285:301,1,192.640002351563,6|0,1:0|1:0,0:0:0:0:
282,285,69641,1,0,1:0:0:0:
282,285,69731,5,8,0:0:0:0:
118,342,69910,1,0,1:0:0:0:
335,223,70090,1,8,0:0:0:0:
172,136,70270,1,0,1:0:0:0:
366,300,70449,2,0,P|430:287|482:282,1,96.3200011757813,10|0,0:0|1:0,0:0:0:0:
305,135,70809,6,0,P|215:144|173:243,2,192.640002351563,6|2|0,1:0|1:0|1:0,0:0:0:0:
240,295,71707,1,0,0:0:0:0:
141,102,71887,2,0,P|77:89|25:84,1,96.3200011757813,2|0,1:0|0:0,0:0:0:0:
304,229,72246,2,0,P|391:207|502:198,2,192.640002351563,2|2|2,1:0|1:0|1:0,0:0:0:0:
124,335,73144,1,0,3:0:0:0:
280,143,73324,1,10,0:0:0:0:
361,372,73503,1,10,0:0:0:0:
195,80,73683,6,0,P|192:137|185:275,1,185.760004535156,14|2,0:0|0:0,0:0:0:0:
388,42,74401,2,0,P|391:99|392:151,2,92.8800022675782,6|8|8,1:0|3:0|3:0,0:0:0:0:
297,239,75120,1,8,0:0:0:0:
266,245,76557,6,0,P|212:216|109:231,1,141.0400021521,6|2,1:0|0:0,0:0:0:0:
291,336,77096,1,6,3:0:0:0:
291,336,77185,1,4,3:0:0:0:
291,336,77275,1,6,3:0:0:0:
340,148,77455,2,0,P|414:163|424:171,1,70.5200010760498,10|0,3:3|0:0,0:0:0:0:
470,281,77815,1,2,0:0:0:0:
272,217,77994,1,12,0:0:0:0:
425,98,78174,2,0,P|440:159|448:256,1,141.0400021521,2|2,0:0|0:0,0:0:0:0:
291,336,78713,1,8,0:0:0:0:
220,249,78892,2,0,P|231:193|243:162,2,70.5200010760498,2|0|0,3:0|3:0|3:0,0:0:0:0:
92,328,79431,1,14,0:0:0:0:
92,328,79791,5,8,0:0:0:0:
131,208,79970,1,2,0:0:0:0:
241,278,80150,1,8,0:0:0:0:
194,110,80330,1,2,0:0:0:0:
325,311,80509,1,10,0:0:0:0:
394,87,80689,1,0,0:0:0:0:
394,87,80779,1,0,1:0:0:0:
394,87,80869,5,14,0:0:0:0:
308,137,81048,1,8,0:0:0:0:
403,183,81228,1,8,0:0:0:0:
262,68,81407,1,8,0:0:0:0:
271,248,81587,1,8,0:0:0:0:
472,122,81767,1,10,0:0:0:0:
183,223,81946,1,10,0:0:0:0:
456,354,82126,1,10,0:0:0:0:
221,135,82306,6,0,P|159:138|133:150,1,79.1199973439942,6|2,1:0|0:0,0:0:0:0:
158,309,82665,2,0,P|197:310|235:299,1,79.1199973439942,2|2,1:0|0:0,0:0:0:0:
318,171,83024,2,0,P|357:170|395:181,1,79.1199973439942,0|2,1:0|0:0,0:0:0:0:
419,200,83294,1,0,3:0:0:0:
419,200,83383,1,2,1:0:0:0:
302,326,83563,1,2,0:0:0:0:
502,238,83743,2,0,P|489:167|478:144,1,79.1199973439942,2|2,1:0|0:0,0:0:0:0:
470,131,84012,1,0,3:0:0:0:
470,131,84102,1,2,1:0:0:0:
390,298,84282,1,10,0:0:0:0:
390,298,84372,1,10,0:0:0:0:
390,298,84461,1,0,1:0:0:0:
305,95,84641,1,10,0:0:0:0:
305,95,84731,1,8,0:0:0:0:
305,95,84821,1,8,0:0:0:0:
270,78,84910,1,8,0:0:0:0:
231,81,85000,1,8,0:0:0:0:
197,101,85090,1,8,0:0:0:0:
177,134,85180,6,0,P|185:210|186:242,1,79.1199973439942,4|0,1:0|1:0,0:0:0:0:
257,356,85539,1,2,1:0:0:0:
71,212,85719,2,2,P|75:252|81:291,1,79.1199973439942,10|0,0:0|0:0,0:0:0:0:
237,200,86078,1,2,1:0:0:0:
68,100,86258,1,2,1:0:0:0:
167,324,86437,6,0,B|380:325|250:141|498:138,1,402.479997543457,6|2,1:0|0:0,0:0:0:0:
319,129,93803,5,6,1:0:0:0:
130,329,94162,1,2,0:0:0:0:
130,329,94342,2,0,L|48:320,1,61.9200015117188,6|0,1:0|0:0,0:0:0:0:
27,253,94701,2,0,L|88:246,1,61.9200015117188,2|0,0:0|0:0,0:0:0:0:
420,200,95060,1,4,1:0:0:0:
194,42,95419,1,2,0:0:0:0:
194,42,95599,2,0,L|185:114,1,61.9200015117188,2|0,1:0|0:0,0:0:0:0:
306,358,95958,2,0,L|294:220,1,123.840003023438,6|0,1:0|0:0,0:0:0:0:
295,234,96677,5,6,1:0:0:0:
167,272,96857,1,8,3:0:0:0:
294,141,97036,1,2,0:0:0:0:
136,77,97216,1,6,1:0:0:0:
388,302,97575,5,2,1:0:0:0:
294,141,97755,1,8,3:0:0:0:
242,328,97934,1,10,0:0:0:0:
426,72,98294,5,2,0:0:0:0:
215,192,98474,1,10,0:0:0:0:
398,149,98653,1,0,1:0:0:0:
194,39,98833,2,0,L|183:117,1,61.9200015117188,10|8,0:0|0:0,0:0:0:0:
195,142,99102,1,8,0:0:0:0:
195,142,99192,1,8,0:0:0:0:
312,298,99372,1,8,0:0:0:0:
312,298,99461,1,8,0:0:0:0:
312,298,99551,6,0,B|218:300|265:247|136:258,1,158.239994687988,4|10,1:0|0:0,0:0:0:0:
291,200,100090,1,2,1:0:0:0:
185,346,100270,1,2,0:0:0:0:
291,200,100449,2,0,P|276:135|267:115,1,79.1199973439942,2|8,1:0|0:0,0:0:0:0:
120,284,100809,1,2,1:0:0:0:
120,284,100898,1,8,0:0:0:0:
120,284,100988,1,0,1:0:0:0:
194,159,101168,1,2,0:0:0:0:
280,330,101348,1,8,0:0:0:0:
386,183,101527,2,0,P|379:143|366:106,1,79.1199973439942,2|0,1:0|0:0,0:0:0:0:
279,223,101886,1,2,1:0:0:0:
461,248,102066,1,8,0:0:0:0:
286,138,102246,5,2,1:0:0:0:
286,138,102336,1,8,0:0:0:0:
286,138,102425,2,0,B|192:136|239:189|110:178,1,158.239994687988,0|10,1:0|0:0,0:0:0:0:
279,223,102964,1,2,1:0:0:0:
148,101,103144,1,2,0:0:0:0:
239,295,103324,2,0,P|297:312|330:306,1,79.1199973439942,2|8,1:0|0:0,0:0:0:0:
185,185,103683,2,0,P|97:190|14:236,1,158.239994687988,2|2,1:0|1:0,0:0:0:0:
151,268,104222,1,10,0:0:0:0:
76,116,104401,1,2,1:0:0:0:
76,116,104491,1,8,0:0:0:0:
76,116,104581,1,0,1:0:0:0:
242,221,104761,1,0,1:0:0:0:
333,79,104940,2,0,P|335:39|337:0,1,79.1199973439942,8|0,0:0|1:0,0:0:0:0:
321,285,105300,6,0,P|394:317|469:276,1,158.239994687988,6|10,1:0|0:0,0:0:0:0:
260,85,105839,2,0,P|249:147|247:189,1,79.1199973439942,2|0,1:0|0:0,0:0:0:0:
394,195,106198,1,2,1:0:0:0:
213,247,106377,1,8,0:0:0:0:
182,34,106557,2,0,P|255:2|330:43,1,158.239994687988,6|2,1:0|1:0,0:0:0:0:
206,220,107096,2,0,P|202:180|194:141,1,79.1199973439942,10|0,0:0|1:0,0:0:0:0:
381,103,107455,2,0,P|373:141|369:181,1,79.1199973439942,6|8,1:0|3:0,0:0:0:0:
433,314,107815,1,8,0:0:0:0:
408,283,107904,1,8,3:0:0:0:
373,266,107994,1,8,3:0:0:0:
334,265,108084,1,8,3:0:0:0:
298,282,108174,5,6,1:0:0:0:
451,187,108354,1,0,1:0:0:0:
359,349,108533,1,2,1:0:0:0:
296,160,108713,2,0,P|220:114|136:151,1,158.239994687988,10|6,0:0|1:0,0:0:0:0:
313,61,109252,1,0,1:0:0:0:
205,260,109431,1,14,0:0:0:0:
205,260,109791,1,10,3:0:0:0:
75,35,109970,1,10,3:0:0:0:
138,211,110150,1,0,1:0:0:0:
276,28,110330,2,0,P|329:12|367:16,1,79.1199973439942,6|0,0:0|1:0,0:0:0:0:
411,69,110599,1,8,0:0:0:0:
411,69,110689,2,0,L|403:123,1,39.5599986719971,8|8,3:0|3:0,0:0:0:0:
246,153,110869,2,0,L|254:207,1,39.5599986719971,8|8,3:0|3:0,0:0:0:0:
382,218,111048,6,0,P|376:295|370:354,1,123.840003023438,6|0,1:0|0:0,0:0:0:0:
299,262,111587,1,2,3:0:0:0:
272,345,111767,2,0,P|241:339|211:331,1,61.9200015117188,2|0,3:0|0:0,0:0:0:0:
198,226,112126,2,0,P|168:233|137:239,1,61.9200015117188,0|2,0:0|3:0,0:0:0:0:
65,321,112485,2,0,P|41:244|61:197,1,123.840003023438,2|0,1:0|0:0,0:0:0:0:
109,132,113024,1,2,3:0:0:0:
184,199,113204,2,0,P|236:214|265:216,1,61.9200015117188,2|0,0:0|0:0,0:0:0:0:
265,112,113563,2,0,P|294:101|324:96,1,61.9200015117188,8|2,3:0|0:0,0:0:0:0:
441,160,113922,6,0,P|380:160|331:196,1,123.840003023438,6|2,1:0|0:0,0:0:0:0:
320,281,114461,1,0,1:0:0:0:
247,136,114641,1,10,0:0:0:0:
320,281,114821,2,0,P|326:320|327:345,1,61.9200015117188,0|2,1:0|0:0,0:0:0:0:
364,187,115180,1,0,1:0:0:0:
237,245,115360,2,0,P|233:275|231:306,1,61.9200015117188,2|0,0:0|1:0,0:0:0:0:
280,149,115719,1,8,0:0:0:0:
152,291,115898,1,2,1:0:0:0:
364,187,116078,1,10,0:0:0:0:
139,316,116258,1,0,1:0:0:0:
414,257,116437,1,8,0:0:0:0:
431,231,116526,1,8,0:0:0:0:
440,202,116616,1,10,0:0:0:0:
440,171,116706,1,8,0:0:0:0:
432,141,116797,6,0,P|362:112|277:126,1,131.580000803101,6|0,1:0|0:0,0:0:0:0:
276,136,117156,1,10,0:0:0:0:
265,311,117336,2,0,P|329:294|351:271,1,87.7200005354004,2|0,0:0|1:0,0:0:0:0:
182,159,117695,1,2,1:0:0:0:
124,297,117875,1,8,0:0:0:0:
276,136,118054,2,0,P|259:78|235:48,1,87.7200005354004,2|0,1:0|0:0,0:0:0:0:
99,179,118413,1,2,1:0:0:0:
269,318,118593,1,8,0:0:0:0:
198,184,118773,1,2,1:0:0:0:
198,184,118863,1,0,3:0:0:0:
198,184,118952,2,0,P|178:250|182:289,1,87.7200005354004,0|2,1:0|1:0,0:0:0:0:
352,138,119312,1,8,0:0:0:0:
352,138,119671,6,0,P|282:121|253:110,1,87.7200005354004,6|0,1:0|0:0,0:0:0:0:
349,295,120030,1,10,0:0:0:0:
157,168,120210,2,0,P|115:181|72:190,1,87.7200005354004,2|0,1:0|0:0,0:0:0:0:
234,284,120569,1,2,1:0:0:0:
174,85,120749,1,10,0:0:0:0:
306,223,120928,6,0,P|375:202|495:194,1,175.440001070801,6|0,1:0|1:0,0:0:0:0:
308,107,121467,1,8,0:0:0:0:
214,312,121647,2,0,P|126:305|42:282,1,175.440001070801,0|0,1:0|1:0,0:0:0:0:
113,81,122186,1,0,1:0:0:0:
156,79,122275,1,8,0:0:0:0:
193,102,122365,1,10,0:0:0:0:
212,141,122455,1,8,0:0:0:0:
207,184,122545,6,0,P|140:195|83:160,1,131.580000803101,6|0,1:0|0:0,0:0:0:0:
66,138,122904,2,0,P|81:216|86:260,1,87.7200005354004,10|2,0:0|0:0,0:0:0:0:
235,283,123264,2,0,P|241:239|251:196,1,87.7200005354004,0|2,1:0|0:0,0:0:0:0:
380,73,123623,1,8,0:0:0:0:
232,167,123803,1,0,1:0:0:0:
434,250,123982,5,2,0:0:0:0:
362,164,124162,1,0,1:0:0:0:
251,340,124342,1,10,0:0:0:0:
349,246,124521,1,0,1:0:0:0:
142,161,124701,1,2,1:0:0:0:
263,254,124881,1,0,1:0:0:0:
204,28,125060,1,10,0:0:0:0:
151,300,125240,1,8,0:0:0:0:
361,96,125419,5,6,1:0:0:0:
56,183,125599,1,0,1:0:0:0:
294,328,125779,1,0,1:0:0:0:
179,55,125958,1,10,0:0:0:0:
171,75,126318,5,8,0:0:0:0:
171,75,126407,1,8,0:0:0:0:
171,75,126497,2,0,L|176:130,1,43.8600002677002,0|0,1:0|1:0,0:0:0:0:
302,171,126677,2,0,L|305:127,1,43.8600002677002,10|8,0:0|0:0,0:0:0:0:
114,183,126857,6,0,B|279:181|198:73|379:69,1,288.959991181641,14|0,0:0|0:0,0:0:0:0:
367,69,129012,6,0,L|399:79,3,18.0599994488526,2|2|2|2,0:0|0:0|0:0|0:0,0:0:0:0:
395,148,129372,2,0,L|412:142,3,18.0599994488526,2|2|2|2,0:0|0:0|0:0|0:0,0:0:0:0:
454,216,129731,5,14,0:0:0:0:
418,6,129910,1,0,1:0:0:0:
323,268,130090,1,10,0:0:0:0:
287,58,130269,1,2,1:0:0:0:
178,232,130449,5,8,0:0:0:0:
214,22,130628,1,2,1:0:0:0:
25,242,130809,1,8,0:0:0:0:
61,32,130988,1,2,1:0:0:0:
191,309,131168,5,8,0:0:0:0:
125,85,131348,1,2,1:0:0:0:
296,238,131527,1,10,0:0:0:0:
362,14,131707,1,0,1:0:0:0:
125,204,131887,5,10,0:0:0:0:
417,82,132066,1,0,1:0:0:0:
417,82,132156,1,0,1:0:0:0:
417,82,132246,2,0,L|428:183,1,96.3200011757813,10|0,0:0|0:0,0:0:0:0:
191,127,132605,5,14,0:0:0:0:
365,309,132785,1,0,1:0:0:0:
272,81,132964,1,10,0:0:0:0:
279,349,133144,1,2,1:0:0:0:
301,61,133324,5,8,0:0:0:0:
217,285,133503,1,2,1:0:0:0:
125,55,133683,1,8,0:0:0:0:
296,244,133863,1,2,1:0:0:0:
365,5,134042,5,8,0:0:0:0:
126,155,134222,1,0,1:0:0:0:
393,247,134401,1,8,0:0:0:0:
196,97,134581,1,0,1:0:0:0:
182,346,134761,5,8,0:0:0:0:
377,161,134940,1,2,1:0:0:0:
170,260,135120,1,8,0:0:0:0:
122,265,135209,1,8,0:0:0:0:
79,246,135299,1,10,0:0:0:0:
51,207,135389,1,8,0:0:0:0:
47,160,135479,6,0,P|105:135|156:138,1,96.3200011757813,6|0,1:0|0:0,0:0:0:0:
273,276,135839,1,10,0:0:0:0:
417,140,136018,2,0,P|396:70|375:50,1,96.3200011757813,2|0,0:0|1:0,0:0:0:0:
241,188,136378,1,2,0:0:0:0:
409,284,136557,1,8,0:0:0:0:
328,124,136737,1,2,0:0:0:0:
247,305,136916,5,2,1:0:0:0:
203,106,137096,1,2,0:0:0:0:
397,58,137276,1,10,0:0:0:0:
441,257,137455,2,0,P|374:252|331:227,1,96.3200011757813,2|0,0:0|1:0,0:0:0:0:
224,76,137815,1,0,3:0:0:0:
145,241,137994,1,8,0:0:0:0:
310,154,138174,5,2,0:0:0:0:
310,154,138264,1,2,0:0:0:0:
310,154,138354,2,0,P|242:124|185:134,1,104.919995677429,6|0,1:0|0:0,0:0:0:0:
208,49,138623,2,0,P|138:75|105:123,1,104.919995677429,8|0,3:0|0:0,0:0:0:0:
38,85,138892,2,0,P|42:147|56:174,1,52.4599978387147,10|0,3:0|0:0,0:0:0:0:
120,229,139072,6,0,L|98:369,1,113.519999653564,6|0,1:0|0:0,0:0:0:0:
205,269,139342,2,0,L|227:409,1,113.519999653564,8|0,3:0|0:0,0:0:0:0:
295,284,139611,1,2,3:0:0:0:
295,284,139701,1,2,3:0:0:0:
295,284,139791,1,14,0:0:0:0:
391,29,140150,5,8,0:0:0:0:
245,155,140330,1,10,0:0:0:0:
245,155,140419,1,10,0:0:0:0:
245,155,140509,2,0,L|184:145,3,43.8600002677002,10|0|0|0,0:0|3:0|3:0|3:0,0:0:0:0:
335,98,140869,1,8,0:0:0:0:
360,132,140958,1,8,0:0:0:0:
369,175,141048,1,8,0:0:0:0:
358,217,141138,1,8,0:0:0:0:
329,250,141228,5,14,0:0:0:0:
441,111,141407,1,0,1:0:0:0:
245,155,141587,1,10,0:0:0:0:
388,319,141767,1,2,1:0:0:0:
335,98,141946,5,8,0:0:0:0:
177,269,142126,1,2,1:0:0:0:
367,176,142306,1,8,0:0:0:0:
163,80,142485,1,2,1:0:0:0:
253,315,142665,5,8,0:0:0:0:
342,67,142845,2,0,L|296:56,1,43.8600002677002,2|0,1:0|1:0,0:0:0:0:
330,263,143024,2,0,L|344:372,1,87.7200005354004,10|0,0:0|1:0,0:0:0:0:
156,118,143384,2,0,L|144:205,1,87.7200005354004,10|0,0:0|1:0,0:0:0:0:
430,84,143743,2,0,L|441:171,1,87.7200005354004,10|0,0:0|1:0,0:0:0:0:
234,61,144102,5,14,0:0:0:0:
330,263,144282,1,0,1:0:0:0:
330,263,144372,1,0,1:0:0:0:
330,263,144461,1,10,0:0:0:0:
157,120,144641,1,2,1:0:0:0:
105,329,144821,1,8,0:0:0:0:
254,171,145000,1,2,1:0:0:0:
309,377,145180,1,8,0:0:0:0:
157,120,145360,6,0,P|205:50|310:51,1,175.440001070801,6|0,1:0|1:0,0:0:0:0:
297,357,145898,1,8,0:0:0:0:
104,214,146078,1,0,1:0:0:0:
348,123,146258,1,8,0:0:0:0:
238,267,146437,1,0,1:0:0:0:
426,79,146617,1,10,0:0:0:0:
293,351,146797,1,0,1:0:0:0:
293,351,146887,1,0,1:0:0:0:
293,351,146976,6,0,P|202:346|165:253,2,175.440001070801,6|2|0,1:0|1:0|1:0,0:0:0:0:
236,152,147875,1,0,0:0:0:0:
81,321,148054,2,0,P|66:254|69:209,1,87.7200005354004,2|0,1:0|0:0,0:0:0:0:
240,70,148413,2,0,P|320:122|319:216,2,175.440001070801,2|2|2,1:0|1:0|1:0,0:0:0:0:
306,268,149312,1,0,3:0:0:0:
355,32,149491,1,10,0:0:0:0:
213,278,149671,1,10,0:0:0:0:
134,63,149851,6,0,P|91:42|121:117,1,185.760004535156,6|2,1:0|0:0,0:0:0:0:
326,66,150569,5,6,1:0:0:0:
203,226,150839,1,8,3:0:0:0:
302,351,151108,1,8,3:0:0:0:
268,174,151288,5,8,0:0:0:0:
235,189,152725,5,14,0:0:0:0:
78,280,152904,2,0,P|69:213|54:128,1,141.0400021521,8|0,0:0|0:0,0:0:0:0:
265,205,153443,1,14,0:0:0:0:
422,114,153622,2,0,P|431:181|446:266,1,141.0400021521,8|0,0:0|0:0,0:0:0:0:
243,85,154162,1,14,0:0:0:0:
215,324,154342,1,8,0:0:0:0:
290,2,154701,6,0,P|242:61|159:54,1,141.0400021521,10|0,0:0|0:0,0:0:0:0:
103,21,155240,2,0,L|97:68,1,35.2600005380249,0|0,3:0|3:0,0:0:0:0:
82,134,155419,2,0,L|76:181,1,35.2600005380249,0|0,3:0|3:0,0:0:0:0:
62,258,155599,5,14,0:0:0:0:
280,239,155779,2,0,P|191:232|127:218,1,141.0400021521,8|0,0:0|0:0,0:0:0:0:
450,126,156318,1,14,0:0:0:0:
232,145,156497,2,0,P|280:135|313:133,1,70.5200010760498,8|0,0:0|0:0,0:0:0:0:
82,37,156857,1,8,0:0:0:0:
92,21,157216,5,8,3:0:0:0:
320,55,157395,2,0,B|194:59|251:140|103:142,1,211.560003228149,14|0,0:0|1:0,0:0:0:0:
306,140,158114,1,8,0:0:0:0:
330,165,158203,1,8,0:0:0:0:
346,196,158293,1,8,0:0:0:0:
351,231,158383,1,8,0:0:0:0:
345,265,158473,6,0,P|249:295|199:222,2,175.440001070801,6|10|2,1:0|0:0|1:0,0:0:0:0:
180,340,159372,1,0,1:0:0:0:
300,170,159551,1,8,0:0:0:0:
119,251,159731,2,0,P|102:185|107:159,1,87.7200005354004,2|0,1:0|0:0,0:0:0:0:
269,38,160090,5,2,1:0:0:0:
198,175,160270,1,10,0:0:0:0:
160,100,160449,1,2,0:0:0:0:
286,254,160629,5,2,1:0:0:0:
362,104,160809,1,2,1:0:0:0:
282,169,160988,1,10,0:0:0:0:
366,187,161168,1,2,0:0:0:0:
118,28,161348,5,10,0:0:0:0:
274,85,161527,2,0,L|325:73,2,43.8600002677002,2|2|2,1:0|1:0|1:0,0:0:0:0:
50,145,161887,2,0,L|-1:133,2,43.8600002677002,10|2|2,0:0|1:0|1:0,0:0:0:0:
227,200,162246,2,0,L|278:188,1,43.8600002677002,2|2,1:0|0:0,0:0:0:0:
147,255,162425,2,0,L|104:244,1,43.8600002677002,10|0,0:0|1:0,0:0:0:0:
197,113,162605,6,0,L|174:300,1,175.440001070801,6|2,1:0|3:0,0:0:0:0:
196,328,163054,1,2,3:0:0:0:
196,328,163144,1,2,3:0:0:0:
316,217,163324,1,2,3:0:0:0:
316,217,163413,1,2,3:0:0:0:
316,217,163503,2,0,L|328:279,1,43.8600002677002,10|2,0:0|0:0,0:0:0:0:
156,178,163683,2,0,L|164:134,1,43.8600002677002,10|2,0:0|0:0,0:0:0:0:
397,73,163863,1,2,0:0:0:0:
361,48,163952,1,2,0:0:0:0:
318,47,164042,1,2,0:0:0:0:
282,70,164132,1,2,0:0:0:0:
265,110,164222,6,0,P|280:179|279:216,1,87.7200005354004,12|0,0:0|3:0,0:0:0:0:
356,240,164491,1,0,3:0:0:0:
356,240,164581,2,0,P|359:196|371:154,1,87.7200005354004,0|2,1:0|3:0,0:0:0:0:
390,127,164851,1,0,3:0:0:0:
390,127,164940,1,8,0:0:0:0:
276,283,165120,1,0,3:0:0:0:
169,107,165300,1,2,1:0:0:0:
282,165,165479,1,0,3:0:0:0:
282,165,165569,1,0,3:0:0:0:
282,165,165659,6,0,P|194:140|179:140,1,87.7200005354004,14|0,0:0|3:0,0:0:0:0:
123,184,165928,1,0,3:0:0:0:
123,184,166018,2,0,P|72:200|52:203,1,43.8600002677002,0|0,1:0|3:0,0:0:0:0:
130,47,166198,2,0,P|151:53|171:60,1,43.8600002677002,2|0,3:0|3:0,0:0:0:0:
225,232,166378,1,8,0:0:0:0:
288,65,166557,1,0,3:0:0:0:
366,250,166737,2,0,P|409:242|449:225,1,87.7200005354004,2|0,1:0|3:0,0:0:0:0:
202,139,167096,6,0,P|197:201|192:245,1,87.7200005354004,14|0,0:0|3:0,0:0:0:0:
117,276,167366,1,0,3:0:0:0:
117,276,167455,2,0,P|112:232|109:188,1,87.7200005354004,0|2,1:0|3:0,0:0:0:0:
116,152,167725,1,0,3:0:0:0:
116,152,167815,1,8,0:0:0:0:
226,296,167994,1,0,3:0:0:0:
301,97,168174,1,2,1:0:0:0:
211,191,168354,1,0,1:0:0:0:
402,128,168533,6,0,P|383:59|355:20,1,87.7200005354004,14|0,0:0|0:0,0:0:0:0:
187,0,168892,2,0,P|168:39|160:82,1,87.7200005354004,0|0,1:0|3:0,0:0:0:0:
218,164,169162,1,0,3:0:0:0:
218,164,169252,2,0,P|209:121|191:81,1,87.7200005354004,8|0,0:0|3:0,0:0:0:0:
129,208,169611,1,2,1:0:0:0:
288,91,169791,1,2,0:0:0:0:
65,141,169970,6,0,P|43:197|48:247,1,87.7200005354004,14|0,0:0|3:0,0:0:0:0:
104,296,170240,1,0,3:0:0:0:
104,296,170330,2,0,P|171:278|199:279,1,87.7200005354004,0|2,1:0|3:0,0:0:0:0:
218,296,170599,1,0,3:0:0:0:
218,296,170689,1,8,0:0:0:0:
316,119,170869,1,0,3:0:0:0:
389,299,171048,1,2,1:0:0:0:
281,215,171228,1,0,3:0:0:0:
281,215,171318,1,0,3:0:0:0:
281,215,171407,6,0,P|344:197|386:195,1,87.7200005354004,14|0,0:0|3:0,0:0:0:0:
431,127,171677,1,0,3:0:0:0:
431,127,171767,2,0,P|369:111|358:113,1,43.8600002677002,0|0,1:0|3:0,0:0:0:0:
362,273,171946,2,0,P|342:283|321:288,1,43.8600002677002,0|0,3:0|3:0,0:0:0:0:
229,111,172126,1,8,0:0:0:0:
160,260,172306,1,0,3:0:0:0:
176,46,172485,1,2,1:0:0:0:
281,212,172665,1,2,3:0:0:0:
281,212,172755,1,0,3:0:0:0:
281,212,172845,6,0,P|276:271|269:325,1,87.7200005354004,14|0,0:0|0:0,0:0:0:0:
197,142,173204,1,0,1:0:0:0:
229,111,173293,1,0,3:0:0:0:
270,98,173383,1,2,3:0:0:0:
313,103,173473,1,8,0:0:0:0:
349,127,173563,2,0,P|397:149|447:154,1,87.7200005354004,8|0,0:0|3:0,0:0:0:0:
209,260,173922,2,0,P|169:240|126:232,1,87.7200005354004,2|0,1:0|3:0,0:0:0:0:
221,26,174282,5,14,0:0:0:0:
314,225,174461,1,0,3:0:0:0:
314,225,174551,1,0,3:0:0:0:
314,225,174641,1,8,0:0:0:0:
178,121,174821,1,0,3:0:0:0:
117,350,175000,1,8,0:0:0:0:
225,233,175180,2,0,L|171:221,1,43.8600002677002,0|0,3:0|3:0,0:0:0:0:
294,384,175360,2,0,L|407:358,1,87.7200005354004,8|0,0:0|3:0,0:0:0:0:
434,90,175719,6,0,B|319:80|391:155|252:142,1,175.440001070801,6|8,1:0|0:0,0:0:0:0:
423,172,176258,1,2,0:0:0:0:
252,57,176437,2,0,P|247:143|237:245,1,175.440001070801,0|10,1:0|0:0,0:0:0:0:
163,98,176976,1,0,3:0:0:0:
163,98,177066,1,0,3:0:0:0:
163,98,177156,6,0,P|104:66|42:143,1,175.440001070801,6|8,1:0|0:0,0:0:0:0:
158,311,177695,1,2,0:0:0:0:
211,165,177875,2,0,P|312:145|327:146,1,87.7200005354004,0|0,1:0|0:0,0:0:0:0:
379,315,178234,2,0,P|335:309|294:295,1,87.7200005354004,8|0,0:0|0:0,0:0:0:0:
264,68,178593,6,0,P|326:58|394:147,1,175.440001070801,6|8,1:0|0:0,0:0:0:0:
218,297,179132,1,2,1:0:0:0:
118,138,179312,2,0,P|132:74|150:48,1,87.7200005354004,0|0,1:0|0:0,0:0:0:0:
318,217,179671,1,12,0:0:0:0:
145,354,179851,1,8,0:0:0:0:
145,354,179940,1,8,0:0:0:0:
145,354,180030,6,0,P|90:340|57:302,1,87.7200005354004,6|0,1:0|0:0,0:0:0:0:
311,128,180389,2,0,P|353:135|388:162,1,87.7200005354004,0|0,1:0|0:0,0:0:0:0:
289,360,180749,1,0,1:0:0:0:
183,108,180928,1,8,0:0:0:0:
140,101,181017,1,8,0:0:0:0:
99,116,181107,1,8,0:0:0:0:
72,150,181197,1,8,0:0:0:0:
65,193,181287,1,8,0:0:0:0:
81,234,181377,1,8,0:0:0:0:
115,261,181467,6,0,B|231:279|167:204|317:233,1,175.440001070801,6|0,1:0|1:0,0:0:0:0:
146,182,182006,1,2,0:0:0:0:
313,294,182186,2,0,P|321:208|329:168,1,87.7200005354004,0|0,1:0|0:0,0:0:0:0:
179,107,182545,2,0,P|184:150|187:194,1,87.7200005354004,2|0,1:0|0:0,0:0:0:0:
347,37,182904,6,0,P|426:40|434:144,1,175.440001070801,2|0,1:0|1:0,0:0:0:0:
298,258,183443,1,2,0:0:0:0:
250,50,183623,2,0,P|164:27|140:33,1,87.7200005354004,0|0,1:0|0:0,0:0:0:0:
105,242,183982,2,0,P|148:238|187:218,1,87.7200005354004,2|0,1:0|0:0,0:0:0:0:
512,131,184342,6,0,B|279:125|391:363|138:337,1,438.600002677002,6|0,1:0|1:0,0:0:0:0:
291,157,185419,1,0,3:0:0:0:
361,339,185599,1,2,1:0:0:0:
195,198,185779,2,0,P|203:131|222:96,1,79.1199973439942,2|0,1:0|1:0,0:0:0:0:
285,264,186138,1,2,0:0:0:0:
379,170,186318,2,0,P|371:103|352:68,1,79.1199973439942,2|0,0:0|0:0,0:0:0:0:
291,157,186677,1,2,0:0:0:0:
291,157,186767,1,2,0:0:0:0:
291,157,186857,1,2,0:0:0:0:
291,157,186946,1,2,0:0:0:0:
291,157,187036,6,0,L|279:365,1,175.440001070801,6|2,1:0|1:0,0:0:0:0:
172,146,187575,1,10,0:0:0:0:
359,88,187755,1,0,1:0:0:0:
412,255,187934,1,8,0:0:0:0:
225,313,188114,1,0,1:0:0:0:
291,157,188294,1,8,0:0:0:0:
302,366,188473,6,0,L|104:337,1,175.440001070801,14|0,0:0|1:0,0:0:0:0:
239,82,189012,1,8,0:0:0:0:
322,283,189192,1,0,1:0:0:0:
172,146,189372,1,8,0:0:0:0:
128,340,189551,1,0,1:0:0:0:
317,128,189731,1,8,0:0:0:0:
65,280,189910,6,0,P|119:235|222:262,1,175.440001070801,14|0,0:0|1:0,0:0:0:0:
157,109,190449,1,8,0:0:0:0:
227,298,190629,1,0,1:0:0:0:
417,239,190809,1,8,0:0:0:0:
347,50,190989,1,0,1:0:0:0:
262,216,191168,1,8,0:0:0:0:
453,91,191348,2,0,L|239:59,1,175.440001070801,6|0,1:0|0:0,0:0:0:0:
134,230,191887,1,0,1:0:0:0:
347,50,192066,2,0,L|173:75,1,175.440001070801,6|0,1:0|1:0,0:0:0:0:
262,216,192605,1,8,0:0:0:0:
267,259,192694,1,8,0:0:0:0:
273,303,192784,1,10,0:0:0:0:
255,288,193144,6,0,L|183:274,2,43.8600002677002,2|0|8,1:0|1:0|0:0,0:0:0:0:
286,150,193503,2,0,L|358:136,2,43.8600002677002,2|0|8,1:0|1:0|0:0,0:0:0:0:
231,371,193863,2,0,L|159:357,2,43.8600002677002,2|0|8,1:0|1:0|0:0,0:0:0:0:
299,60,194222,2,0,L|371:46,2,43.8600002677002,2|0|8,1:0|1:0|0:0,0:0:0:0:
117,239,194581,5,2,1:0:0:0:
423,168,194761,1,10,0:0:0:0:
92,148,194940,2,0,L|79:265,1,87.7200005354004,2|8,1:0|0:0,0:0:0:0:
304,321,195300,1,2,1:0:0:0:
241,79,195479,1,10,0:0:0:0:
413,255,195659,6,0,L|434:66,1,175.440001070801,14|0,0:0|1:0,0:0:0:0:
227,243,196198,1,8,0:0:0:0:
470,165,196378,1,2,1:0:0:0:
214,65,196557,1,8,0:0:0:0:
306,313,196737,1,0,1:0:0:0:
378,46,196916,1,8,0:0:0:0:
167,327,197096,6,0,P|104:269|137:169,1,175.440001070801,14|2,0:0|1:0,0:0:0:0:
306,313,197635,1,8,0:0:0:0:
63,174,197815,2,0,P|175:127|255:123,1,175.440001070801,6|6,1:0|1:0,0:0:0:0:
426,190,198354,1,10,0:0:0:0:
426,190,198443,1,8,0:0:0:0:
426,190,198533,1,8,0:0:0:0:
198,79,198713,5,14,0:0:0:0:
368,20,198892,1,8,0:0:0:0:
426,190,199072,1,8,0:0:0:0:
256,249,199252,1,8,0:0:0:0:
123,57,199431,5,8,0:0:0:0:
337,41,199610,1,8,0:0:0:0:
352,256,199790,1,10,0:0:0:0:
137,271,199970,1,10,0:0:0:0:
101,37,200150,5,8,0:0:0:0:
353,83,200329,1,10,0:0:0:0:
303,338,200509,1,8,0:0:0:0:
50,289,200689,1,10,0:0:0:0:
72,12,200869,5,8,0:0:0:0:
383,68,201048,1,10,0:0:0:0:
322,384,201228,1,8,0:0:0:0:
8,323,201408,1,8,0:0:0:0:
406,99,201587,6,0,L|424:297,1,175.440001070801,14|0,0:0|1:0,0:0:0:0:
221,132,202126,2,0,L|203:330,1,175.440001070801,6|0,1:0|1:0,0:0:0:0:
67,23,202665,1,10,0:0:0:0:
67,23,203204,6,0,L|46:122,1,87.7200005354004,8|2,3:0|1:0,0:0:0:0:
248,80,203563,1,0,1:0:0:0:
248,80,203653,1,8,0:0:0:0:
248,80,203743,2,0,L|269:179,1,87.7200005354004,10|0,0:0|1:0,0:0:0:0:
451,88,204102,1,2,3:0:0:0:
451,88,204192,1,0,3:0:0:0:
451,88,204282,1,0,3:0:0:0:
451,88,204372,1,0,3:0:0:0:
451,88,204461,6,0,B|192:119|378:283|95:296,1,440.32,6|2,1:0|0:0,0:0:0:0:
205,162,212545,6,0,L|209:195,1,22.3599998635254,2|0,0:0|0:0,0:0:0:0:
286,198,212725,6,0,L|282:239,1,41.28,2|0,0:0|0:0,0:0:0:0:
282,324,213084,6,0,P|326:308|356:306,1,53.3199978846436,14|2,0:0|0:0,0:0:0:0:
203,257,213443,1,2,1:0:0:0:
138,310,213623,2,0,P|112:303|87:293,1,53.3199978846436,2|0,0:0|1:0,0:0:0:0:
143,140,213982,1,2,0:0:0:0:
83,203,214162,2,0,P|66:157|68:140,1,53.3199978846436,2|2,1:0|0:0,0:0:0:0:
253,38,214521,5,14,0:0:0:0:
220,107,214701,1,2,1:0:0:0:
164,36,214881,1,2,1:0:0:0:
318,109,215060,1,2,1:0:0:0:
159,205,215240,1,0,1:0:0:0:
253,38,215419,1,0,1:0:0:0:
338,267,215599,1,0,1:0:0:0:
206,128,215779,1,2,1:0:0:0:
206,128,215869,1,2,1:0:0:0:
206,128,215958,5,6,1:0:0:0:
188,240,216228,1,0,3:0:0:0:
170,352,216497,2,0,L|220:339,1,35.2600005380249,2|2,1:0|1:0,0:0:0:0:
323,105,216677,5,8,0:0:0:0:
323,105,216857,2,0,L|345:271,1,141.0400021521,0|8,1:0|0:0,0:0:0:0:
102,109,217395,5,8,0:0:0:0:
251,301,217665,1,0,1:0:0:0:
400,109,217934,1,2,1:0:0:0:
400,109,218024,1,2,1:0:0:0:
400,109,218114,5,6,1:0:0:0:
85,192,218384,1,0,1:0:0:0:
400,275,218653,1,0,1:0:0:0:
400,275,218743,1,0,1:0:0:0:
400,275,218833,6,0,B|261:274|332:353|193:347,1,211.560003228149,14|2,0:0|0:0,0:0:0:0:
129,297,219461,1,2,0:0:0:0:
129,297,219551,6,0,B|97:165|177:34|177:34|303:118|327:272|327:272|224:231|224:231|261:132|383:154,1,846.240012912598,6|4,1:0|1:2,0:0:0:0:
358,150,222066,6,0,P|400:161|417:171,3,35.2600005380249,2|2|2|2,0:0|0:0|0:0|0:0,0:0:0:0:
357,234,222425,2,0,P|379:271|384:290,3,35.2600005380249,2|2|2|2,0:0|0:0|0:0|0:0,0:0:0:0:
297,294,222785,2,0,P|287:336|277:353,3,35.2600005380249,2|2|2|10,0:0|0:0|0:0|0:0,0:0:0:0:
213,293,223144,6,0,P|176:315|145:323,2,47.0133340506999,0|8|8,1:0|3:0|3:0,0:0:0:0:
152,235,223503,1,8,0:0:0:0:
130,194,223622,1,8,0:0:0:0:
143,150,223742,1,8,0:0:0:0:
182,126,223863,5,14,0:0:0:0:
305,177,224042,1,0,0:0:0:0:
305,177,224132,1,0,0:0:0:0:
305,177,224222,2,0,L|298:238,1,35.2600005380249,2|2,3:0|3:0,0:0:0:0:
405,97,224401,2,0,L|412:158,1,35.2600005380249,2|2,3:0|3:0,0:0:0:0:
365,300,224581,5,14,0:0:0:0:
313,93,224761,1,0,1:0:0:0:
187,258,224940,1,10,0:0:0:0:
412,158,225120,1,2,1:0:0:0:
328,378,225300,5,8,0:0:0:0:
196,158,225479,1,2,1:0:0:0:
442,249,225659,1,8,0:0:0:0:
176,349,225839,1,2,1:0:0:0:
313,92,226018,5,8,0:0:0:0:
365,300,226198,1,2,1:0:0:0:
201,58,226378,1,10,0:0:0:0:
149,266,226558,1,0,1:0:0:0:
394,40,226737,5,10,0:0:0:0:
271,288,226916,1,0,1:0:0:0:
186,21,227096,1,10,0:0:0:0:
434,168,227276,1,0,1:0:0:0:
124,296,227455,5,14,0:0:0:0:
310,92,227635,1,0,1:0:0:0:
317,371,227815,1,10,0:0:0:0:
111,158,227994,1,2,1:0:0:0:
328,337,228174,5,8,0:0:0:0:
199,54,228354,1,2,1:0:0:0:
112,331,228533,1,8,0:0:0:0:
217,86,228713,1,2,1:0:0:0:
28,254,228892,5,8,0:0:0:0:
296,180,229072,1,0,1:0:0:0:
36,112,229252,1,8,0:0:0:0:
308,22,229431,1,0,1:0:0:0:
104,189,229611,5,8,0:0:0:0:
384,251,229791,1,2,1:0:0:0:
221,100,229970,1,8,0:0:0:0:
177,119,230059,1,8,0:0:0:0:
148,156,230149,1,10,0:0:0:0:
141,204,230239,1,8,0:0:0:0:
157,248,230330,6,0,P|231:239|270:221,1,96.3200011757813,6|0,1:0|0:0,0:0:0:0:
300,47,230689,1,8,0:0:0:0:
66,121,230869,2,0,P|49:198|53:240,1,96.3200011757813,2|0,0:0|1:0,0:0:0:0:
267,327,231228,1,2,0:0:0:0:
148,156,231407,1,8,0:0:0:0:
267,327,231587,1,2,0:0:0:0:
243,98,231767,5,2,1:0:0:0:
173,282,231946,1,2,0:0:0:0:
354,355,232126,1,10,0:0:0:0:
424,171,232306,2,0,P|353:176|319:200,1,96.3200011757813,2|0,0:0|1:0,0:0:0:0:
267,327,232665,1,0,0:0:0:0:
462,253,232845,1,8,0:0:0:0:
282,101,233024,5,2,0:0:0:0:
282,101,233114,1,2,0:0:0:0:
282,101,233204,2,0,P|218:146|168:140,1,104.919995677429,6|0,1:0|0:0,0:0:0:0:
198,161,233473,2,0,P|248:151|285:115,1,104.919995677429,8|0,3:0|0:0,0:0:0:0:
120,125,233743,2,0,P|64:109|55:101,1,52.4599978387147,10|0,3:0|0:0,0:0:0:0:
234,233,233922,6,0,P|258:292|266:343,1,113.519999653564,6|0,1:0|0:0,0:0:0:0:
252,356,234192,2,0,P|242:300|220:248,1,113.519999653564,8|0,3:0|0:0,0:0:0:0:
282,101,234461,2,0,P|267:175|268:190,1,56.7599998267822,2|2,3:0|3:0,0:0:0:0:
391,318,234641,6,0,P|464:280|400:186,1,183.179990776154,6|0,1:0|3:0,0:0:0:0:
357,176,235000,2,0,P|295:202|223:212,1,122.119993850769,8|0,3:0|1:0,0:0:0:0:
17,84,235360,1,12,0:0:0:0:
52,60,235449,1,8,0:0:0:0:
94,52,235539,1,8,0:0:0:0:
135,60,235629,1,8,0:0:0:0:
171,83,235719,1,8,0:0:0:0:
206,106,235809,1,8,0:0:0:0:
248,114,235899,1,8,0:0:0:0:
289,105,235989,1,8,0:0:0:0:
325,82,236078,6,0,P|325:109|323:131,1,41.28,2|0,0:0|0:0,0:0:0:0:
286,197,236437,5,14,0:0:0:0:
377,11,236617,1,2,1:0:0:0:
303,231,236797,1,8,0:0:0:0:
210,14,236976,1,2,1:0:0:0:
132,239,237156,1,8,0:0:0:0:
397,161,237336,1,2,1:0:0:0:
145,204,237515,5,8,0:0:0:0:
434,268,237695,1,2,1:0:0:0:
434,268,237785,1,0,1:0:0:0:
434,268,237875,1,10,0:0:0:0:
254,118,238054,1,0,1:0:0:0:
236,337,238234,5,10,0:0:0:0:
384,124,238413,1,0,1:0:0:0:
132,239,238593,1,10,0:0:0:0:
407,151,238773,2,0,L|414:198,1,48.1600005878906,0|0,1:0|1:0,0:0:0:0:
236,337,238952,5,14,0:0:0:0:
297,94,239132,2,0,L|289:141,1,48.1600005878906,0|0,1:0|1:0,0:0:0:0:
439,300,239312,1,10,0:0:0:0:
213,189,239491,1,2,1:0:0:0:
408,300,239671,5,8,0:0:0:0:
168,255,239851,1,2,1:0:0:0:
428,221,240030,1,8,0:0:0:0:
117,322,240210,6,0,P|71:266|133:146,1,192.640002351563,6|0,1:0|1:0,0:0:0:0:
303,275,240749,1,8,0:0:0:0:
345,41,240928,1,0,1:0:0:0:
168,255,241108,1,8,0:0:0:0:
164,21,241288,1,0,1:0:0:0:
321,285,241467,1,10,0:0:0:0:
363,51,241646,1,0,1:0:0:0:
151,268,241827,6,0,P|142:185|125:77,2,192.640002351563,6|2|0,1:0|1:0|1:0,0:0:0:0:
211,108,242725,1,0,0:0:0:0:
87,220,242904,2,0,P|94:144|98:103,1,96.3200011757813,2|0,1:0|0:0,0:0:0:0:
301,231,243264,2,0,P|310:148|327:40,2,192.640002351563,6|2|2,1:0|1:0|1:0,0:0:0:0:
241,71,244162,1,0,3:0:0:0:
380,198,244342,1,10,0:0:0:0:
168,324,244521,1,10,0:0:0:0:
289,163,244701,5,14,0:0:0:0:
179,238,244881,2,0,P|106:236|100:115,1,192.640002351563,8|2,3:0|0:0,0:0:0:0:
295,268,245419,1,6,1:0:0:0:
167,128,245599,1,0,3:0:0:0:
167,128,245689,1,0,3:0:0:0:
167,128,245779,2,0,P|214:101|262:100,1,96.3200011757813,0|0,3:0|3:0,0:0:0:0:
168,324,246138,1,14,0:0:0:0:
254,66,247575,5,14,0:0:0:0:
159,261,247755,1,0,1:0:0:0:
374,134,247934,5,8,0:0:0:0:
131,81,248114,1,2,1:0:0:0:
241,297,248294,5,10,0:0:0:0:
152,52,248473,1,0,1:0:0:0:
22,251,248653,5,8,0:0:0:0:
275,143,248833,1,0,1:0:0:0:
48,265,249012,5,8,0:0:0:0:
297,352,249192,1,0,1:0:0:0:
161,114,249372,5,10,0:0:0:0:
92,355,249551,1,0,1:0:0:0:
331,182,249731,5,10,0:0:0:0:
48,265,249910,1,0,1:0:0:0:
331,369,250090,5,10,0:0:0:0:
167,86,250270,1,0,1:0:0:0:
251,336,250449,5,14,0:0:0:0:
386,79,250629,1,0,1:0:0:0:
131,217,250809,5,8,0:0:0:0:
424,296,250988,1,2,1:0:0:0:
279,38,251168,5,10,0:0:0:0:
218,315,251348,1,0,1:0:0:0:
488,163,251527,5,8,0:0:0:0:
167,88,251707,1,0,1:0:0:0:
344,344,251887,5,8,0:0:0:0:
286,77,252066,1,0,1:0:0:0:
112,277,252246,5,10,0:0:0:0:
401,182,252425,1,0,1:0:0:0:
136,71,252605,5,10,0:0:0:0:
240,335,252785,1,0,3:0:0:0:
240,335,252875,1,0,3:0:0:0:
240,335,252964,2,0,P|240:264|258:169,1,131.580000803101,2|8,1:0|0:0,0:0:0:0:
257,172,253324,6,0,P|203:176|151:205,1,87.7200005354004,6|0,1:0|0:0,0:0:0:0:
320,306,253683,2,0,P|360:321|404:323,1,87.7200005354004,8|2,0:0|0:0,0:0:0:0:
214,267,254042,2,0,P|185:322|184:365,1,87.7200005354004,2|0,1:0|0:0,0:0:0:0:
383,238,254401,2,0,P|374:195|351:158,1,87.7200005354004,8|0,0:0|0:0,0:0:0:0:
268,132,254671,1,0,3:0:0:0:
268,132,254761,6,0,B|150:121|215:189|96:179,1,175.440001070801,6|8,1:0|0:0,0:0:0:0:
163,61,255300,1,0,0:0:0:0:
261,222,255479,2,0,P|313:205|342:171,1,87.7200005354004,0|0,1:0|0:0,0:0:0:0:
125,82,255839,2,0,P|73:99|44:133,1,87.7200005354004,8|0,0:0|0:0,0:0:0:0:
202,303,256198,5,8,0:0:0:0:
271,45,256378,1,8,3:0:0:0:
271,45,256737,1,8,3:0:0:0:
271,45,257096,2,0,L|285:141,1,87.7200005354004,0|8,3:0|3:0,0:0:0:0:
96,305,257455,6,0,L|108:218,1,87.7200005354004,14|0,0:0|0:0,0:0:0:0:
228,273,257815,1,2,0:0:0:0:
228,273,257994,2,0,L|215:186,1,87.7200005354004,2|2,0:0|0:0,0:0:0:0:
351,297,258354,1,2,0:0:0:0:
410,232,258533,2,0,P|337:209|262:282,1,175.440001070801,2|0,0:0|0:0,0:0:0:0:
207,351,259072,6,0,P|168:340|149:329,2,44.7199997270508,2|2|2,0:0|0:0|0:0,0:0:0:0:
85,352,259611,2,0,P|62:292|63:260,1,89.4399994541016,2|2,0:0|0:0,0:0:0:0:
108,192,260150,1,2,0:0:0:0:
0,289,260330,6,0,P|19:248|23:204,1,89.4399994541016,2|2,0:0|0:0,0:0:0:0:
1,118,260869,1,2,0:0:0:0:
58,174,261048,1,2,0:0:0:0:
143,183,261228,2,0,P|174:173|196:172,1,44.7199997270508,2|2,0:0|0:0,0:0:0:0:
235,111,261587,2,0,P|257:114|277:122,1,44.7199997270508,2|2,0:0|0:0,0:0:0:0:
322,201,261946,6,0,P|362:230|416:222,1,89.4399994541016,2|2,0:0|0:0,0:0:0:0:
441,164,262485,2,0,P|397:164|362:192,1,89.4399994541016,2|2,0:0|0:0,0:0:0:0:
350,273,263024,1,2,0:0:0:0:
416,330,263204,2,0,P|428:294|425:269,1,44.7199997270508,2|2,0:0|0:0,0:0:0:0:
336,353,263563,5,2,0:0:0:0:
260,313,263743,1,2,0:0:0:0:
251,234,263922,1,2,0:0:0:0:
303,173,264122,6,0,P|312:123|312:117,1,44.7199997270508,2|2,0:0|0:0,0:0:0:0:
316,49,264663,5,2,0:0:0:0:
316,49,265079,6,0,P|373:23|421:29,1,110.08,2|2,0:0|0:0,0:0:0:0:
446,67,266006,6,0,L|448:90,1,13.76,2|2,0:0|0:0,0:0:0:0:
472,102,266185,6,0,B|186:105|322:322|45:323,1,505.680012345704,2|0,0:0|0:0,0:0:0:0:
