osu file format v14

[General]
AudioFilename: audio.mp3
AudioLeadIn: 0
PreviewTime: 126587
Countdown: 0
SampleSet: Soft
StackLeniency: 0.7
Mode: 0
LetterboxInBreaks: 0
WidescreenStoryboard: 1

[Editor]
DistanceSpacing: 1.9
BeatDivisor: 4
GridSize: 32
TimelineZoom: 2.699999

[Metadata]
Title:Yuuki wa Doko ni? Kimi no Mune ni!
TitleUnicode:勇気はどこに?君の胸に!
Artist:Aqours
ArtistUnicode:Aqours
Creator:Sotarks
Version:SMOKELIND's Insane
Source:ラブライブ!サンシャイン!!
Tags:Love Live! Sunshine!! 2nd season school idol project yuki Chika Takami 高海千歌 Anju Inami 伊波杏樹 Riko Sakurauchi 桜内梨子 Rikako Aida 逢田梨香子 Kanan Matsuura 松浦果南 Nanaka Suwa 諏訪ななか Dia Kurosawa 黒澤ダイヤ Arisa Komiya 小宮有紗 You Watanabe 渡辺 曜 Shuka Saitou 斉藤朱夏 Yoshiko Tsushima Yohane 津島善子 Aika Kobayashi 小林愛香 Hanamaru Kunikida 国木田花丸 Kanako Takatsuki 高槻かなこ Mari Ohara 小原鞠莉 Aina Suzuki 鈴木愛奈 Ruby 黒澤ルビィ Ai Furihata 降幡 愛 ed ending where can you find courage? inside your heart! full version japanese anime vocalist smokelind
BeatmapID:2203621
BeatmapSetID:1054647

[Difficulty]
HPDrainRate:4.7
CircleSize:3.7
OverallDifficulty:8.2
ApproachRate:9
SliderMultiplier:1.77
SliderTickRate:1

[Events]
//Background and Video events
0,0,"bg.jpg",0,0
//Break Periods
2,88253,93203
2,207535,212484
//Storyboard Layer 0 (Background)
//Storyboard Layer 1 (Fail)
//Storyboard Layer 2 (Pass)
//Storyboard Layer 3 (Foreground)
//Storyboard Layer 4 (Overlay)
//Storyboard Sound Samples

[TimingPoints]
390,359.281437125748,4,2,22,22,1,0
390,-212.765957446809,4,2,22,22,0,0
3264,-212.765957446809,4,2,22,32,0,0
6138,-212.765957446809,4,2,22,42,0,0
6228,-212.765957446809,4,2,22,5,0,0
7575,-114.942528735633,4,2,22,52,0,0
11887,-114.942528735633,4,2,22,62,0,0
12604,-114.942528735633,4,2,22,72,0,0
12605,-114.942528735633,4,2,22,72,0,0
13324,-114.942528735633,4,2,22,62,0,0
17455,-212.765957446809,4,2,22,62,0,0
17545,-212.765957446809,4,2,22,5,0,0
18354,-212.765957446809,4,2,22,22,0,0
18443,-212.765957446809,4,2,22,5,0,0
19072,-129.87012987013,4,2,22,52,0,0
30569,-114.942528735632,4,2,22,62,0,0
42066,-129.87012987013,4,2,22,52,0,0
47815,-103.092783505155,4,2,22,62,0,0
48084,-103.092783505155,4,2,22,5,0,0
48174,-103.092783505155,4,2,22,62,0,0
49252,-103.092783505155,4,2,22,72,0,0
50689,-103.092783505155,4,2,22,82,0,0
53563,-93.4579439252337,4,2,22,92,0,0
59312,-103.092783505155,4,2,22,92,0,0
62186,-103.092783505155,4,2,22,82,0,0
63623,-103.092783505155,4,2,22,92,0,0
65060,-93.4579439252337,4,2,22,92,0,0
70809,-103.092783505155,4,2,22,92,0,0
73683,-129.87012987013,4,2,22,72,0,0
76557,-114.942528735633,4,2,22,52,0,0
80869,-114.942528735633,4,2,22,62,0,0
81587,-114.942528735633,4,2,22,72,0,0
82306,-114.942528735633,4,2,22,62,0,0
86437,-212.765957446809,4,2,22,62,0,0
86527,-192.307692307692,4,2,22,5,0,0
88053,-212.765957446809,4,2,22,42,0,0
88054,-175.438596491228,4,2,22,42,0,0
93803,-175.438596491228,4,2,22,52,0,0
99551,-114.942528735633,4,2,22,52,0,0
111048,-129.87012987013,4,2,22,52,0,0
116797,-103.092783505155,4,2,22,62,0,0
117066,-103.092783505155,4,2,22,5,0,0
117156,-103.092783505155,4,2,22,62,0,0
119671,-103.092783505155,4,2,22,72,0,0
122545,-103.092783505155,4,2,22,62,0,0
122814,-103.092783505155,4,2,22,5,0,0
122904,-103.092783505155,4,2,22,62,0,0
123982,-103.092783505155,4,2,22,72,0,0
125419,-103.092783505155,4,2,22,82,0,0
126857,-175.438596491228,4,2,22,82,0,0
126946,-175.438596491228,4,2,22,5,0,0
128294,-175.438596491228,4,2,22,22,0,0
129012,-175.438596491228,4,2,22,42,0,0
129372,-175.438596491228,4,2,22,52,0,0
129731,-93.4579439252337,4,2,22,92,0,0
135479,-103.092783505155,4,2,22,92,0,0
138354,-103.092783505155,4,2,22,82,0,0
140509,-103.092783505155,4,2,22,92,0,0
141228,-93.4579439252337,4,2,22,92,0,0
146976,-103.092783505155,4,2,22,92,0,0
149851,-129.87012987013,4,2,22,72,0,0
152725,-114.942528735633,4,2,22,62,0,0
158473,-103.092783505155,4,2,22,62,0,0
184342,-212.76595744681,4,2,22,62,0,0
184431,-212.76595744681,4,2,22,5,0,0
185240,-212.76595744681,4,2,22,52,0,0
186318,-129.87012987013,4,2,22,52,0,0
187036,-93.4579439252336,4,2,22,82,0,0
198713,-93.4579439252336,4,2,22,62,0,0
199431,-93.4579439252336,4,2,22,72,0,0
200150,-93.4579439252336,4,2,22,82,0,0
200869,-93.4579439252336,4,2,22,92,0,0
203204,-93.4579439252336,4,2,22,72,0,0
204461,-212.765957446809,4,2,22,82,0,0
204551,-212.765957446809,4,2,22,5,0,0
205898,-175.438596491228,4,2,22,42,0,0
205988,-175.438596491228,4,2,22,5,0,0
207335,-175.438596491228,4,2,22,22,0,0
207336,-175.438596491228,4,2,22,22,0,0
212545,-175.438596491228,4,2,22,52,0,0
213084,-114.942528735632,4,2,22,52,0,0
215958,-114.942528735632,4,2,22,62,0,0
216677,-103.092783505155,4,2,22,62,0,0
217216,-93.4579439252339,4,2,22,62,0,0
218833,-93.4579439252339,4,2,22,72,0,0
219551,-212.765957446809,4,2,22,72,0,0
219641,-212.765957446809,4,2,22,5,0,0
221706,-212.765957446809,4,2,22,52,0,0
221707,-175.438596491228,4,2,22,52,0,0
221887,-114.942528735632,4,2,22,22,0,0
222066,-114.942528735632,4,2,22,32,0,0
222425,-114.942528735632,4,2,22,42,0,0
222785,-114.942528735632,4,2,22,52,0,0
223144,-93.4579439252339,4,2,22,52,0,0
223863,-93.4579439252339,4,2,22,62,0,0
224581,-93.4579439252337,4,2,22,92,0,0
230330,-103.092783505155,4,2,22,92,0,0
233204,-103.092783505155,4,2,22,82,0,0
236078,-370.37037037037,4,2,22,42,0,0
236347,-370.37037037037,4,2,22,5,0,0
236348,-370.37037037037,4,2,22,5,0,0
236437,-93.4579439252339,4,2,22,92,0,0
241827,-103.092783505155,4,2,22,92,0,0
246138,-103.092783505155,4,2,22,72,0,0
247575,-93.4579439252337,4,2,22,92,0,0
253324,-103.092783505155,4,2,22,62,0,0
257994,-114.942528735633,4,2,22,62,0,0
258533,-129.87012987013,4,2,22,62,0,0
259072,-212.765957446809,4,2,22,22,0,0
264122,416.666666666667,4,2,22,22,1,0
264122,-212.765957446809,4,2,22,22,0,0
264663,416.666666666667,4,2,22,22,1,0
264663,-212.765957446809,4,2,22,22,0,0
264767,-212.765957446809,4,2,22,5,0,0
265079,-212.765957446809,4,2,22,22,0,0
265183,-212.765957446809,4,2,22,5,0,0
265916,-212.765957446809,4,2,22,22,0,0
266006,359.281437125748,4,2,22,22,1,0
266185,-588.235294117647,4,2,22,22,0,0
266275,-588.235294117647,4,2,22,5,0,0

[Colours]
Combo1 : 169,130,95
Combo2 : 203,225,128
Combo3 : 107,202,209
Combo4 : 211,95,138

[HitObjects]
61,107,390,6,0,L|65:153,2,41.5949993653107,2|2|2,0:0|0:0|0:0,0:0:0:0:
114,45,928,1,2,0:0:0:0:
411,200,1288,6,0,L|415:159,1,41.5949993653107,2|2,0:0|0:0,0:0:0:0:
362,97,1647,1,2,0:0:0:0:
238,333,2006,6,0,L|234:291,2,41.5949993653107,2|2|2,0:0|0:0|0:0,0:0:0:0:
301,250,2545,2,0,L|304:208,2,41.5949993653107,2|2|2,0:0|0:0|0:0,0:0:0:0:
251,146,3084,1,2,0:0:0:0:
251,146,3264,2,0,L|190:152,1,41.5949993653107,2|2,0:0|0:0,0:0:0:0:
141,201,3623,1,2,0:0:0:0:
141,201,3803,2,0,L|47:193,2,83.1899987306214,2|2|2,0:0|0:0|0:0,0:0:0:0:
301,250,4881,6,0,L|395:242,1,83.1899987306214,2|2,0:0|0:0,0:0:0:0:
297,172,5419,2,0,L|256:178,2,41.5949993653107,2|2|2,0:0|0:0|0:0,0:0:0:0:
208,110,5958,1,2,0:0:0:0:
208,110,6138,2,0,B|54:190|199:278|15:348,1,311.96249523983,2|0,0:0|0:0,0:0:0:0:
17,325,7575,6,0,P|38:267|49:164,1,153.990001292336,6|2,1:0|0:0,0:0:0:0:
100,44,8114,2,0,P|140:25|203:24,1,76.9950006461678,2|0,3:0|3:0,0:0:0:0:
232,150,8473,2,0,P|266:167|304:173,1,76.9950006461678,2|0,0:0|0:0,0:0:0:0:
374,109,8833,1,2,0:0:0:0:
462,228,9012,5,12,0:0:0:0:
454,86,9192,2,0,P|473:160|483:236,1,153.990001292336,2|2,0:0|0:0,0:0:0:0:
419,351,9731,1,8,0:0:0:0:
419,351,9910,2,0,P|382:323|334:311,1,76.9950006461678,2|0,3:0|3:0,0:0:0:0:
252,373,10270,1,0,3:0:0:0:
173,254,10449,6,0,P|159:210|157:168,1,76.9950006461678,14|0,0:0|0:0,0:0:0:0:
15,309,10809,2,0,P|27:272|31:234,1,76.9950006461678,8|2,0:0|0:0,0:0:0:0:
187,250,11168,2,0,P|170:195|167:142,1,76.9950006461678,8|2,0:0|0:0,0:0:0:0:
0,312,11528,2,0,P|15:267|20:219,1,76.9950006461678,10|0,0:0|0:0,0:0:0:0:
0,58,11887,6,0,P|40:41|143:76,1,153.990001292336,14|8,0:0|0:0,0:0:0:0:
199,170,12425,2,0,P|238:153|286:147,1,76.9950006461678,8|8,0:0|0:0,0:0:0:0:
390,206,12785,1,10,0:0:0:0:
371,59,12964,1,10,0:0:0:0:
405,195,13144,1,10,0:0:0:0:
289,70,13324,6,0,P|256:48|217:41,2,76.9950006461678,6|2|2,1:0|0:0|1:0,0:0:0:0:
283,186,13863,1,2,0:0:0:0:
283,186,14042,2,0,P|251:207|213:215,1,76.9950006461678,0|2,1:0|0:0,0:0:0:0:
194,201,14312,1,0,3:0:0:0:
194,201,14401,2,0,P|162:180|124:172,1,76.9950006461678,2|2,1:0|0:0,0:0:0:0:
74,314,14761,6,0,P|98:253|112:157,1,153.990001292336,2|2,1:0|1:0,0:0:0:0:
257,270,15300,2,0,P|245:239|238:191,1,76.9950006461678,10|0,0:0|1:0,0:0:0:0:
378,302,15659,1,2,3:0:0:0:
378,302,15749,1,0,3:0:0:0:
378,302,15839,2,0,P|390:271|397:223,1,76.9950006461678,8|8,0:0|0:0,0:0:0:0:
376,202,16108,5,8,0:0:0:0:
376,202,16198,2,0,P|364:171|357:123,1,76.9950006461678,4|0,1:0|1:0,0:0:0:0:
410,35,16557,1,2,1:0:0:0:
251,163,16737,2,2,P|263:132|270:84,1,76.9950006461678,10|2,0:0|0:0,0:0:0:0:
137,192,17096,2,0,P|125:161|118:113,1,76.9950006461678,2|2,1:0|1:0,0:0:0:0:
61,280,17455,6,0,P|70:346|137:293,1,187.177497143898,14|0,0:0|0:0,0:0:0:0:
139,283,18354,2,0,P|201:272|283:319,1,145.582497778587,2|0,0:0|0:0,0:0:0:0:
280,317,19072,6,0,B|359:299|305:264|396:238,2,136.289997296494,4|2|2,1:0|1:0|1:0,0:0:0:0:
254,219,19970,2,0,P|271:178|271:135,1,68.1449986482468,2|0,0:0|1:0,0:0:0:0:
165,97,20330,2,0,P|169:130|184:161,1,68.1449986482468,2|0,0:0|1:0,0:0:0:0:
252,59,20689,2,0,P|282:44|316:39,1,68.1449986482468,2|0,0:0|1:0,0:0:0:0:
415,138,21048,2,0,P|381:133|350:118,1,68.1449986482468,2|0,0:0|1:0,0:0:0:0:
251,45,21407,2,0,P|281:31|315:27,1,68.1449986482468,2|0,0:0|1:0,0:0:0:0:
412,126,21766,2,0,P|378:120|347:105,1,68.1449986482468,2|0,0:0|1:0,0:0:0:0:
328,237,22126,5,0,0:0:0:0:
328,237,22306,2,0,P|336:272|339:312,1,68.1449986482468,2|0,1:0|0:0,0:0:0:0:
235,218,22665,1,2,1:0:0:0:
235,218,22845,2,0,P|227:253|224:293,1,68.1449986482468,2|0,0:0|1:0,0:0:0:0:
130,196,23204,2,0,P|138:231|141:271,1,68.1449986482468,2|0,0:0|1:0,0:0:0:0:
50,159,23563,1,2,0:0:0:0:
50,159,23743,1,2,1:0:0:0:
117,77,23922,2,0,P|151:62|189:62,1,68.1449986482468,2|0,0:0|1:0,0:0:0:0:
274,120,24282,1,0,3:0:0:0:
274,120,24461,2,0,P|285:79|288:40,1,68.1449986482468,8|0,0:2|0:0,0:0:0:0:
390,163,24821,6,0,P|373:92|368:27,1,136.289997296494,6|2,1:0|1:0,0:0:0:0:
339,233,25360,2,0,P|375:249|432:247,1,68.1449986482468,2|0,0:0|1:0,0:0:0:0:
474,154,25719,2,0,P|440:158|409:172,1,68.1449986482468,2|0,0:0|1:0,0:0:0:0:
293,305,26078,2,0,P|241:295|154:289,1,136.289997296494,2|2,0:0|0:0,0:0:0:0:
52,363,26617,2,0,P|67:327|72:282,1,68.1449986482468,2|0,1:0|0:0,0:0:0:0:
85,162,26976,2,0,P|109:246|117:310,1,136.289997296494,2|0,1:0|1:0,0:0:0:0:
293,58,27695,6,0,P|327:40|372:40,1,68.1449986482468,2|0,1:0|0:0,0:0:0:0:
289,158,28054,1,2,1:0:0:0:
289,158,28234,2,0,P|255:153|225:137,1,68.1449986482468,2|0,0:0|1:0,0:0:0:0:
145,29,28593,2,0,P|154:67|155:106,1,68.1449986482468,2|0,0:0|1:0,0:0:0:0:
55,211,28952,2,0,P|32:271|12:359,1,136.289997296494,6|2,0:0|0:0,0:0:0:0:
179,372,29491,2,0,P|221:359|242:342,1,68.1449986482468,6|0,1:0|0:0,0:0:0:0:
272,210,29851,2,0,P|318:214|374:296,1,136.289997296494,2|0,1:0|1:0,0:0:0:0:
477,379,30389,5,0,3:0:0:0:
477,379,30479,1,8,0:0:0:0:
477,379,30569,2,0,P|461:301|454:221,1,153.990001292336,4|10,1:0|0:0,0:0:0:0:
491,93,31108,1,2,1:0:0:0:
491,93,31288,1,2,0:0:0:0:
371,162,31467,2,0,P|331:159|292:145,1,76.9950006461678,2|8,1:0|0:0,0:0:0:0:
203,43,31827,6,0,P|211:84|218:133,1,76.9950006461678,2|0,1:0|1:0,0:0:0:0:
128,234,32186,2,0,P|136:196|141:158,1,76.9950006461678,2|8,0:0|0:0,0:0:0:0:
238,286,32545,2,0,P|278:308|317:308,1,76.9950006461678,2|0,1:0|0:0,0:0:0:0:
397,184,32904,2,0,P|437:162|476:162,1,76.9950006461678,2|8,1:0|0:0,0:0:0:0:
292,230,33264,5,2,1:0:0:0:
292,230,33354,1,8,0:0:0:0:
292,230,33443,2,0,P|316:158|324:78,1,153.990001292336,0|10,1:0|0:0,0:0:0:0:
417,29,33982,1,2,1:0:0:0:
417,29,34162,1,2,0:0:0:0:
297,133,34342,2,0,P|258:116|205:109,1,76.9950006461678,2|8,1:0|0:0,0:0:0:0:
131,215,34701,6,0,P|166:199|203:191,1,76.9950006461678,2|0,1:0|0:0,0:0:0:0:
320,307,35060,1,2,1:0:0:0:
299,171,35240,1,10,0:0:0:0:
210,322,35419,1,2,1:0:0:0:
210,322,35509,1,8,0:0:0:0:
210,322,35599,2,0,P|172:314|137:298,1,76.9950006461678,0|0,1:0|1:0,0:0:0:0:
41,198,35958,2,0,P|51:239|55:295,1,76.9950006461678,8|0,0:0|1:0,0:0:0:0:
141,87,36318,6,0,B|221:125|167:161|255:201,1,153.990001292336,6|10,1:0|0:0,0:0:0:0:
339,69,36857,2,0,P|296:118|265:218,1,153.990001292336,2|2,1:0|1:0,0:0:0:0:
286,312,37395,1,8,0:0:0:0:
135,245,37575,2,0,P|132:206|121:169,1,76.9950006461678,6|0,1:0|0:0,0:0:0:0:
195,313,37934,1,2,1:0:0:0:
291,186,38114,2,0,P|343:170|375:172,1,76.9950006461678,10|0,0:0|1:0,0:0:0:0:
368,344,38473,2,0,P|352:300|348:253,1,76.9950006461678,6|0,1:0|1:0,0:0:0:0:
460,149,38833,2,0,P|476:105|480:58,1,76.9950006461678,8|0,0:0|0:0,0:0:0:0:
312,23,39192,5,6,1:0:0:0:
312,23,39372,1,0,1:0:0:0:
312,23,39551,1,2,1:0:0:0:
249,141,39731,2,0,P|212:162|160:168,1,76.9950006461678,6|0,1:0|0:0,0:0:0:0:
300,58,40090,2,0,P|337:66|370:85,1,76.9950006461678,2|0,1:0|1:0,0:0:0:0:
368,239,40449,6,0,P|355:192|354:151,1,76.9950006461678,14|0,0:0|0:0,0:0:0:0:
279,310,40809,1,10,3:0:0:0:
166,223,40988,2,0,P|162:261|151:298,1,76.9950006461678,10|0,3:0|1:0,0:0:0:0:
107,146,41348,2,0,P|159:120|207:135,1,76.9950006461678,6|0,0:0|1:0,0:0:0:0:
196,140,41617,1,0,1:0:0:0:
196,140,41707,2,0,P|248:166|296:151,1,76.9950006461678,8|8,3:0|3:0,0:0:0:0:
345,62,42066,6,0,P|364:156|370:226,1,136.289997296494,6|0,1:0|0:0,0:0:0:0:
484,336,42605,1,2,3:0:0:0:
484,336,42785,2,0,P|492:268|507:201,1,136.289997296494,2|0,3:0|0:0,0:0:0:0:
355,350,43324,1,2,3:0:0:0:
401,288,43504,2,0,P|392:220|377:153,1,136.289997296494,2|0,1:0|0:0,0:0:0:0:
228,258,44042,1,2,3:0:0:0:
228,258,44222,2,0,P|236:190|251:123,1,136.289997296494,2|0,0:0|3:0,0:0:0:0:
106,69,44761,5,2,0:0:0:0:
161,123,44940,2,0,P|222:98|322:87,1,136.289997296494,6|2,1:0|0:0,0:0:0:0:
363,195,45479,1,0,1:0:0:0:
403,52,45659,2,0,P|440:30|495:27,1,68.1449986482468,10|0,0:0|1:0,0:0:0:0:
512,171,46018,2,0,P|475:149|420:146,1,68.1449986482468,2|0,0:0|1:0,0:0:0:0:
368,235,46378,6,0,P|383:268|394:318,1,68.1449986482468,2|0,0:0|1:0,0:0:0:0:
258,212,46737,1,8,0:0:0:0:
240,324,46916,1,2,1:0:0:0:
230,197,47096,2,0,P|194:183|154:179,1,68.1449986482468,10|0,0:0|1:0,0:0:0:0:
84,320,47455,2,0,P|88:297|90:275,3,34.0724993241234,8|8|2|0,0:0|0:0|3:0|3:0,0:0:0:0:
51,212,47815,6,0,P|24:124|24:37,1,171.690004060661,6|10,1:0|0:0,0:0:0:0:
139,166,48354,2,0,P|182:181|224:183,1,85.8450020303307,2|0,0:0|1:0,0:0:0:0:
309,49,48713,2,0,P|266:51|226:66,1,85.8450020303307,2|8,0:0|0:0,0:0:0:0:
338,193,49072,1,2,0:0:0:0:
461,43,49252,6,0,P|454:85|451:128,1,85.8450020303307,6|0,1:0|1:0,0:0:0:0:
360,296,49611,2,0,P|356:253|350:210,1,85.8450020303307,10|0,0:0|1:0,0:0:0:0:
275,43,49970,1,2,1:0:0:0:
210,209,50150,1,0,1:0:0:0:
99,31,50330,1,10,0:0:0:0:
211,235,50509,1,8,0:0:0:0:
188,50,50689,6,0,P|236:31|303:44,1,85.8450020303307,6|0,1:0|1:0,0:0:0:0:
176,160,51048,1,0,1:0:0:0:
323,251,51228,2,0,P|365:250|404:232,1,85.8450020303307,10|2,0:0|0:0,0:0:0:0:
325,104,51587,1,8,0:0:0:0:
303,263,51767,1,0,1:0:0:0:
202,81,51946,1,10,0:0:0:0:
205,328,52126,5,14,0:0:0:0:
205,328,53563,6,0,P|166:352|102:352,1,94.694997110138,14|0,0:0|1:0,0:0:0:0:
267,167,53922,1,10,0:0:0:0:
358,357,54102,2,0,P|397:381|461:381,1,94.694997110138,2|8,1:0|0:0,0:0:0:0:
361,157,54461,2,0,P|314:160|274:184,1,94.694997110138,2|8,1:0|0:0,0:0:0:0:
118,355,54821,6,0,P|102:297|102:219,1,94.694997110138,2|8,1:0|0:0,0:0:0:0:
188,102,55180,1,2,1:0:0:0:
307,287,55360,2,0,P|347:311|393:314,1,94.694997110138,10|0,0:0|1:0,0:0:0:0:
415,82,55719,2,0,P|401:128|394:195,1,94.694997110138,10|0,0:0|1:0,0:0:0:0:
180,218,56078,2,0,P|173:171|159:125,1,94.694997110138,10|0,0:0|1:0,0:0:0:0:
380,1,56437,6,0,P|427:-6|475:17,1,94.694997110138,14|0,0:0|1:0,0:0:0:0:
321,223,56797,1,10,0:0:0:0:
198,45,56976,2,0,P|150:38|102:61,1,94.694997110138,2|8,1:0|0:0,0:0:0:0:
68,262,57336,2,0,P|114:268|157:250,1,94.694997110138,2|8,1:0|0:0,0:0:0:0:
340,112,57695,6,0,B|443:150|367:191|502:232,1,189.389994220276,6|0,1:0|1:0,0:0:0:0:
416,21,58234,1,8,0:0:0:0:
313,226,58413,1,0,1:0:0:0:
263,0,58593,1,8,0:0:0:0:
303,244,58773,1,2,1:0:0:0:
269,21,58952,2,0,P|263:50|263:86,3,47.347498555069,10|8|10|8,0:0|0:0|0:0|0:0,0:0:0:0:
219,137,59312,5,6,1:0:0:0:
110,22,59491,2,0,P|122:63|128:125,1,85.8450020303307,2|10,0:0|0:0,0:0:0:0:
129,274,59851,2,0,P|134:231|146:190,1,85.8450020303307,2|0,0:0|1:0,0:0:0:0:
272,134,60210,1,2,0:0:0:0:
320,298,60389,1,10,0:0:0:0:
320,298,60569,1,2,0:0:0:0:
363,135,60749,5,2,1:0:0:0:
363,135,60929,1,2,0:0:0:0:
314,270,61108,1,10,0:0:0:0:
314,270,61288,2,0,P|270:272|229:254,1,85.8450020303307,2|0,0:0|1:0,0:0:0:0:
145,129,61647,2,0,P|156:173|163:224,1,85.8450020303307,0|8,0:0|0:0,0:0:0:0:
262,87,62006,5,2,0:0:0:0:
262,87,62096,1,2,0:0:0:0:
262,87,62186,2,0,P|241:164|232:269,1,171.690004060661,6|0,1:0|0:0,0:0:0:0:
349,182,62725,1,10,3:0:0:0:
204,29,62904,2,0,P|248:-1|350:37,1,171.690004060661,6|0,1:0|0:0,0:0:0:0:
262,214,63443,5,2,3:0:0:0:
262,214,63533,1,2,3:0:0:0:
262,214,63623,2,0,P|220:178|166:161,1,85.8450020303307,14|0,0:0|1:0,0:0:0:0:
70,350,63982,1,8,0:0:0:0:
36,161,64162,1,2,1:0:0:0:
244,318,64342,2,0,P|316:308|351:197,1,171.690004060661,10|0,0:0|0:0,0:0:0:0:
276,45,64881,5,8,0:0:0:0:
276,45,64970,1,8,0:0:0:0:
276,45,65060,2,0,P|260:85|254:144,1,94.694997110138,10|0,0:0|1:0,0:0:0:0:
361,331,65419,1,10,0:0:0:0:
177,183,65599,2,0,P|193:223|199:282,1,94.694997110138,2|8,1:0|0:0,0:0:0:0:
405,104,65958,2,0,P|387:148|382:194,1,94.694997110138,2|8,1:0|0:0,0:0:0:0:
220,365,66318,6,0,P|171:363|125:337,1,94.694997110138,6|0,1:0|0:0,0:0:0:0:
96,137,66677,1,2,1:0:0:0:
272,306,66857,2,0,P|321:304|367:278,1,94.694997110138,10|0,0:0|1:0,0:0:0:0:
428,73,67216,2,0,P|413:122|408:182,1,94.694997110138,10|0,0:0|1:0,0:0:0:0:
192,237,67575,2,0,P|186:190|172:144,1,94.694997110138,10|0,0:0|1:0,0:0:0:0:
358,326,67934,6,0,P|410:347|465:339,1,94.694997110138,14|0,0:0|1:0,0:0:0:0:
468,323,68204,1,0,1:0:0:0:
468,323,68294,1,10,0:0:0:0:
274,166,68473,2,0,P|227:165|184:184,1,94.694997110138,2|8,1:0|0:0,0:0:0:0:
422,249,68833,2,0,P|432:199|436:148,1,94.694997110138,2|8,1:0|0:0,0:0:0:0:
240,251,69192,6,0,P|218:143|209:33,1,189.389994220276,6|0,1:0|1:0,0:0:0:0:
231,43,69641,1,0,1:0:0:0:
231,43,69731,2,0,P|281:25|326:23,1,94.694997110138,8|0,0:0|1:0,0:0:0:0:
220,229,70090,2,0,P|172:225|128:208,1,94.694997110138,8|0,0:0|1:0,0:0:0:0:
314,125,70449,1,10,0:0:0:0:
350,292,70629,1,0,1:0:0:0:
447,124,70809,6,0,P|411:192|407:220,1,85.8450020303307,6|0,1:0|0:0,0:0:0:0:
304,363,71168,2,0,P|265:381|215:381,1,85.8450020303307,2|0,1:0|0:0,0:0:0:0:
144,227,71527,2,0,P|186:228|225:246,1,85.8450020303307,0|0,1:0|0:0,0:0:0:0:
79,378,71887,2,0,P|75:335|60:295,1,85.8450020303307,2|0,1:0|0:0,0:0:0:0:
36,103,72246,6,0,P|84:83|132:86,1,85.8450020303307,2|0,1:0|0:0,0:0:0:0:
207,199,72605,2,0,P|245:217|288:219,1,85.8450020303307,2|0,1:0|0:0,0:0:0:0:
395,76,72964,2,0,P|352:78|313:96,1,85.8450020303307,2|0,1:0|3:0,0:0:0:0:
497,261,73324,1,10,0:0:0:0:
470,37,73503,1,10,0:0:0:0:
389,271,73683,6,0,B|266:251|345:189|218:155,1,204.43499594474,14|2,0:0|0:0,0:0:0:0:
129,312,74401,2,0,P|184:349|185:243,1,204.43499594474,6|8,1:0|3:0,0:0:0:0:
32,194,75120,1,8,0:0:0:0:
100,55,76557,6,0,B|188:89|123:126|219:160,1,153.990001292336,6|2,1:0|0:0,0:0:0:0:
186,286,77096,1,2,3:0:0:0:
186,286,77186,1,0,3:0:0:0:
186,286,77276,2,0,P|130:283|84:130,1,230.985001938503,2|2,3:0|0:0,0:0:0:0:
227,72,77994,5,12,0:0:0:0:
279,180,78174,2,0,P|314:206|368:216,1,76.9950006461678,2|0,0:0|0:0,0:0:0:0:
467,157,78533,1,2,0:0:0:0:
412,324,78713,2,0,P|377:350|323:360,2,76.9950006461678,8|2|0,0:0|3:0|3:0,0:0:0:0:
423,225,79252,1,0,3:0:0:0:
304,131,79431,6,0,P|323:174|343:286,1,153.990001292336,14|8,0:0|0:0,0:0:0:0:
376,94,79970,1,2,0:0:0:0:
285,228,80150,2,0,P|243:214|199:211,1,76.9950006461678,8|2,0:0|0:0,0:0:0:0:
86,340,80509,2,0,P|124:335|160:322,1,76.9950006461678,10|0,0:0|0:0,0:0:0:0:
56,188,80869,6,0,P|39:153|31:115,1,76.9950006461678,14|8,0:0|0:0,0:0:0:0:
147,19,81228,1,8,0:0:0:0:
199,186,81407,1,8,0:0:0:0:
281,10,81587,1,8,0:0:0:0:
146,115,81767,1,10,0:0:0:0:
334,150,81946,1,10,0:0:0:0:
168,101,82126,1,10,0:0:0:0:
388,3,82306,6,0,P|370:43|360:101,1,76.9950006461678,6|2,1:0|0:0,0:0:0:0:
427,256,82665,1,2,1:0:0:0:
427,256,82845,2,0,P|366:230|341:227,1,76.9950006461678,2|0,0:0|1:0,0:0:0:0:
270,333,83204,1,2,0:0:0:0:
270,333,83384,1,2,1:0:0:0:
204,219,83563,6,0,P|166:228|132:246,1,76.9950006461678,2|2,0:0|1:0,0:0:0:0:
273,298,83922,1,2,0:0:0:0:
273,298,84012,1,0,3:0:0:0:
273,298,84102,1,2,1:0:0:0:
276,133,84282,2,0,P|290:70|307:32,1,76.9950006461678,10|0,0:0|1:0,0:0:0:0:
383,201,84641,1,10,0:0:0:0:
383,201,84731,1,8,0:0:0:0:
383,201,84821,2,0,P|405:210|432:212,3,38.4975003230839,8|8|8|8,0:0|0:0|0:0|0:0,0:0:0:0:
474,150,85180,6,0,P|488:110|495:59,1,76.9950006461678,4|8,1:0|0:0,0:0:0:0:
481,261,85539,1,2,1:0:0:0:
389,112,85719,2,2,P|375:72|368:21,1,76.9950006461678,10|2,0:0|0:0,0:0:0:0:
355,225,86078,1,2,1:0:0:0:
275,54,86258,1,2,1:0:0:0:
247,275,86437,6,0,B|33:198|229:79|-1:34,1,374.354994287796,6|2,1:0|0:0,0:0:0:0:
452,69,93803,6,0,P|395:51|329:87,1,100.889998768433,6|2,1:0|0:0,0:0:0:0:
311,187,94342,2,0,L|321:247,1,50.4449993842163,6|0,1:0|0:0,0:0:0:0:
218,134,94701,2,0,L|208:194,1,50.4449993842163,2|0,0:0|0:0,0:0:0:0:
114,284,95060,2,0,L|64:292,1,50.4449993842163,4|0,1:0|0:0,0:0:0:0:
176,214,95419,1,2,0:0:0:0:
237,328,95599,2,0,L|286:336,1,50.4449993842163,2|0,1:0|0:0,0:0:0:0:
379,227,95958,2,0,L|369:287,1,50.4449993842163,6|0,1:0|0:0,0:0:0:0:
472,174,96317,2,0,L|482:234,1,50.4449993842163
368,71,96677,5,6,1:0:0:0:
368,71,96857,1,8,3:0:0:0:
326,171,97036,1,2,0:0:0:0:
216,24,97216,2,0,L|152:16,1,50.4449993842163,6|0,1:0|0:0,0:0:0:0:
257,159,97575,2,0,L|307:152,1,50.4449993842163,2|8,1:0|3:0,0:0:0:0:
80,100,97934,2,0,P|95:154|97:213,1,100.889998768433,10|2,0:0|0:0,0:0:0:0:
22,323,98473,2,0,P|24:297|29:273,1,50.4449993842163,10|0,0:0|1:0,0:0:0:0:
166,238,98833,2,0,P|207:248|240:282,1,50.4449993842163,10|8,0:0|0:0,0:0:0:0:
236,294,99102,1,8,0:0:0:0:
236,294,99192,2,0,P|268:293|295:280,1,50.4449993842163,8|8,0:0|0:0,0:0:0:0:
301,256,99461,5,8,0:0:0:0:
301,256,99551,2,0,P|308:209|341:101,1,153.990001292336,4|10,1:0|0:0,0:0:0:0:
237,28,100090,1,2,1:0:0:0:
237,28,100270,1,2,0:0:0:0:
198,154,100449,2,0,P|161:166|123:168,1,76.9950006461678,2|8,1:0|0:0,0:0:0:0:
319,41,100809,6,0,P|311:82|304:131,1,76.9950006461678,2|0,1:0|1:0,0:0:0:0:
408,237,101168,2,0,P|402:198|395:161,1,76.9950006461678,2|8,0:0|0:0,0:0:0:0:
304,281,101527,2,0,P|264:303|225:303,1,76.9950006461678,2|0,1:0|0:0,0:0:0:0:
137,194,101886,2,0,P|97:172|58:172,1,76.9950006461678,2|8,1:0|0:0,0:0:0:0:
248,222,102246,5,2,1:0:0:0:
248,222,102336,1,8,0:0:0:0:
248,222,102425,2,0,P|256:147|268:69,1,153.990001292336,0|10,1:0|0:0,0:0:0:0:
146,33,102964,1,2,1:0:0:0:
146,33,103144,1,2,0:0:0:0:
275,132,103324,2,0,P|319:122|362:94,1,76.9950006461678,2|8,1:0|0:0,0:0:0:0:
417,227,103683,6,0,P|382:211|345:203,1,76.9950006461678,2|0,1:0|0:0,0:0:0:0:
208,288,104042,1,2,1:0:0:0:
249,142,104222,1,10,0:0:0:0:
295,327,104401,1,2,1:0:0:0:
295,327,104491,1,8,0:0:0:0:
295,327,104581,2,0,P|333:319|368:303,1,76.9950006461678,0|0,1:0|1:0,0:0:0:0:
471,198,104940,2,0,P|461:239|457:295,1,76.9950006461678,8|0,0:0|1:0,0:0:0:0:
379,110,105300,6,0,P|328:87|210:71,1,153.990001292336,6|10,1:0|0:0,0:0:0:0:
96,205,105839,2,0,P|147:182|265:166,1,153.990001292336,2|2,1:0|1:0,0:0:0:0:
305,330,106377,1,8,0:0:0:0:
377,245,106557,2,0,P|380:206|391:169,1,76.9950006461678,6|0,1:0|0:0,0:0:0:0:
316,310,106916,1,2,1:0:0:0:
221,186,107096,2,0,P|169:170|137:172,1,76.9950006461678,10|0,0:0|1:0,0:0:0:0:
144,344,107455,2,0,P|160:300|164:253,1,76.9950006461678,6|8,1:0|3:0,0:0:0:0:
52,149,107815,2,0,P|36:105|32:58,1,76.9950006461678,8|8,0:0|3:0,0:0:0:0:
200,23,108174,5,6,1:0:0:0:
200,23,108354,1,0,1:0:0:0:
200,23,108533,1,2,1:0:0:0:
263,141,108713,2,0,P|300:162|352:168,1,76.9950006461678,10|0,0:0|0:0,0:0:0:0:
410,30,109072,2,0,P|373:38|340:57,1,76.9950006461678,6|0,1:0|1:0,0:0:0:0:
425,209,109431,6,0,P|438:162|439:121,1,76.9950006461678,14|0,0:0|0:0,0:0:0:0:
252,189,109791,1,10,3:0:0:0:
357,289,109970,2,0,P|346:252|341:213,1,76.9950006461678,10|0,3:0|1:0,0:0:0:0:
348,71,110330,2,0,P|316:89|258:97,1,76.9950006461678,6|0,0:0|1:0,0:0:0:0:
259,81,110599,1,8,0:0:0:0:
259,81,110689,2,0,P|225:62|187:54,1,76.9950006461678,8|8,3:0|3:0,0:0:0:0:
157,73,110958,5,8,3:0:0:0:
157,73,111048,2,0,P|179:148|189:229,1,136.289997296494,6|0,1:0|0:0,0:0:0:0:
85,317,111587,1,2,3:0:0:0:
85,317,111767,2,0,P|126:284|226:300,1,136.289997296494,2|0,3:0|0:0,0:0:0:0:
354,351,112306,1,2,3:0:0:0:
296,299,112485,2,0,P|283:245|278:143,1,136.289997296494,2|0,1:0|0:0,0:0:0:0:
408,118,113024,1,2,3:0:0:0:
408,118,113204,2,0,B|327:103|372:63|265:49,1,136.289997296494,2|8,0:0|3:0,0:0:0:0:
210,145,113743,1,2,0:0:0:0:
146,58,113922,6,0,P|176:115|189:204,1,136.289997296494,6|2,1:0|0:0,0:0:0:0:
115,306,114461,1,0,1:0:0:0:
67,182,114641,2,0,P|45:218|37:264,1,68.1449986482468,10|0,0:0|1:0,0:0:0:0:
202,307,115000,2,0,P|192:274|173:246,1,68.1449986482468,2|0,0:0|1:0,0:0:0:0:
64,149,115360,6,0,P|105:123|145:113,1,68.1449986482468,2|0,0:0|1:0,0:0:0:0:
272,211,115719,1,8,0:0:0:0:
247,89,115898,1,2,1:0:0:0:
296,223,116078,1,10,0:0:0:0:
332,68,116258,1,0,1:0:0:0:
319,236,116437,1,8,0:0:0:0:
238,69,116617,5,10,0:0:0:0:
238,69,116707,1,8,0:0:0:0:
238,69,116797,2,0,P|179:50|115:136,1,171.690004060661,6|10,1:0|0:0,0:0:0:0:
157,261,117336,2,0,P|170:216|174:177,1,85.8450020303307,2|0,0:0|1:0,0:0:0:0:
312,306,117695,2,0,P|299:264|295:222,1,85.8450020303307,2|8,1:0|0:0,0:0:0:0:
402,77,118054,6,0,P|444:57|493:58,1,85.8450020303307,2|0,1:0|0:0,0:0:0:0:
476,234,118413,2,0,P|433:231|395:212,1,85.8450020303307,2|8,1:0|0:0,0:0:0:0:
405,65,118773,2,0,P|447:45|496:46,1,85.8450020303307,2|0,1:0|1:0,0:0:0:0:
479,222,119132,2,0,P|436:219|398:200,1,85.8450020303307,2|8,1:0|0:0,0:0:0:0:
127,32,119671,6,0,P|138:69|143:121,1,85.8450020303307,6|0,1:0|0:0,0:0:0:0:
54,216,120030,1,10,0:0:0:0:
237,141,120210,2,0,P|225:182|220:224,1,85.8450020303307,2|0,1:0|0:0,0:0:0:0:
304,340,120569,1,2,1:0:0:0:
157,291,120749,1,10,0:0:0:0:
331,224,120928,6,0,B|430:255|355:290|481:320,1,171.690004060661,6|0,1:0|1:0,0:0:0:0:
495,155,121467,1,8,0:0:0:0:
495,155,121647,2,0,P|473:201|465:259,1,85.8450020303307,0|0,1:0|0:0,0:0:0:0:
381,83,122006,1,0,1:0:0:0:
331,224,122186,2,0,P|327:199|321:177,3,42.9225010151654,0|8|10|8,1:0|0:0|0:0|0:0,0:0:0:0:
267,121,122545,6,0,P|209:109|89:99,1,171.690004060661,6|10,1:0|0:0,0:0:0:0:
166,233,123084,2,0,P|188:188|195:141,1,85.8450020303307,2|0,0:0|1:0,0:0:0:0:
39,240,123443,2,0,P|47:281|67:319,1,85.8450020303307,2|8,0:0|0:0,0:0:0:0:
219,349,123803,1,0,1:0:0:0:
310,196,123982,6,0,P|349:174|403:169,1,85.8450020303307,2|0,0:0|1:0,0:0:0:0:
463,325,124342,2,0,P|420:318|383:296,1,85.8450020303307,10|0,0:0|1:0,0:0:0:0:
283,121,124701,1,2,1:0:0:0:
253,293,124881,1,0,1:0:0:0:
184,92,125060,1,10,0:0:0:0:
259,266,125240,1,8,0:0:0:0:
374,101,125419,6,0,P|380:146|391:216,1,85.8450020303307,6|0,1:0|1:0,0:0:0:0:
336,342,125779,1,0,1:0:0:0:
275,166,125958,2,0,P|205:180|149:281,1,171.690004060661,10|8,0:0|0:0,0:0:0:0:
163,288,126407,1,8,0:0:0:0:
163,288,126497,2,0,L|230:295,1,42.9225010151654,0|0,1:0|1:0,0:0:0:0:
336,342,126677,2,0,L|293:346,1,42.9225010151654,10|8,0:0|0:0,0:0:0:0:
398,206,126857,6,0,B|406:172|386:121|306:63|176:145|176:145|237:111|297:133,1,403.559995073731,14|0,0:0|0:0,0:0:0:0:
81,120,129731,6,0,P|127:91|189:88,1,94.694997110138,14|0,0:0|1:0,0:0:0:0:
269,264,130090,1,10,0:0:0:0:
362,69,130270,2,0,P|349:115|343:180,1,94.694997110138,2|8,1:0|0:0,0:0:0:0:
296,360,130629,2,0,P|290:313|277:267,1,94.694997110138,2|8,1:0|0:0,0:0:0:0:
159,82,130988,6,0,P|113:56|45:50,1,94.694997110138,2|8,1:0|0:0,0:0:0:0:
157,254,131348,1,2,1:0:0:0:
246,62,131527,2,0,P|292:36|360:30,1,94.694997110138,10|0,0:0|1:0,0:0:0:0:
449,224,131887,2,0,P|430:183|415:119,1,94.694997110138,10|0,0:0|1:0,0:0:0:0:
242,318,132246,2,0,P|261:275|273:229,1,94.694997110138,10|0,0:0|0:0,0:0:0:0:
386,45,132605,6,0,P|433:41|491:78,1,94.694997110138,14|0,0:0|1:0,0:0:0:0:
362,247,132964,1,10,0:0:0:0:
245,61,133144,2,0,P|198:57|140:94,1,94.694997110138,2|8,1:0|0:0,0:0:0:0:
90,260,133503,2,0,P|108:211|118:141,1,94.694997110138,2|8,1:0|0:0,0:0:0:0:
215,295,133863,1,2,1:0:0:0:
361,119,134042,5,8,0:0:0:0:
219,207,134222,1,0,1:0:0:0:
427,220,134401,1,8,0:0:0:0:
208,185,134581,1,0,1:0:0:0:
454,129,134761,2,0,P|435:176|425:242,1,94.694997110138,8|2,0:0|1:0,0:0:0:0:
427,305,135030,1,0,3:0:0:0:
427,305,135120,2,0,P|403:300|382:290,3,47.347498555069,8|8|10|8,0:0|0:0|0:0|0:0,0:0:0:0:
325,224,135479,6,0,P|281:227|223:247,1,85.8450020303307,6|2,1:0|0:0,0:0:0:0:
124,356,135839,1,10,0:0:0:0:
37,222,136018,2,0,P|47:176|58:31,1,171.690004060661,2|2,0:0|0:0,0:0:0:0:
148,200,136557,1,10,0:0:0:0:
148,200,136737,1,2,0:0:0:0:
271,56,136916,5,2,1:0:0:0:
271,56,137096,1,2,0:0:0:0:
231,221,137276,1,10,0:0:0:0:
231,221,137455,2,0,P|237:135|255:51,1,171.690004060661,2|0,0:0|3:0,0:0:0:0:
339,249,137994,1,8,0:0:0:0:
444,123,138174,5,2,0:0:0:0:
444,123,138264,1,2,0:0:0:0:
444,123,138354,2,0,P|389:124|352:229,1,171.690004060661,6|0,1:0|0:0,0:0:0:0:
459,327,138892,1,10,3:0:0:0:
459,327,138982,1,2,0:0:0:0:
459,327,139072,2,0,P|394:288|281:268,1,171.690004060661,6|0,1:0|0:0,0:0:0:0:
161,360,139611,5,2,3:0:0:0:
161,360,139701,1,2,3:0:0:0:
161,360,139791,2,0,B|154:273|221:294|210:186,1,171.690004060661,14|8,0:0|0:0,0:0:0:0:
54,190,140330,1,10,0:0:0:0:
54,190,140419,1,10,0:0:0:0:
54,190,140509,2,0,P|93:215|152:221,1,85.8450020303307,10|0,0:0|3:0,0:0:0:0:
211,88,140869,2,0,P|236:79|272:75,3,42.9225010151654,8|8|8|8,0:0|0:0|0:0|0:0,0:0:0:0:
320,117,141228,6,0,P|306:159|299:218,1,94.694997110138,14|0,0:0|1:0,0:0:0:0:
424,87,141587,1,10,0:0:0:0:
319,293,141767,2,0,P|267:287|217:256,1,94.694997110138,2|8,1:0|0:0,0:0:0:0:
119,97,142126,2,0,P|133:139|140:198,1,94.694997110138,2|8,1:0|0:0,0:0:0:0:
314,31,142485,2,0,P|362:10|408:11,1,94.694997110138,2|8,1:0|0:0,0:0:0:0:
468,212,142845,1,2,1:0:0:0:
312,67,143024,2,0,P|330:117|336:176,1,94.694997110138,10|0,0:0|1:0,0:0:0:0:
198,343,143384,2,0,P|205:296|221:252,1,94.694997110138,10|0,0:0|1:0,0:0:0:0:
410,347,143743,2,0,P|356:346|293:316,1,94.694997110138,10|0,0:0|1:0,0:0:0:0:
237,149,144102,6,0,P|191:150|143:179,1,94.694997110138,14|0,0:0|1:0,0:0:0:0:
334,255,144461,1,10,0:0:0:0:
362,41,144641,2,0,P|343:85|333:152,1,94.694997110138,2|8,1:0|0:0,0:0:0:0:
241,324,145000,2,0,P|231:277|212:234,1,94.694997110138,2|8,1:0|0:0,0:0:0:0:
18,41,145360,2,0,B|137:74|63:129|191:151,1,189.389994220276,6|0,1:0|1:0,0:0:0:0:
224,85,145809,1,0,1:0:0:0:
224,85,145898,2,0,P|303:52|331:53,1,94.694997110138,8|0,0:0|1:0,0:0:0:0:
484,230,146258,1,8,0:0:0:0:
405,55,146437,1,0,1:0:0:0:
332,285,146617,1,10,0:0:0:0:
409,97,146797,1,0,1:0:0:0:
424,335,146976,6,0,P|465:354|515:353,1,85.8450020303307,6|0,1:0|0:0,0:0:0:0:
357,198,147336,2,0,P|314:200|275:218,1,85.8450020303307,2|0,1:0|0:0,0:0:0:0:
423,326,147695,2,0,P|464:345|514:344,1,85.8450020303307,0|0,1:0|0:0,0:0:0:0:
356,189,148055,2,0,P|313:191|274:209,1,85.8450020303307,2|0,1:0|0:0,0:0:0:0:
177,364,148413,2,0,P|195:325|197:282,1,85.8450020303307,2|0,1:0|0:0,0:0:0:0:
60,215,148773,2,0,P|42:176|40:134,1,85.8450020303307,2|0,1:0|0:0,0:0:0:0:
187,281,149132,2,0,P|185:324|167:363,1,85.8450020303307,2|0,1:0|3:0,0:0:0:0:
121,154,149491,1,10,0:0:0:0:
273,273,149671,1,10,0:0:0:0:
314,73,149851,6,0,P|379:32|474:106,1,204.43499594474,6|2,1:0|0:0,0:0:0:0:
441,263,150569,2,0,P|400:222|251:167,1,204.43499594474,6|8,1:0|3:0,0:0:0:0:
110,303,151288,1,8,0:0:0:0:
169,55,152725,5,14,0:0:0:0:
169,55,152904,1,8,0:0:0:0:
343,329,153443,5,14,0:0:0:0:
343,329,153622,1,8,0:0:0:0:
169,55,154162,5,14,0:0:0:0:
169,55,154341,1,8,0:0:0:0:
343,329,154701,6,0,P|362:260|398:166,1,153.990001292336,10|0,0:0|0:0,0:0:0:0:
280,128,155240,2,0,P|293:163|298:221,1,76.9950006461678,0|0,3:0|3:0,0:0:0:0:
184,322,155599,5,14,0:0:0:0:
184,322,155778,1,8,0:0:0:0:
332,57,156318,5,14,0:0:0:0:
332,57,156497,1,8,0:0:0:0:
184,322,156857,6,0,B|192:238|146:273|158:164,1,153.990001292336,8|8,0:0|3:0,0:0:0:0:
272,57,157395,2,0,B|283:156|237:121|245:205,1,153.990001292336,14|0,0:0|0:0,0:0:0:0:
350,292,157934,1,0,1:0:0:0:
350,292,158024,1,0,1:0:0:0:
350,292,158114,2,0,L|400:277,3,38.4975003230839,8|8|8|8,0:0|0:0|0:0|0:0,0:0:0:0:
425,207,158473,6,0,P|442:121|472:43,2,171.690004060661,6|10|2,1:0|0:0|1:0,0:0:0:0:
470,354,159372,1,0,1:0:0:0:
345,209,159551,2,0,P|260:225|180:256,1,171.690004060661,8|0,0:0|0:0,0:0:0:0:
104,351,160090,1,2,1:0:0:0:
52,203,160270,1,10,0:0:0:0:
52,203,160449,1,2,0:0:0:0:
126,334,160629,2,0,P|167:347|217:348,2,85.8450020303307,2|2|10,1:0|1:0|0:0,0:0:0:0:
148,221,161168,1,2,0:0:0:0:
321,331,161348,6,0,P|335:287|340:243,1,85.8450020303307,10|2,0:0|1:0,0:0:0:0:
269,143,161707,1,2,1:0:0:0:
441,246,161887,2,0,P|427:202|422:158,1,85.8450020303307,10|2,0:0|1:0,0:0:0:0:
470,22,162246,1,2,1:0:0:0:
470,22,162336,1,2,0:0:0:0:
470,22,162425,2,0,P|449:30|413:35,1,42.9225010151654,10|0,0:0|1:0,0:0:0:0:
252,40,162605,6,0,P|321:56|368:169,1,171.690004060661,6|2,1:0|3:0,0:0:0:0:
287,233,163144,2,0,P|224:215|185:208,1,85.8450020303307,2|2,3:0|3:0,0:0:0:0:
89,141,163503,2,0,P|152:123|191:116,1,85.8450020303307,10|10,0:0|0:0,0:0:0:0:
196,138,163773,1,2,0:0:0:0:
196,138,163863,2,0,P|220:142|250:144,3,42.9225010151654,2|2|2|2,0:0|0:0|0:0|0:0,0:0:0:0:
297,92,164222,6,0,P|336:75|412:73,1,85.8450020303307,12|0,0:0|3:0,0:0:0:0:
407,90,164491,1,0,3:0:0:0:
407,90,164581,2,0,P|397:113|392:142,3,42.9225010151654,0|0|2|0,1:0|0:0|3:0|3:0,0:0:0:0:
441,191,164940,2,0,P|458:236|464:286,1,85.8450020303307,8|0,0:0|3:0,0:0:0:0:
337,377,165300,2,0,P|352:337|359:294,1,85.8450020303307,2|0,1:0|3:0,0:0:0:0:
338,267,165569,5,0,3:0:0:0:
338,267,165659,2,0,P|268:282|230:284,1,85.8450020303307,14|0,0:0|3:0,0:0:0:0:
225,258,165928,1,0,3:0:0:0:
225,258,166018,2,0,L|170:250,1,42.9225010151654,0|0,1:0|3:0,0:0:0:0:
100,320,166198,2,0,L|155:312,1,42.9225010151654,2|0,3:0|3:0,0:0:0:0:
70,206,166378,2,0,P|50:156|45:109,1,85.8450020303307,8|0,0:0|3:0,0:0:0:0:
147,23,166737,2,0,P|186:40|228:47,1,85.8450020303307,2|0,1:0|3:0,0:0:0:0:
417,44,167096,6,0,P|374:51|335:68,1,85.8450020303307,14|0,0:0|3:0,0:0:0:0:
327,93,167366,1,0,3:0:0:0:
327,93,167455,2,0,L|332:141,3,42.9225010151654,0|0|2|0,1:0|0:0|3:0|3:0,0:0:0:0:
287,198,167815,2,0,P|253:228|191:240,1,85.8450020303307,8|0,0:0|3:0,0:0:0:0:
87,135,168174,2,0,P|127:148|159:177,1,85.8450020303307,2|0,1:0|1:0,0:0:0:0:
139,213,168443,5,0,0:0:0:0:
139,213,168533,2,0,P|130:257|126:307,1,85.8450020303307,14|0,0:0|0:0,0:0:0:0:
288,356,168892,2,0,P|327:337|384:326,1,85.8450020303307,0|0,1:0|3:0,0:0:0:0:
396,342,169162,1,0,3:0:0:0:
396,342,169252,2,0,P|403:297|418:255,1,85.8450020303307,8|0,0:0|3:0,0:0:0:0:
443,234,169521,1,0,0:0:0:0:
443,234,169611,2,0,P|436:191|422:151,1,85.8450020303307,2|2,1:0|0:0,0:0:0:0:
292,33,169970,6,0,P|253:57|203:64,1,85.8450020303307,14|0,0:0|3:0,0:0:0:0:
188,45,170240,1,0,3:0:0:0:
188,45,170330,1,0,1:0:0:0:
244,175,170509,1,2,3:0:0:0:
244,175,170599,1,0,3:0:0:0:
244,175,170689,2,0,P|205:151|155:144,1,85.8450020303307,8|0,0:0|3:0,0:0:0:0:
246,284,171048,2,0,P|287:275|323:252,1,85.8450020303307,2|0,1:0|3:0,0:0:0:0:
350,220,171318,5,0,3:0:0:0:
350,220,171407,2,0,P|339:262|333:320,1,85.8450020303307,14|0,0:0|3:0,0:0:0:0:
355,329,171677,1,0,3:0:0:0:
355,329,171767,2,0,P|381:341|413:344,3,42.9225010151654,0|0|0|0,1:0|3:0|3:0|3:0,0:0:0:0:
444,271,172126,2,0,P|463:261|483:256,3,42.9225010151654,8|0|0|0,0:0|0:0|3:0|0:0,0:0:0:0:
485,337,172485,1,2,1:0:0:0:
402,186,172665,1,2,3:0:0:0:
324,344,172845,6,0,P|279:367|225:370,1,85.8450020303307,14|0,0:0|0:0,0:0:0:0:
213,354,173114,1,0,0:0:0:0:
213,354,173204,2,0,P|175:333|133:326,1,85.8450020303307,0|2,1:0|3:0,0:0:0:0:
96,354,173473,1,8,0:0:0:0:
96,354,173563,2,0,P|114:305|114:244,1,85.8450020303307,8|0,0:0|3:0,0:0:0:0:
30,130,173922,2,0,P|64:155|104:170,1,85.8450020303307,2|0,1:0|3:0,0:0:0:0:
134,149,174192,5,0,0:0:0:0:
134,149,174282,2,0,P|188:117|251:111,1,85.8450020303307,14|0,0:0|3:0,0:0:0:0:
340,236,174641,2,0,P|299:223|264:198,1,85.8450020303307,8|0,0:0|3:0,0:0:0:0:
412,110,175000,1,8,0:0:0:0:
425,285,175180,1,0,3:0:0:0:
425,285,175270,1,0,3:0:0:0:
425,285,175360,2,0,P|389:309|349:322,1,85.8450020303307,8|0,0:0|3:0,0:0:0:0:
211,224,175719,6,0,P|251:302|263:396,1,171.690004060661,6|8,1:0|0:0,0:0:0:0:
355,170,176258,1,2,0:0:0:0:
311,244,176437,2,0,P|317:201|330:160,1,85.8450020303307,0|0,1:0|0:0,0:0:0:0:
211,44,176797,2,0,P|224:85|231:128,1,85.8450020303307,10|0,0:0|3:0,0:0:0:0:
208,172,177066,5,0,3:0:0:0:
208,172,177156,2,0,P|165:167|126:149,1,85.8450020303307,6|0,1:0|0:0,0:0:0:0:
298,53,177515,2,0,P|340:57|379:75,1,85.8450020303307,8|2,0:0|0:0,0:0:0:0:
335,237,177875,2,0,P|317:198|312:155,1,85.8450020303307,0|0,1:0|0:0,0:0:0:0:
446,10,178234,2,0,P|463:49|468:92,1,85.8450020303307,8|0,0:0|0:0,0:0:0:0:
469,252,178593,6,0,P|389:221|303:216,1,171.690004060661,6|8,1:0|0:0,0:0:0:0:
194,340,179132,2,0,P|278:306|262:216,1,171.690004060661,2|0,1:0|0:0,0:0:0:0:
107,151,179671,2,0,P|145:187|200:187,1,85.8450020303307,12|8,0:0|0:0,0:0:0:0:
197,166,179940,5,8,0:0:0:0:
197,166,180030,2,0,P|201:111|211:64,1,85.8450020303307,6|0,1:0|0:0,0:0:0:0:
356,215,180389,2,0,P|351:160|342:113,1,85.8450020303307,0|0,1:0|0:0,0:0:0:0:
435,255,180749,1,0,1:0:0:0:
300,337,180928,1,8,0:0:0:0:
300,337,181018,1,8,0:0:0:0:
300,337,181108,2,0,P|273:336|246:326,3,42.9225010151654,8|8|8|8,0:0|0:0|0:0|0:0,0:0:0:0:
183,347,181467,6,0,P|167:297|167:234,1,85.8450020303307,6|0,1:0|0:0,0:0:0:0:
313,162,181827,2,0,P|308:204|294:245,1,85.8450020303307,0|2,1:0|0:0,0:0:0:0:
115,175,182186,2,0,P|166:171|212:198,1,85.8450020303307,0|0,1:0|0:0,0:0:0:0:
270,326,182545,2,0,P|312:331|351:315,1,85.8450020303307,2|0,1:0|0:0,0:0:0:0:
476,197,182904,6,0,P|436:181|394:186,1,85.8450020303307,2|0,1:0|0:0,0:0:0:0:
452,347,183264,2,0,P|434:303|427:245,1,85.8450020303307,0|2,1:0|0:0,0:0:0:0:
329,120,183623,2,0,P|286:114|247:130,1,85.8450020303307,0|0,1:0|0:0,0:0:0:0:
271,280,183983,2,0,P|287:240|295:198,1,85.8450020303307,2|0,1:0|0:0,0:0:0:0:
85,168,184342,6,0,B|229:216|104:318|265:388,1,291.164995557175,6|2,1:0|1:0,0:0:0:0:
375,242,185779,1,2,1:0:0:0:
342,336,185958,1,0,1:0:0:0:
293,193,186138,1,2,0:0:0:0:
342,336,186318,2,0,P|403:344|462:291,1,136.289997296494,2|2,0:0|0:0,0:0:0:0:
483,146,186857,2,0,P|460:151|440:161,1,34.0724993241234,2|2,0:0|0:0,0:0:0:0:
325,307,187036,6,0,P|270:312|200:284,1,94.694997110138,6|0,1:0|0:0,0:0:0:0:
169,140,187395,1,2,1:0:0:0:
139,309,187575,1,10,0:0:0:0:
99,104,187755,2,0,P|128:158|155:295,1,189.389994220276,0|0,1:0|1:0,0:0:0:0:
240,97,188294,1,8,0:0:0:0:
322,278,188473,6,0,B|445:235|349:194|466:145,1,189.389994220276,14|0,0:0|1:0,0:0:0:0:
308,178,189012,1,8,0:0:0:0:
451,332,189192,2,0,P|470:284|476:220,1,94.694997110138,0|8,1:0|0:0,0:0:0:0:
422,77,189551,1,0,1:0:0:0:
385,240,189731,1,8,0:0:0:0:
253,73,189910,6,0,P|175:51|32:47,1,189.389994220276,14|0,0:0|1:0,0:0:0:0:
32,246,190449,1,8,0:0:0:0:
163,138,190629,2,0,P|223:107|276:104,1,94.694997110138,0|8,1:0|0:0,0:0:0:0:
351,271,190988,1,0,1:0:0:0:
322,77,191168,1,8,0:0:0:0:
273,314,191348,6,0,P|328:359|423:306,1,189.389994220276,6|0,1:0|0:0,0:0:0:0:
333,164,191887,1,0,1:0:0:0:
250,349,192066,2,0,P|181:367|116:280,1,189.389994220276,6|0,1:0|1:0,0:0:0:0:
206,113,192605,1,8,0:0:0:0:
206,113,192695,1,8,0:0:0:0:
206,113,192785,2,0,P|234:175|356:179,1,189.389994220276,10|2,0:0|1:0,0:0:0:0:
447,36,193324,6,0,P|427:74|419:137,1,94.694997110138,8|2,0:0|1:0,0:0:0:0:
443,150,193593,1,0,1:0:0:0:
443,150,193683,2,0,P|463:188|471:251,1,94.694997110138,8|2,0:0|1:0,0:0:0:0:
449,273,193952,1,0,1:0:0:0:
449,273,194042,2,0,P|407:296|344:300,1,94.694997110138,8|2,0:0|1:0,0:0:0:0:
296,257,194312,5,0,1:0:0:0:
296,257,194401,2,0,P|231:223|173:222,1,94.694997110138,8|2,0:0|1:0,0:0:0:0:
75,334,194761,1,10,0:0:0:0:
84,139,194940,2,0,P|109:185|122:258,1,94.694997110138,2|8,1:0|0:0,0:0:0:0:
199,46,195300,1,2,1:0:0:0:
263,245,195479,1,10,0:0:0:0:
344,19,195659,6,0,P|420:22|461:129,1,189.389994220276,14|0,0:0|1:0,0:0:0:0:
375,288,196198,1,8,0:0:0:0:
326,104,196378,1,2,1:0:0:0:
259,318,196557,1,8,0:0:0:0:
377,193,196737,1,0,1:0:0:0:
175,130,196916,1,8,0:0:0:0:
435,77,197096,6,0,P|402:165|385:258,1,189.389994220276,14|2,0:0|1:0,0:0:0:0:
239,346,197635,1,8,0:0:0:0:
200,137,197815,2,0,P|125:106|53:147,1,142.042495665207,6|0,1:0|0:0,0:0:0:0:
70,143,198174,2,0,P|90:184|99:243,1,94.694997110138,6|10,1:0|0:0,0:0:0:0:
84,313,198443,1,8,0:0:0:0:
84,313,198533,2,0,P|115:314|156:299,1,47.347498555069,8|0,0:0|0:0,0:0:0:0:
275,200,198713,6,0,P|297:148|294:89,1,94.694997110138,14|8,0:0|0:0,0:0:0:0:
200,267,199072,2,0,P|203:313|223:356,1,94.694997110138,8|8,0:0|0:0,0:0:0:0:
410,355,199431,1,8,0:0:0:0:
285,296,199611,1,8,0:0:0:0:
451,195,199791,1,10,0:0:0:0:
394,316,199970,1,10,0:0:0:0:
380,121,200150,5,8,0:0:0:0:
413,278,200330,1,10,0:0:0:0:
497,92,200509,1,8,0:0:0:0:
403,240,200689,1,10,0:0:0:0:
279,44,200869,1,8,0:0:0:0:
461,102,201048,1,10,0:0:0:0:
247,184,201228,1,8,0:0:0:0:
368,72,201407,1,8,0:0:0:0:
469,326,201587,6,0,B|357:312|428:239|292:224,1,189.389994220276,14|0,0:0|1:0,0:0:0:0:
97,197,202126,2,0,B|209:183|138:110|274:95,1,189.389994220276,6|0,1:0|1:0,0:0:0:0:
474,98,202665,2,0,B|362:84|433:11|297:-4,1,189.389994220276,10|0,0:0|0:0,0:0:0:0:
340,151,203204,1,8,3:0:0:0:
229,32,203384,2,0,P|208:77|198:140,1,94.694997110138,2|0,1:0|1:0,0:0:0:0:
223,158,203653,1,8,0:0:0:0:
223,158,203743,2,0,P|232:174|239:209,3,47.347498555069,10|0|0|0,0:0|0:0|1:0|1:0,0:0:0:0:
194,267,204102,2,0,P|184:283|178:318,3,47.347498555069,2|0|0|0,3:0|3:0|3:0|3:0,0:0:0:0:
235,365,204461,6,0,B|417:314|263:185|440:122,2,332.759994922485,6|2|2,1:0|0:0|0:0,0:0:0:0:
81,66,213084,6,0,L|90:158,1,76.9950006461678,14|2,0:0|0:0,0:0:0:0:
196,218,213443,1,2,1:0:0:0:
196,218,213623,2,0,L|203:141,1,76.9950006461678,2|0,0:0|1:0,0:0:0:0:
307,48,213982,1,2,0:0:0:0:
405,117,214162,1,2,1:0:0:0:
405,117,214342,1,2,0:0:0:0:
281,218,214521,5,14,0:0:0:0:
281,218,214701,1,2,1:0:0:0:
212,47,214881,1,2,1:0:0:0:
212,47,215060,2,0,P|156:36|119:54,1,76.9950006461678,2|0,1:0|1:0,0:0:0:0:
91,208,215419,1,0,1:0:0:0:
229,141,215599,1,0,1:0:0:0:
42,133,215779,5,2,1:0:0:0:
42,133,215869,1,2,1:0:0:0:
42,133,215958,2,0,P|9:189|36:283,1,153.990001292336,6|0,1:0|0:0,0:0:0:0:
166,356,216497,1,2,1:0:0:0:
166,356,216587,1,2,1:0:0:0:
166,356,216677,2,0,B|212:336|248:348|248:348|265:306|319:294,1,171.690004060661,8|0,0:0|0:0,0:0:0:0:
459,361,217216,1,8,0:0:0:0:
459,361,217306,1,2,0:0:0:0:
459,361,217395,2,0,P|422:317|399:175,1,189.389994220276,8|0,0:0|0:0,0:0:0:0:
480,27,217934,1,2,1:0:0:0:
480,27,218024,1,2,1:0:0:0:
480,27,218114,2,0,P|424:74|289:80,1,189.389994220276,6|0,1:0|0:0,0:0:0:0:
143,35,218653,1,0,1:0:0:0:
143,35,218743,1,0,1:0:0:0:
143,35,218833,2,0,P|176:98|211:245,1,189.389994220276,14|0,0:0|0:0,0:0:0:0:
154,341,219372,5,2,0:0:0:0:
154,341,219461,1,2,0:0:0:0:
154,341,219551,2,0,B|458:275|204:73|506:28,1,499.139992383728,6|0,1:0|0:0,0:0:0:0:
490,183,221887,5,0,0:0:0:0:
490,183,221976,1,0,0:0:0:0:
490,183,222066,2,0,L|481:140,3,38.4975003230839,2|2|2|2,0:0|0:0|0:0|0:0,0:0:0:0:
398,203,222425,2,0,L|399:164,3,38.4975003230839,2|2|2|2,0:0|0:0|0:0|0:0,0:0:0:0:
312,209,222785,2,0,L|322:172,3,38.4975003230839,2|2|2|10,0:0|0:0|0:0|0:0,0:0:0:0:
282,91,223144,6,0,P|252:65|209:57,2,63.1299980734254,0|8|8,1:0|3:0|3:0,0:0:0:0:
214,140,223503,2,0,P|174:144|139:170,2,63.1299980734254,8|8|8,0:0|0:0|0:0,0:0:0:0:
206,221,223863,2,0,P|171:266|164:329,1,94.694997110138,14|2,0:0|0:0,0:0:0:0:
221,363,224132,1,2,0:0:0:0:
221,363,224222,2,0,P|245:354|280:348,3,47.347498555069,2|2|2|2,3:0|3:0|3:0|3:0,0:0:0:0:
349,348,224581,6,0,P|373:298|378:244,1,94.694997110138,14|0,0:0|1:0,0:0:0:0:
296,83,224940,1,10,0:0:0:0:
464,210,225120,2,0,P|420:175|369:158,1,94.694997110138,2|8,1:0|0:0,0:0:0:0:
214,285,225479,2,0,P|160:299|106:293,1,94.694997110138,2|8,1:0|0:0,0:0:0:0:
121,61,225839,2,0,P|143:107|156:173,1,94.694997110138,2|8,1:0|0:0,0:0:0:0:
296,276,226198,1,2,1:0:0:0:
261,61,226378,2,0,P|239:107|226:173,1,94.694997110138,10|0,0:0|1:0,0:0:0:0:
348,357,226737,2,0,P|404:356|459:327,1,94.694997110138,10|0,0:0|1:0,0:0:0:0:
423,145,227096,2,0,P|375:144|331:160,1,94.694997110138,10|0,0:0|1:0,0:0:0:0:
226,350,227455,6,0,P|200:301|192:240,1,94.694997110138,14|0,0:0|1:0,0:0:0:0:
270,89,227815,1,10,0:0:0:0:
93,246,227994,2,0,P|119:197|127:136,1,94.694997110138,2|8,1:0|0:0,0:0:0:0:
357,43,228354,2,0,P|367:89|391:131,1,94.694997110138,2|8,1:0|0:0,0:0:0:0:
184,35,228713,2,0,P|131:10|72:12,1,94.694997110138,2|8,1:0|0:0,0:0:0:0:
253,197,229072,1,0,1:0:0:0:
373,29,229252,2,0,P|426:4|485:6,1,94.694997110138,8|0,0:0|1:0,0:0:0:0:
477,258,229611,1,8,0:0:0:0:
314,130,229791,2,0,P|260:109|182:125,1,94.694997110138,2|8,1:0|0:0,0:0:0:0:
161,164,230060,1,8,0:0:0:0:
161,164,230150,2,0,P|155:191|151:229,1,47.347498555069,10|8,0:0|0:0,0:0:0:0:
68,362,230330,6,0,P|58:271|46:186,1,171.690004060661,6|8,1:0|0:0,0:0:0:0:
170,344,230869,2,0,P|213:368|263:363,1,85.8450020303307,2|0,0:0|1:0,0:0:0:0:
156,251,231228,1,2,0:0:0:0:
327,220,231407,1,10,0:0:0:0:
327,220,231587,1,2,0:0:0:0:
264,339,231767,5,2,1:0:0:0:
264,339,231946,1,2,0:0:0:0:
258,167,232126,1,10,0:0:0:0:
258,167,232306,2,0,P|296:139|342:133,1,85.8450020303307,2|0,0:0|1:0,0:0:0:0:
438,214,232665,1,0,0:0:0:0:
451,43,232845,1,8,0:0:0:0:
469,205,233024,5,2,0:0:0:0:
469,205,233114,1,2,0:0:0:0:
469,205,233204,2,0,P|462:277|454:386,1,171.690004060661,6|0,1:0|0:0,0:0:0:0:
357,152,233743,1,10,3:0:0:0:
357,152,233833,1,2,0:0:0:0:
357,152,233922,2,0,P|283:111|206:171,1,171.690004060661,6|0,1:0|0:0,0:0:0:0:
161,305,234461,5,2,3:0:0:0:
161,305,234551,1,2,3:0:0:0:
161,305,234641,2,0,P|188:190|188:96,1,171.690004060661,6|8,1:0|3:0,0:0:0:0:
322,289,235180,1,0,1:0:0:0:
322,289,235270,1,0,0:0:0:0:
322,289,235360,2,0,P|313:255|312:231,3,42.9225010151654,12|8|8|8,0:0|0:0|0:0|0:0,0:0:0:0:
361,189,235719,2,0,P|370:155|371:131,3,42.9225010151654,8|8|8|8,0:0|0:0|0:0|0:0,0:0:0:0:
321,67,236078,6,0,L|280:74,1,35.842500875061,2|0,0:0|0:0,0:0:0:0:
223,128,236437,5,14,0:0:0:0:
298,369,236617,2,0,P|351:368|411:326,1,94.694997110138,2|8,1:0|0:0,0:0:0:0:
234,158,236976,2,0,P|187:157|144:177,1,94.694997110138,2|8,1:0|0:0,0:0:0:0:
180,371,237336,2,0,P|200:315|202:261,1,94.694997110138,2|8,1:0|0:0,0:0:0:0:
94,95,237695,1,2,1:0:0:0:
276,238,237875,2,0,P|323:239|366:219,1,94.694997110138,10|0,0:0|1:0,0:0:0:0:
452,31,238234,2,0,P|435:77|427:146,1,94.694997110138,10|0,0:0|1:0,0:0:0:0:
503,315,238593,2,0,P|495:268|478:224,1,94.694997110138,10|0,0:0|1:0,0:0:0:0:
318,66,238952,6,0,P|272:46|213:44,1,94.694997110138,14|0,0:0|1:0,0:0:0:0:
71,233,239312,1,10,0:0:0:0:
121,42,239491,2,0,P|143:90|149:143,1,94.694997110138,2|8,1:0|0:0,0:0:0:0:
182,345,239851,2,0,P|189:298|210:255,1,94.694997110138,2|8,1:0|0:0,0:0:0:0:
347,60,240210,6,0,B|334:175|398:127|392:266,1,189.389994220276,6|0,1:0|1:0,0:0:0:0:
245,352,240749,1,8,0:0:0:0:
311,222,240928,1,0,1:0:0:0:
96,219,241108,1,8,0:0:0:0:
244,318,241288,1,0,1:0:0:0:
74,234,241467,1,10,0:0:0:0:
231,142,241647,1,0,1:0:0:0:
328,341,241827,6,0,P|410:366|477:298,2,171.690004060661,6|2|0,1:0|1:0|1:0,0:0:0:0:
375,223,242725,1,0,0:0:0:0:
263,77,242904,2,0,P|217:56|149:55,1,85.8450020303307,2|0,1:0|0:0,0:0:0:0:
357,197,243264,6,0,P|399:190|437:171,1,85.8450020303307,6|0,1:0|0:0,0:0:0:0:
199,138,243623,2,0,P|212:180|218:238,1,85.8450020303307,2|0,1:0|0:0,0:0:0:0:
379,104,243982,2,0,P|384:61|397:20,1,85.8450020303307,2|0,1:0|3:0,0:0:0:0:
345,232,244342,1,10,0:0:0:0:
279,59,244521,1,10,0:0:0:0:
196,297,244701,6,0,P|113:311|47:239,1,171.690004060661,14|0,0:0|3:0,0:0:0:0:
129,161,245240,1,2,0:0:0:0:
241,371,245419,2,0,P|305:336|498:294,1,257.535006090992,6|0,1:0|3:0,0:0:0:0:
303,200,246138,1,14,0:0:0:0:
60,66,247575,6,0,P|105:43|153:43,1,94.694997110138,14|0,0:0|1:0,0:0:0:0:
291,212,247934,1,8,0:0:0:0:
234,66,248114,1,2,1:0:0:0:
227,274,248294,2,0,P|268:296|315:297,1,94.694997110138,10|0,0:0|1:0,0:0:0:0:
319,87,248653,1,8,0:0:0:0:
141,236,248833,6,0,P|143:289|164:347,1,94.694997110138,0|8,1:0|0:0,0:0:0:0:
245,149,249192,1,0,1:0:0:0:
381,349,249372,2,0,P|393:303|395:256,1,94.694997110138,10|0,0:0|1:0,0:0:0:0:
317,58,249731,2,0,P|318:105|331:150,1,94.694997110138,10|0,0:0|1:0,0:0:0:0:
512,55,250090,2,0,P|465:57|414:80,1,94.694997110138,10|0,0:0|1:0,0:0:0:0:
293,249,250449,6,0,P|246:247|195:224,1,94.694997110138,14|0,0:0|1:0,0:0:0:0:
132,90,250809,1,8,0:0:0:0:
171,302,250988,1,2,1:0:0:0:
283,137,251168,2,0,P|340:112|392:113,1,94.694997110138,10|0,0:0|1:0,0:0:0:0:
453,323,251527,2,0,P|406:317|364:296,1,94.694997110138,8|0,0:0|1:0,0:0:0:0:
492,152,251887,6,0,P|509:102|512:47,1,94.694997110138,8|0,0:0|1:0,0:0:0:0:
369,285,252246,2,0,P|352:235|349:180,1,94.694997110138,10|0,0:0|1:0,0:0:0:0:
169,354,252605,2,0,P|184:309|189:262,1,94.694997110138,10|0,0:0|3:0,0:0:0:0:
129,201,252875,1,0,3:0:0:0:
129,201,252964,2,0,P|113:156|108:109,1,94.694997110138,2|0,1:0|0:0,0:0:0:0:
150,39,253234,5,8,0:0:0:0:
150,39,253324,2,0,B|250:68|174:103|305:134,1,171.690004060661,6|8,1:0|0:0,0:0:0:0:
397,49,253863,1,2,0:0:0:0:
430,224,254042,2,0,P|382:151|372:55,1,171.690004060661,2|8,1:0|0:0,0:0:0:0:
321,238,254581,1,0,0:0:0:0:
223,109,254761,6,0,P|183:85|132:86,1,85.8450020303307,6|0,1:0|0:0,0:0:0:0:
239,277,255120,2,0,P|281:273|317:250,1,85.8450020303307,8|0,0:0|0:0,0:0:0:0:
222,123,255479,2,0,P|182:99|131:100,1,85.8450020303307,0|0,1:0|0:0,0:0:0:0:
238,291,255838,2,0,P|280:287|316:264,1,85.8450020303307,8|0,0:0|0:0,0:0:0:0:
377,83,256198,5,8,0:0:0:0:
471,221,256378,2,0,P|466:169|463:121,1,85.8450020303307,8|0,3:0|0:0,0:0:0:0:
387,367,256737,2,0,P|391:315|395:267,1,85.8450020303307,8|0,3:0|0:0,0:0:0:0:
318,154,257096,1,0,3:0:0:0:
246,256,257276,1,8,3:0:0:0:
197,66,257455,6,0,P|144:42|34:74,1,171.690004060661,14|2,0:0|0:0,0:0:0:0:
61,187,257994,2,0,L|68:271,1,76.9950006461678,2|2,0:0|0:0,0:0:0:0:
166,150,258354,1,2,0:0:0:0:
166,150,258533,2,0,P|223:181|326:117,1,170.362496620617,2|0,0:0|0:0,0:0:0:0:
320,108,259072,6,0,L|375:100,2,41.5949993653107,2|2|2,0:0|0:0|0:0,0:0:0:0:
256,46,259611,1,2,0:0:0:0:
140,265,259970,6,0,L|85:257,1,41.5949993653107,2|2,0:0|0:0,0:0:0:0:
204,203,260330,1,2,0:0:0:0:
347,377,260689,6,0,L|340:335,2,41.5949993653107,2|2|2,0:0|0:0|0:0,0:0:0:0:
265,311,261228,2,0,L|251:270,2,41.5949993653107,2|2|2,0:0|0:0|0:0,0:0:0:0:
289,198,261767,1,2,0:0:0:0:
289,198,261947,2,0,L|349:189,1,41.5949993653107,2|2,0:0|0:0,0:0:0:0:
409,225,262306,1,2,0:0:0:0:
409,225,262486,2,0,L|498:239,1,83.1899987306214,2|2,0:0|0:0,0:0:0:0:
499,149,263024,1,2,0:0:0:0:
499,149,263204,2,0,L|438:140,1,41.5949993653107,2|2,0:0|0:0,0:0:0:0:
365,74,263563,5,2,0:0:0:0:
301,26,263743,1,2,0:0:0:0:
223,41,263922,1,2,0:0:0:0:
178,106,264122,6,0,L|183:161,1,41.5949993653107,2|2,0:0|0:0,0:0:0:0:
385,348,264663,6,0,L|388:311,1,20.7974996826553,2|0,0:0|0:0,0:0:0:0:
30,109,265079,6,0,L|22:283,1,166.379997461243,2|2,0:0|0:0,0:0:0:0:
0,303,266006,6,0,L|4:357,1,44.25,2|2,0:0|0:0,0:0:0:0:
0,382,266185,6,0,B|532:354|32:64|522:0,1,737.205004499542,2|0,0:0|0:0,0:0:0:0:
