osu file format v14

[General]
AudioFilename: audio.mp3
AudioLeadIn: 0
PreviewTime: 49024
Countdown: 0
SampleSet: Soft
StackLeniency: 0.7
Mode: 3
LetterboxInBreaks: 0
SpecialStyle: 0
WidescreenStoryboard: 1

[Editor]
Bookmarks: 13464
DistanceSpacing: 1.2
BeatDivisor: 4
GridSize: 4
TimelineZoom: 1.3

[Metadata]
Title:Yume Kataru yori Yume Utaou (TV Size)
TitleUnicode:ユメ語るよりユメ歌おう (TV Size)
Artist:Aqours
ArtistUnicode:Aqours
Creator:Paran
Version:Daeng's Easy
Source:ラブライブ!サンシャイン!!
Tags:ラブライブ!サンシャイン!! Ending Japanese Anime school idol project Daeng Simatta Lita- Konguuuu Takami Chika 高海千歌 Inami Anju 伊波杏樹 Sakurauchi Riko 桜内梨子 Aida Rikako 逢田梨香子 Matsuura Kanan 松浦果南 Suwa Nanaka 諏訪ななか Kurosawa Dia 黒澤ダイヤ Komiya Arisa 小宮有紗 Watanabe You 渡辺 曜 Saito Shuka 斉藤朱夏 Tsushima Yoshiko 津島善子 Kobayashi Aika 小林愛香 Kunikida Hanamaru 国木田花丸 Takatsuki Kanako 高槻かなこ Ohara Mari 小原鞠莉 Suzuki Aina 鈴木愛奈 Kurosawa Ruby 黒澤ルビィ Furihata Ai 降幡 愛 bushiroad LACM-14540 畑亞貴 Aki Hata 山口朗彥 Yamaguchi Akihiko
BeatmapID:2462823
BeatmapSetID:1159906

[Difficulty]
HPDrainRate:7
CircleSize:4
OverallDifficulty:7
ApproachRate:5
SliderMultiplier:1.4
SliderTickRate:1

[Events]
//Background and Video events
0,0,"Sunshine!!.jpg",0,0
//Break Periods
//Storyboard Layer 0 (Background)
//Storyboard Layer 1 (Fail)
//Storyboard Layer 2 (Pass)
//Storyboard Layer 3 (Foreground)
//Storyboard Layer 4 (Overlay)
//Storyboard Sound Samples
Sample,14119,0,"soft-hitwhistle.wav",70
Sample,14496,0,"soft-hitwhistle.wav",70
Sample,14873,0,"soft-hitwhistle.wav",70
Sample,19402,0,"soft-hitwhistle.wav",70
Sample,19779,0,"soft-hitwhistle.wav",70
Sample,20156,0,"soft-hitwhistle.wav",70
Sample,26949,0,"soft-hitwhistle.wav",70
Sample,27138,0,"soft-hitwhistle.wav",70
Sample,34496,0,"soft-hitclap.wav",70
Sample,36006,0,"soft-hitclap.wav",70
Sample,36572,0,"soft-hitclap.wav",70
Sample,43364,0,"soft-hitwhistle.wav",70
Sample,44119,0,"soft-hitwhistle.wav",70
Sample,44496,0,"Tom3.wav",70
Sample,44873,0,"soft-hitwhistle.wav",70
Sample,45251,0,"Tom3.wav",70
Sample,45628,0,"soft-hitwhistle.wav",70
Sample,81855,0,"soft-hitclap.wav",70
Sample,91855,0,"soft-hitwhistle.wav",70
Sample,92232,0,"soft-hitwhistle.wav",70
Sample,92609,0,"soft-hitwhistle.wav",70

[TimingPoints]
723,377.358490566038,4,2,1,70,1,0
49024,-100,4,2,1,70,0,1
73175,-100,4,2,1,70,0,0

[HitObjects]
192,192,723,5,0,0:0:0:0:
320,192,911,1,0,0:0:0:0:
64,192,1100,1,0,0:0:0:0:
448,192,1289,1,0,0:0:0:0:
320,192,1666,1,0,0:0:0:0:
192,192,2043,1,0,0:0:0:0:
64,192,2421,1,0,0:0:0:0:
192,192,2609,1,0,0:0:0:0:
320,192,2798,1,0,0:0:0:0:
64,192,3175,1,0,0:0:0:0:
448,192,3364,1,0,0:0:0:0:
64,192,3741,128,0,4307:0:0:0:0:
192,192,4307,1,0,0:0:0:0:
448,192,4496,128,0,4873:0:0:0:0:
320,192,4873,128,0,5251:0:0:0:0:
64,192,5251,128,0,5628:0:0:0:0:
192,192,5628,128,0,6006:0:0:0:0:
320,192,6006,128,0,6383:0:0:0:0:
448,192,6383,128,0,6760:0:0:0:0:
64,192,6760,128,0,7515:0:0:0:0:
448,192,7515,1,0,0:0:0:0:
320,192,7798,1,0,0:0:0:0:
192,192,8081,1,0,0:0:0:0:
64,192,8270,128,0,8647:0:0:0:0:
192,192,8647,128,0,9024:0:0:0:0:
320,192,9024,128,0,9402:0:0:0:0:
448,192,9402,128,2,9779:0:0:0:0:
192,192,9779,1,6,0:0:0:0:
320,192,9779,1,0,0:0:0:0:
448,192,10156,1,8,0:0:0:0:
64,192,10345,1,2,0:0:0:0:
64,192,10723,1,2,0:0:0:0:
448,192,10911,1,8,0:0:0:0:
192,192,11100,1,2,0:0:0:0:
320,192,11100,1,4,0:0:0:0:
448,192,11477,1,2,0:0:0:0:
192,192,11666,1,8,0:0:0:0:
320,192,11855,1,2,0:0:0:0:
320,192,12232,1,2,0:0:0:0:
192,192,12421,1,8,0:0:0:0:
448,192,12798,1,4,0:0:0:0:
64,192,12798,1,2,0:0:0:0:
320,192,13175,1,8,0:0:0:0:
64,192,13364,1,2,0:0:0:0:
64,192,13741,1,2,0:0:0:0:
448,192,13930,1,8,0:0:0:0:
192,192,14119,1,0,0:0:0:70:HHOpen.wav
320,192,14496,1,0,0:0:0:70:HHOpen.wav
448,192,14873,1,0,0:0:0:70:HHOpen.wav
64,192,15062,128,0,15439:0:0:0:70:Tom1.wav
448,192,15439,1,8,0:0:0:0:
320,192,15628,1,8,0:0:0:0:
192,192,15817,1,4,0:0:0:0:
64,192,15817,1,2,0:0:0:0:
448,192,16194,1,8,0:0:0:0:
64,192,16383,1,2,0:0:0:0:
64,192,16760,1,2,0:0:0:0:
192,192,16949,1,8,0:0:0:0:
448,192,17138,1,4,0:0:0:0:
320,192,17138,1,2,0:0:0:0:
64,192,17515,1,2,0:0:0:0:
320,192,17704,1,8,0:0:0:0:
192,192,17892,1,2,0:0:0:0:
448,192,18270,1,2,0:0:0:0:
192,192,18458,1,8,0:0:0:0:
320,192,18647,1,8,0:0:0:0:
64,192,18836,1,2,0:0:0:0:
448,192,18836,1,4,0:0:0:0:
192,192,19213,1,8,0:0:0:0:
448,192,19402,1,0,0:0:0:70:HHOpen.wav
320,192,19779,1,0,0:0:0:70:HHOpen.wav
192,192,20156,1,0,0:0:0:70:HHOpen.wav
320,192,20534,1,0,0:0:0:70:Tom1.wav
64,192,20723,128,0,21100:0:0:0:70:Tom3.wav
448,192,20723,1,4,0:0:0:0:
192,192,21100,128,0,21477:0:0:0:0:
320,192,21477,128,0,21855:0:0:0:0:
64,192,21855,5,2,0:0:0:0:
448,192,21855,1,4,0:0:0:0:
192,192,22232,1,8,0:0:0:0:
448,192,22421,1,2,0:0:0:0:
64,192,22609,1,2,0:0:0:0:
320,192,22987,1,8,0:0:0:0:
192,192,23364,1,2,0:0:0:0:
320,192,23741,1,8,0:0:0:0:
64,192,23930,1,2,0:0:0:0:
448,192,24119,128,2,24496:0:0:0:0:
64,192,24496,128,8,24873:0:0:0:0:
448,192,24873,1,2,0:0:0:0:
320,192,25251,1,8,0:0:0:0:
64,192,25439,1,2,0:0:0:0:
192,192,25628,1,2,0:0:0:0:
448,192,26006,1,8,0:0:0:0:
64,192,26383,1,2,0:0:0:0:
320,192,26760,1,8,0:0:0:0:
192,192,26949,1,0,0:0:0:70:HHOpen.wav
64,192,27138,128,0,27515:0:0:0:70:HHOpen.wav
448,192,27515,128,10,27892:0:0:0:0:
64,192,27892,1,2,0:0:0:0:
192,192,27892,1,4,0:0:0:0:
320,192,28270,1,8,0:0:0:0:
192,192,28458,1,2,0:0:0:0:
448,192,28647,1,2,0:0:0:0:
64,192,29024,1,8,0:0:0:0:
192,192,29402,1,2,0:0:0:0:
448,192,29779,1,8,0:0:0:0:
320,192,29968,1,2,0:0:0:0:
64,192,30156,128,2,30534:0:0:0:0:
448,192,30534,128,8,30911:0:0:0:0:
192,192,30911,1,2,0:0:0:0:
320,192,31289,1,8,0:0:0:0:
192,192,31477,1,2,0:0:0:0:
64,192,31666,1,2,0:0:0:0:
448,192,32043,1,8,0:0:0:0:
64,192,32421,1,2,0:0:0:0:
448,192,32609,1,12,0:0:0:0:
64,192,32798,1,12,0:0:0:0:
192,192,32798,128,0,33175:0:0:0:0:
448,192,33175,1,8,0:0:0:0:
320,192,33364,1,0,0:0:0:70:Tom1.wav
64,192,33553,1,0,0:0:0:70:Tom2.wav
192,192,33741,1,0,0:0:0:70:Tom3.wav
320,192,33930,1,2,0:0:0:0:
448,192,33930,1,4,0:0:0:0:
192,192,34307,1,0,0:0:0:0:
448,192,34496,1,0,0:0:0:70:HHOpen.wav
64,192,34873,1,2,0:0:0:0:
320,192,35062,1,8,0:0:0:0:
192,192,35439,1,2,0:0:0:0:
448,192,35628,1,2,0:0:0:0:
192,192,36006,1,0,0:0:0:70:HHOpen.wav
448,192,36383,1,2,0:0:0:0:
64,192,36572,1,0,0:0:0:70:HHOpen.wav
192,192,36949,1,2,0:0:0:0:
320,192,36949,1,4,0:0:0:0:
64,192,37326,1,0,0:0:0:70:Tom2.wav
448,192,37515,1,8,0:0:0:0:
320,192,37892,1,0,0:0:0:70:Tom3.wav
192,192,38081,1,8,0:0:0:0:
64,192,38458,1,2,0:0:0:0:
448,192,38647,1,2,0:0:0:0:
64,192,39024,1,8,0:0:0:0:
192,192,39402,1,2,0:0:0:0:
448,192,39590,1,8,0:0:0:0:
320,192,39779,1,0,0:0:0:0:
192,192,39968,1,4,0:0:0:0:
64,192,39968,1,2,0:0:0:0:
192,192,40345,1,8,0:0:0:0:
320,192,40534,1,2,0:0:0:0:
448,192,40534,1,4,0:0:0:0:
320,192,40911,1,2,0:0:0:0:
64,192,41100,1,8,0:0:0:0:
192,192,41289,1,8,0:0:0:0:
320,192,41477,1,2,0:0:0:0:
448,192,41477,1,4,0:0:0:0:
64,192,41855,1,8,0:0:0:0:
192,192,42043,1,4,0:0:0:0:
320,192,42043,1,2,0:0:0:0:
448,192,42421,1,8,0:0:0:0:
64,192,42609,1,8,0:0:0:0:
192,192,42798,1,0,0:0:0:70:Tom2.wav
448,192,42987,128,6,43741:0:0:0:0:
320,192,42987,1,0,0:0:0:70:Tom3.wav
192,192,43364,1,0,0:0:0:70:Tom1.wav
64,192,43741,128,2,44496:0:0:0:0:
320,192,44119,1,0,0:0:0:70:Tom3.wav
448,192,44496,128,2,45251:0:0:0:0:
192,192,44873,1,0,0:0:0:70:Tom3.wav
64,192,45251,128,2,46006:0:0:0:0:
320,192,45628,1,0,0:0:0:70:Tom3.wav
448,192,46006,128,4,47515:0:0:0:0:
192,192,46006,1,2,0:0:0:0:
64,192,47704,1,10,0:0:0:0:
64,192,47892,1,10,0:0:0:0:
320,192,48081,1,0,0:0:0:70:Tom1.wav
448,192,48270,128,0,48647:0:0:0:70:Tom3.wav
64,192,48647,128,8,49024:0:0:0:0:
448,192,49024,1,4,0:0:0:0:
320,192,49024,1,2,0:0:0:0:
192,192,49213,1,0,0:0:0:70:HHOpen.wav
64,192,49402,1,8,0:0:0:0:
448,192,49590,1,0,0:0:0:70:HHOpen.wav
320,192,49779,1,2,0:0:0:0:
192,192,49968,1,0,0:0:0:70:HHOpen.wav
64,192,50345,128,0,50723:0:0:0:70:HHOpen.wav
448,192,50723,1,0,0:0:0:70:HHOpen.wav
320,192,50911,1,8,0:0:0:0:
192,192,51100,1,0,0:0:0:70:HHOpen.wav
64,192,51289,128,2,51666:0:0:0:0:
320,192,51666,1,8,0:0:0:0:
448,192,51666,1,0,0:0:0:0:
192,192,52043,1,6,0:0:0:0:
64,192,52043,1,0,0:0:0:0:
320,192,52232,1,0,0:0:0:70:HHOpen.wav
448,192,52421,1,8,0:0:0:0:
64,192,52609,1,0,0:0:0:70:HHOpen.wav
192,192,52798,1,2,0:0:0:0:
320,192,52987,1,0,0:0:0:70:HHOpen.wav
448,192,53364,1,0,0:0:0:70:HHOpen.wav
320,192,53553,128,2,53930:0:0:0:0:
192,192,53930,128,8,54307:0:0:0:0:
64,192,54307,128,2,54685:0:0:0:0:
448,192,54685,1,8,0:0:0:0:
320,192,54873,1,8,0:0:0:0:
64,192,55062,1,2,0:0:0:0:
192,192,55062,1,4,0:0:0:0:
448,192,55628,1,0,0:0:0:70:HHOpen.wav
320,192,55817,1,2,0:0:0:0:
192,192,56006,1,0,0:0:0:70:HHOpen.wav
64,192,56194,1,8,0:0:0:0:
448,192,56383,128,0,56760:0:0:0:70:HHOpen.wav
320,192,56760,1,0,0:0:0:70:HHOpen.wav
192,192,56949,1,8,0:0:0:0:
64,192,57138,128,0,57515:0:0:0:70:HHOpen.wav
448,192,57892,128,0,58270:0:0:0:70:HHOpen.wav
64,192,58270,1,0,0:0:0:70:HHOpen.wav
320,192,58458,128,8,58836:0:0:0:0:
192,192,58836,128,2,59213:0:0:0:0:
64,192,59213,128,8,59590:0:0:0:0:
448,192,59590,128,2,59968:0:0:0:0:
192,192,59968,1,8,0:0:0:0:
64,192,60156,128,6,60723:0:0:0:0:
320,192,60723,1,8,0:0:0:0:
64,192,61100,1,4,0:0:0:0:
192,192,61100,1,2,0:0:0:0:
320,192,61289,1,0,0:0:0:70:HHOpen.wav
448,192,61477,1,8,0:0:0:0:
64,192,61666,1,0,0:0:0:70:HHOpen.wav
192,192,61855,1,2,0:0:0:0:
320,192,62043,1,0,0:0:0:70:HHOpen.wav
64,192,62421,128,0,62798:0:0:0:70:HHOpen.wav
448,192,62798,1,0,0:0:0:70:HHOpen.wav
320,192,62987,1,8,0:0:0:0:
192,192,63175,1,0,0:0:0:70:HHOpen.wav
64,192,63364,128,2,63741:0:0:0:0:
448,192,63741,1,0,0:0:0:0:
320,192,63741,1,8,0:0:0:0:
64,192,64119,1,2,0:0:0:0:
192,192,64119,1,4,0:0:0:0:
320,192,64307,1,0,0:0:0:70:HHOpen.wav
448,192,64496,1,8,0:0:0:0:
64,192,64685,1,0,0:0:0:70:HHOpen.wav
192,192,64873,1,2,0:0:0:0:
320,192,65062,1,0,0:0:0:70:HHOpen.wav
448,192,65439,1,0,0:0:0:70:HHOpen.wav
320,192,65628,128,2,66006:0:0:0:0:
192,192,66006,128,8,66383:0:0:0:0:
64,192,66383,1,12,0:0:0:0:
448,192,66666,1,12,0:0:0:0:
320,192,66949,1,12,0:0:0:0:
192,192,67138,1,0,0:0:0:70:Tom2.wav
64,192,67326,1,0,0:0:0:0:
320,192,67515,1,4,0:0:0:0:
448,192,67515,128,0,67892:0:0:0:0:
192,192,67892,1,2,0:0:0:0:
320,192,68081,1,0,0:0:0:70:HHOpen.wav
192,192,68270,1,8,0:0:0:0:
64,192,68458,128,0,68836:0:0:0:70:HHOpen.wav
192,192,68836,1,0,0:0:0:70:HHOpen.wav
320,192,69024,1,8,0:0:0:0:
448,192,69213,128,0,69779:0:0:0:70:HHOpen.wav
64,192,69779,1,8,0:0:0:0:
320,192,69968,1,0,0:0:0:70:HHOpen.wav
64,192,70156,128,2,70534:0:0:0:0:
192,192,70156,1,4,0:0:0:0:
320,192,70534,128,8,70911:0:0:0:0:
192,192,70911,128,2,71289:0:0:0:0:
448,192,71289,128,8,71666:0:0:0:0:
64,192,71666,1,6,0:0:0:0:
192,192,71855,1,8,0:0:0:0:
320,192,72043,1,8,0:0:0:0:
448,192,72232,128,0,72609:0:0:0:70:Tom1.wav
320,192,72609,1,0,0:0:0:70:Tom3.wav
192,192,72798,1,4,0:0:0:0:
64,192,72798,128,8,73175:0:0:0:0:
448,192,73175,1,2,0:0:0:0:
320,192,73175,1,4,0:0:0:0:
192,192,73741,1,2,0:0:0:0:
320,192,73930,1,2,0:0:0:0:
64,192,74307,1,8,0:0:0:0:
192,192,74496,1,8,0:0:0:0:
448,192,74685,1,2,0:0:0:0:
320,192,74685,1,4,0:0:0:0:
192,192,75251,1,2,0:0:0:0:
320,192,75439,1,2,0:0:0:0:
64,192,75628,1,8,0:0:0:0:
64,192,75817,1,8,0:0:0:0:
448,192,76194,128,4,76572:0:0:0:0:
320,192,76194,1,2,0:0:0:0:
64,192,76760,1,2,0:0:0:0:
192,192,76949,1,2,0:0:0:0:
448,192,77326,1,8,0:0:0:0:
64,192,77515,1,2,0:0:0:0:
192,192,77515,1,4,0:0:0:0:
320,192,77892,5,12,0:0:0:0:
320,192,78081,1,12,0:0:0:0:
64,192,78270,1,8,0:0:0:0:
192,192,78458,128,8,78836:0:0:0:0:
448,192,78836,128,0,79213:0:0:0:70:Tom2.wav
64,192,79213,128,2,79590:0:0:0:0:
192,192,79213,1,4,0:0:0:0:
320,192,79590,1,8,0:0:0:0:
448,192,79779,128,4,80156:0:0:0:0:
192,192,79779,1,2,0:0:0:0:
64,192,80156,1,8,0:0:0:0:
320,192,80345,128,2,80723:0:0:0:0:
192,192,80345,1,4,0:0:0:0:
448,192,80723,1,2,0:0:0:0:
64,192,80911,1,2,0:0:0:0:
320,192,81100,1,8,0:0:0:0:
320,192,81477,1,8,0:0:0:0:
448,192,81666,1,2,0:0:0:0:
64,192,81855,1,0,0:0:0:70:Tom3.wav
192,192,82043,1,2,0:0:0:0:
448,192,82232,128,4,82609:0:0:0:0:
320,192,82232,1,2,0:0:0:0:
192,192,82609,1,8,0:0:0:0:
64,192,82798,128,2,83175:0:0:0:0:
320,192,82798,1,4,0:0:0:0:
448,192,83175,1,8,0:0:0:0:
320,192,83364,128,4,83741:0:0:0:0:
192,192,83364,1,2,0:0:0:0:
64,192,83741,1,0,0:0:0:70:Tom1.wav
192,192,83930,1,2,0:0:0:0:
320,192,84119,1,12,0:0:0:0:
448,192,84496,1,12,0:0:0:0:
448,192,84779,1,12,0:0:0:0:
320,192,85062,1,12,0:0:0:0:
64,192,85251,128,2,86006:0:0:0:0:
192,192,85251,1,4,0:0:0:0:
448,192,85628,1,8,0:0:0:0:
320,192,86006,1,0,0:0:0:70:Tom2.wav
192,192,86194,1,0,0:0:0:70:Tom3.wav
64,192,86383,1,0,0:0:0:70:Tom3.wav
320,192,86572,1,2,0:0:0:0:
448,192,86572,128,4,86949:0:0:0:0:
64,192,86949,1,2,0:0:0:0:
192,192,87138,1,2,0:0:0:0:
320,192,87326,1,2,0:0:0:0:
64,192,87515,128,8,87892:0:0:0:0:
448,192,87892,128,8,88270:0:0:0:0:
64,192,88270,1,2,0:0:0:0:
192,192,88270,1,4,0:0:0:0:
320,192,88647,1,8,0:0:0:0:
64,192,88836,1,2,0:0:0:0:
64,192,89213,1,2,0:0:0:0:
192,192,89402,1,8,0:0:0:0:
320,192,89590,1,4,0:0:0:0:
448,192,89590,1,2,0:0:0:0:
64,192,89968,1,2,0:0:0:0:
448,192,90156,1,8,0:0:0:0:
192,192,90345,128,2,90723:0:0:0:0:
320,192,90723,1,2,0:0:0:0:
64,192,90911,1,8,0:0:0:0:
192,192,91100,1,8,0:0:0:0:
448,192,91289,1,2,0:0:0:0:
320,192,91289,1,4,0:0:0:0:
448,192,91666,1,8,0:0:0:0:
192,192,91855,1,0,0:0:0:70:HHOpen.wav
64,192,92232,1,0,0:0:0:70:HHOpen.wav
320,192,92609,1,0,0:0:0:70:HHOpen.wav
448,192,92987,1,0,0:0:0:70:Tom1.wav
64,192,93175,128,6,93553:0:0:0:0:
448,192,93553,1,8,0:0:0:0:
448,192,93836,1,8,0:0:0:0:
320,192,94119,1,8,0:0:0:0:
192,192,94307,1,4,0:0:0:0:
64,192,94307,128,2,95062:0:0:0:0:
320,192,94685,1,8,0:0:0:0:
448,192,95062,1,0,0:0:0:70:Tom1.wav
320,192,95251,1,0,0:0:0:70:Tom2.wav
192,192,95439,1,0,0:0:0:70:Tom3.wav
448,192,95628,128,4,97326:0:0:0:0:
64,192,95628,1,2,0:0:0:0:
