osu file format v14

[General]
AudioFilename: audio.mp3
AudioLeadIn: 0
PreviewTime: 48358
Countdown: 0
SampleSet: Soft
StackLeniency: 0.7
Mode: 0
LetterboxInBreaks: 0
WidescreenStoryboard: 0

[Editor]
Bookmarks: 7602,9111,21564,33639,38734,43828,47790,48356,60432,72507,78545,87602
DistanceSpacing: 0.8
BeatDivisor: 4
GridSize: 4
TimelineZoom: 1

[Metadata]
Title:Yume Kataru yori Yume Utaou (TV Size)
TitleUnicode:ユメ語るよりユメ歌おう (TV Size)
Artist:Aqours
ArtistUnicode:Aqours
Creator:Mari 0hara
Version:Singing my Song for my Dream!
Source:ラブライブ!サンシャイン!!
Tags:jpop j-pop Alternate Kyutei Anya Melfissa Anya_Melfissa TritoBandito Trito Slyme Tuffiii Akane-_ Tucho ラブライブ!サンシャイン!! Ending Japanese Anime school idol project Takami Chika 高海千歌 Inami Anju 伊波杏樹 Sakurauchi Riko 桜内梨子 Aida Rikako 逢田梨香子 Matsuura Kanan 松浦果南 Suwa Nanaka 諏訪ななか Kurosawa Dia 黒澤ダイヤ Komiya Arisa 小宮有紗 Watanabe You 渡辺 曜 Saito Shuka 斉藤朱夏 Tsushima Yoshiko 津島善子 Kobayashi Aika 小林愛香 Kunikida Hanamaru 国木田花丸 Takatsuki Kanako 高槻かなこ Ohara Mari 小原鞠莉 Suzuki Aina 鈴木愛奈 Kurosawa Ruby 黒澤ルビィ Furihata Ai 降幡 愛 bushiroad LACM-14540 畑亞貴 Aki Hata 山口朗彥 Yamaguchi Akihiko
BeatmapID:3110975
BeatmapSetID:1519952

[Difficulty]
HPDrainRate:5.2
CircleSize:3.8
OverallDifficulty:8.8
ApproachRate:9.2
SliderMultiplier:1.72
SliderTickRate:1

[Events]
//Background and Video events
0,0,"kataru.png",0,0
Video,-360,"love live aqours.mp4"
//Break Periods
//Storyboard Layer 0 (Background)
//Storyboard Layer 1 (Fail)
//Storyboard Layer 2 (Pass)
//Storyboard Layer 3 (Foreground)
//Storyboard Layer 4 (Overlay)
//Storyboard Sound Samples

[TimingPoints]
66,377.358490566038,4,2,1,40,1,0
66,-166.666666666667,4,2,1,40,0,0
6858,-200,4,2,1,40,0,0
8745,-100,4,2,1,40,0,0
8933,-83.3333333333333,4,2,1,40,0,0
9117,-83.3333333333333,4,2,1,60,0,0
9122,-71.4285714285714,4,2,1,60,0,0
9405,-71.4285714285714,4,2,1,5,0,0
9499,-71.4285714285714,4,2,1,60,0,0
9688,-76.9230769230769,4,2,1,60,0,0
10066,-100,4,2,1,60,0,0
10443,-71.4285714285714,4,2,1,60,0,0
10726,-71.4285714285714,4,2,1,5,0,0
10820,-83.3333333333333,4,2,1,60,0,0
11009,-100,4,2,1,60,0,0
11198,-71.4285714285714,4,2,1,60,0,0
12330,-83.3333333333333,4,2,1,60,0,0
12518,-100,4,2,1,60,0,0
12707,-71.4285714285714,4,2,1,60,0,0
12990,-71.4285714285714,4,2,1,5,0,0
13084,-100,4,2,1,60,0,0
13273,-83.3333333333333,4,2,1,60,0,0
13745,-83.3333333333333,4,2,1,5,0,0
13839,-71.4285714285714,4,2,1,60,0,0
14122,-71.4285714285714,4,2,1,5,0,0
14216,-62.5,4,2,1,60,0,0
14405,-62.5,4,2,1,60,0,0
14499,-62.5,4,2,1,60,0,0
15160,-71.4285714285714,4,2,1,60,0,0
15443,-71.4285714285714,4,2,1,5,0,0
15537,-71.4285714285714,4,2,1,60,0,0
15726,-76.9230769230769,4,2,1,60,0,0
16103,-100,4,2,1,60,0,0
16481,-71.4285714285714,4,2,1,60,0,0
16764,-71.4285714285714,4,2,1,5,0,0
16858,-100,4,2,1,60,0,0
17047,-83.3333333333333,4,2,1,60,0,0
17235,-71.4285714285714,4,2,1,60,0,0
18462,-71.4285714285714,4,2,1,5,0,0
18556,-71.4285714285714,4,2,1,60,0,0
18745,-62.5,4,2,1,60,0,0
19028,-62.5,4,2,1,5,0,0
19122,-62.5,4,2,1,60,0,0
19405,-62.5,4,2,1,5,0,0
19499,-62.5,4,2,1,60,0,0
20066,-62.5,4,2,1,60,0,0
21575,-125,4,2,1,50,0,0
24216,-166.666666666667,4,2,1,50,0,0
24499,-166.666666666667,4,2,1,5,0,0
24594,-71.4285714285714,4,2,1,50,0,0
24877,-71.4285714285714,4,2,1,5,0,0
24971,-83.3333333333333,4,2,1,50,0,0
25254,-83.3333333333333,4,2,1,5,0,0
25349,-83.3333333333333,4,2,1,50,0,0
25537,-76.9230769230769,4,2,1,50,0,0
26481,-71.4285714285714,4,2,1,50,0,0
26764,-71.4285714285714,4,2,1,5,0,0
26858,-71.4285714285714,4,2,1,50,0,0
27235,-250,4,2,1,50,0,0
27518,-250,4,2,1,5,0,0
27613,-125,4,2,1,50,0,0
30254,-166.666666666667,4,2,1,50,0,0
30537,-166.666666666667,4,2,1,5,0,0
30632,-71.4285714285714,4,2,1,50,0,0
30915,-71.4285714285714,4,2,1,5,0,0
31009,-83.3333333333333,4,2,1,50,0,0
31292,-83.3333333333333,4,2,1,5,0,0
31386,-83.3333333333333,4,2,1,50,0,0
31575,-76.9230769230769,4,2,1,50,0,0
32896,-90.9090909090909,4,2,1,50,0,0
33273,-90.9090909090909,4,2,1,55,0,0
33650,-111.111111111111,4,2,1,55,0,0
35349,-125,4,2,1,55,0,0
37801,-142.857142857143,4,2,1,55,0,0
39877,-83.3333333333333,4,2,1,55,0,0
40160,-83.3333333333333,4,2,1,5,0,0
40254,-83.3333333333333,4,2,1,55,0,0
47047,-71.4285714285714,4,2,1,65,0,0
47235,-62.5,4,2,1,65,0,0
47424,-100,4,2,1,65,0,0
48362,-100,4,2,1,75,0,0
48367,-71.4285714285714,4,2,1,75,0,1
49311,-76.9230769230769,4,2,1,75,0,1
49594,-76.9230769230769,4,2,1,5,0,1
49688,-90.9090909090909,4,2,1,75,0,1
50066,-71.4285714285714,4,2,1,75,0,1
50443,-142.857142857143,4,2,1,75,0,1
50632,-142.857142857143,4,2,1,75,0,1
50915,-142.857142857143,4,2,1,5,0,1
51009,-66.6666666666667,4,2,1,75,0,1
51292,-66.6666666666667,4,2,1,5,0,1
51386,-71.4285714285714,4,2,1,75,0,1
51952,-71.4285714285714,4,2,1,75,0,1
52047,-71.4285714285714,4,2,1,75,0,1
52330,-66.6666666666667,4,2,1,75,0,1
52613,-66.6666666666667,4,2,1,5,0,1
52707,-76.9230769230769,4,2,1,75,0,1
52896,-62.5,4,2,1,75,0,1
53179,-62.5,4,2,1,5,0,1
53273,-58.8235294117647,4,2,1,75,0,1
53556,-58.8235294117647,4,2,1,75,0,1
53650,-55.5555555555556,4,2,1,75,0,1
53933,-55.5555555555556,4,2,1,5,0,1
54028,-71.4285714285714,4,2,1,75,0,1
54971,-76.9230769230769,4,2,1,75,0,1
56009,-76.9230769230769,4,2,1,5,0,1
56103,-76.9230769230769,4,2,1,75,0,1
56669,-66.6666666666667,4,2,1,75,0,1
57235,-83.3333333333333,4,2,1,75,0,1
57518,-83.3333333333333,4,2,1,5,0,1
57613,-83.3333333333333,4,2,1,75,0,1
58179,-71.4285714285714,4,2,1,75,0,1
58556,-68.9655172413793,4,2,1,75,0,1
58933,-62.5,4,2,1,75,0,1
60443,-76.9230769230769,4,2,1,75,0,1
61009,-76.9230769230769,4,2,1,75,0,1
61103,-76.9230769230769,4,2,1,75,0,1
61386,-66.6666666666667,4,2,1,75,0,1
61669,-66.6666666666667,4,2,1,5,0,1
61764,-76.9230769230769,4,2,1,75,0,1
62518,-142.857142857143,4,2,1,75,0,1
62707,-142.857142857143,4,2,1,75,0,1
62990,-142.857142857143,4,2,1,5,0,1
63084,-66.6666666666667,4,2,1,75,0,1
63367,-66.6666666666667,4,2,1,5,0,1
63462,-76.9230769230769,4,2,1,75,0,1
64028,-76.9230769230769,4,2,1,75,0,1
64122,-76.9230769230769,4,2,1,75,0,1
64405,-66.6666666666667,4,2,1,75,0,1
64688,-66.6666666666667,4,2,1,5,0,1
64782,-76.9230769230769,4,2,1,75,0,1
64971,-62.5,4,2,1,75,0,1
65254,-62.5,4,2,1,5,0,1
65349,-71.4285714285714,4,2,1,75,0,1
65632,-71.4285714285714,4,2,1,75,0,1
65726,-62.5,4,2,1,75,0,1
65820,-62.5,4,2,1,5,0,1
66009,-58.8235294117647,4,2,1,75,0,1
66103,-58.8235294117647,4,2,1,5,0,1
66292,-55.5555555555556,4,2,1,75,0,1
66386,-55.5555555555556,4,2,1,5,0,1
66481,-62.5,4,2,1,75,0,1
66858,-62.5,4,2,1,75,0,1
67047,-62.5,4,2,1,5,0,1
67141,-62.5,4,2,1,75,0,1
67424,-76.9230769230769,4,2,1,75,0,1
67801,-71.4285714285714,4,2,1,75,0,1
68084,-71.4285714285714,4,2,1,5,0,1
68179,-76.9230769230769,4,2,1,75,0,1
69499,-71.4285714285714,4,2,1,75,0,1
69877,-76.9230769230769,4,2,1,75,0,1
71198,-83.3333333333333,4,2,1,75,0,1
72141,-76.9230769230769,4,2,1,75,0,1
72424,-76.9230769230769,4,2,1,5,0,1
72513,-76.9230769230769,4,2,1,60,0,1
72518,-111.111111111111,4,2,1,60,0,0
75443,-111.111111111111,4,2,1,5,0,0
75537,-111.111111111111,4,2,1,60,0,0
76386,-111.111111111111,4,2,1,5,0,0
76481,-111.111111111111,4,2,1,60,0,0
77141,-111.111111111111,4,2,1,5,0,0
77235,-111.111111111111,4,2,1,60,0,0
78839,-111.111111111111,4,2,1,5,0,0
78933,-111.111111111111,4,2,1,60,0,0
79405,-111.111111111111,4,2,1,5,0,0
79499,-111.111111111111,4,2,1,60,0,0
81103,-142.857142857143,4,2,1,60,0,0
81386,-111.111111111111,4,2,1,60,0,0
81858,-111.111111111111,4,2,1,5,0,0
81952,-111.111111111111,4,2,1,60,0,0
82424,-111.111111111111,4,2,1,5,0,0
82518,-111.111111111111,4,2,1,60,0,0
82990,-111.111111111111,4,2,1,60,0,0
83084,-142.857142857143,4,2,1,60,0,0
83462,-111.111111111111,4,2,1,60,0,0
84028,-111.111111111111,4,2,1,5,0,0
84122,-111.111111111111,4,2,1,60,0,0
84311,-111.111111111111,4,2,1,5,0,0
84405,-111.111111111111,4,2,1,60,0,0
87608,-111.111111111111,4,2,1,65,0,0
87613,-71.4285714285714,4,2,1,65,0,0
87896,-71.4285714285714,4,2,1,5,0,0
87990,-71.4285714285714,4,2,1,65,0,0
88179,-76.9230769230769,4,2,1,65,0,0
88556,-100,4,2,1,65,0,0
88933,-71.4285714285714,4,2,1,65,0,0
89216,-71.4285714285714,4,2,1,5,0,0
89311,-83.3333333333333,4,2,1,65,0,0
89499,-100,4,2,1,65,0,0
89688,-71.4285714285714,4,2,1,65,0,0
90820,-83.3333333333333,4,2,1,65,0,0
91009,-100,4,2,1,65,0,0
91198,-71.4285714285714,4,2,1,65,0,0
91481,-71.4285714285714,4,2,1,5,0,0
91575,-71.4285714285714,4,2,1,65,0,0
91858,-71.4285714285714,4,2,1,5,0,0
91952,-71.4285714285714,4,2,1,65,0,0
92518,-55.5555555555556,4,2,1,65,0,0
92801,-55.5555555555556,4,2,1,65,0,0
92896,-76.9230769230769,4,2,1,65,0,0
92990,-76.9230769230769,4,2,1,5,0,0
93179,-76.9230769230769,4,2,1,65,0,0
93273,-76.9230769230769,4,2,1,5,0,0
93462,-76.9230769230769,4,2,1,65,0,0
93556,-76.9230769230769,4,2,1,5,0,0
93650,-76.9230769230769,4,2,1,65,0,0
96669,-100,4,2,1,5,0,0

[Colours]
Combo1 : 216,52,89
Combo2 : 156,250,156
Combo3 : 208,193,147
Combo4 : 141,232,32
Combo5 : 215,198,49
Combo6 : 60,173,176

[HitObjects]
78,307,66,6,0,L|130:256,1,51.599998425293,2|2,0:0|0:0,0:0:0:0:
187,242,443,1,2,0:0:0:0:
153,97,632,2,0,P|202:123|269:107,2,103.199996850586,2|2|2,0:0|0:0|0:0,0:0:0:0:
338,165,1764,2,0,P|317:180|303:201,2,51.599998425293,2|2|2,0:0|0:0|0:0,0:0:0:0:
379,310,2518,1,2,0:0:0:0:
389,318,2707,1,2,0:0:0:0:
474,131,3084,6,0,P|450:116|434:94,2,51.599998425293,2|2|2,0:0|0:0|0:0,0:0:0:0:
356,57,3650,1,2,0:0:0:0:
356,57,3745,1,2,0:0:0:0:
356,57,3839,2,0,P|332:77|291:93,1,51.599998425293,2|2,0:0|0:0,0:0:0:0:
163,112,4216,2,0,P|177:134|185:159,1,51.599998425293,2|2,0:0|0:0,0:0:0:0:
127,298,4594,5,2,0:0:0:0:
221,321,4971,1,2,0:0:0:0:
124,271,5349,1,2,0:0:0:0:
256,192,5726,1,2,0:0:0:0:
447,365,6103,6,0,P|473:356|480:340,1,25.7999992126465,2|0,0:0|0:0,0:0:0:0:
493,314,6292,1,2,0:0:0:0:
415,186,6481,1,2,0:0:0:0:
423,273,6669,1,2,0:0:0:0:
512,231,6858,2,0,P|485:259|443:257,2,64.5,2|2|2,0:0|0:0|0:0,0:0:0:0:
482,145,7613,5,2,1:2:0:0:
455,128,7707,1,0,0:0:0:0:
415,116,7801,1,0,1:2:0:0:
362,123,7896,1,0,0:0:0:0:
318,157,7990,2,0,L|301:127,3,21.5,8|0|2|8,0:2|0:0|0:0|0:2,0:0:0:0:
348,82,8367,5,0,1:2:0:0:
377,148,8462,1,8,0:2:0:0:
367,224,8556,1,8,0:2:0:0:
323,292,8651,1,8,0:0:0:0:
210,323,8745,5,6,1:2:0:0:
168,297,8840,1,2,0:2:0:0:
176,208,8934,1,2,0:2:0:0:
273,184,9029,1,2,0:2:0:0:
323,292,9122,6,0,P|224:369|162:308,1,180.599994488526,6|0,1:2|0:0,0:0:0:0:
159,330,9499,1,10,0:2:0:0:
0,237,9688,6,0,P|51:256|131:264,1,111.799994882202,2|0,1:2|0:0,0:0:0:0:
27,168,10066,6,0,P|87:189|145:185,1,86,2|8,1:2|0:2,0:0:0:0:
312,44,10443,6,0,B|236:143|144:35|230:5,1,180.599994488526,6|0,1:2|0:0,0:0:0:0:
234,13,10820,6,0,L|252:74,1,51.599998425293,2|0,1:2|0:0,0:0:0:0:
377,148,11009,2,0,L|347:77,1,43,10|0,0:2|0:0,0:0:0:0:
190,282,11198,6,0,P|261:336|231:251,1,240.799992651367,2|0,1:2|1:2,0:0:0:0:
138,199,11764,1,8,0:2:0:0:
320,275,11952,1,2,0:0:0:0:
319,307,12047,1,2,0:0:0:0:
310,335,12141,6,0,L|400:287,1,60.1999981628419,6|0,1:2|0:0,0:0:0:0:
421,186,12330,2,0,L|413:259,1,51.599998425293,2|0,1:2|0:0,0:0:0:0:
477,344,12518,2,0,L|430:305,1,43,10|0,0:2|0:0,0:0:0:0:
313,211,12707,6,0,B|389:310|481:202|399:173,1,180.599994488526,2|0,1:2|0:0,0:0:0:0:
391,174,13084,6,0,P|372:187|355:208,1,43,2|0,1:2|0:0,0:0:0:0:
267,345,13273,2,0,P|232:338|184:311,1,51.599998425293,10|0,0:2|0:0,0:0:0:0:
65,234,13462,6,0,P|145:238|172:173,1,154.799995275879,6|0,1:2|0:0,0:0:0:0:
123,70,13839,6,0,P|158:6|252:34,1,180.599994488526,2|0,1:2|0:0,0:0:0:0:
341,103,14216,6,0,P|358:142|444:145,1,137.6,2|8,1:2|0:3,0:0:0:0:
438,109,14499,5,4,0:3:0:0:
395,135,14594,1,4,0:3:0:0:
256,315,14782,5,10,0:2:0:0:
297,339,14877,1,0,0:0:0:0:
372,293,14971,1,8,0:2:0:0:
326,200,15066,1,8,0:2:0:0:
207,232,15160,6,0,P|83:213|85:126,1,180.599994488526,6|0,1:2|0:0,0:0:0:0:
68,155,15537,1,10,0:2:0:0:
314,72,15726,6,0,P|262:90|204:132,1,111.799994882202,2|0,1:2|0:0,0:0:0:0:
266,11,16103,6,0,P|213:34|162:75,1,86,2|8,1:2|0:2,0:0:0:0:
372,220,16481,6,0,B|477:187|407:64|370:117,1,180.599994488526,6|0,1:2|0:0,0:0:0:0:
361,149,16858,6,0,P|388:137|414:113,1,43,2|0,1:2|0:0,0:0:0:0:
456,0,17047,2,0,P|434:20|404:36,1,51.599998425293,10|0,0:2|0:0,0:0:0:0:
188,66,17235,6,0,P|255:171|315:289,1,240.799992651367,2|0,1:2|1:2,0:0:0:0:
260,377,17801,1,8,0:2:0:0:
59,236,17990,5,10,0:2:0:0:
62,255,18084,1,10,0:2:0:0:
69,271,18179,6,0,P|155:250|71:222,1,180.599994488526,6|0,1:2|0:0,0:0:0:0:
50,115,18556,2,0,P|33:124|50:116,1,60.1999981628419,10|0,0:2|0:0,0:0:0:0:
226,123,18745,6,0,B|324:129|349:85|319:-5|262:34,1,206.4,2|0,1:2|0:0,0:0:0:0:
226,123,19122,6,0,B|134:98|131:37|196:-32|225:27,1,206.4,2|0,1:2|0:0,0:0:0:0:
343,170,19499,5,2,1:2:0:0:
178,209,19877,5,8,0:3:0:0:
178,209,19971,1,4,0:3:0:0:
178,209,20066,6,0,B|123:156|164:76|244:91|264:137|264:137|314:88|403:126|405:229|336:222|334:268|243:207|259:359,1,550.4,6|0,1:2|0:0,0:0:0:0:
257,329,20915,1,0,0:0:0:0:
257,329,21009,1,0,0:0:0:0:
257,329,21103,1,0,0:0:0:0:
257,329,21198,5,6,1:2:0:0:
67,349,21575,6,0,L|107:270,1,68.8,10|0,0:2|1:2,0:0:0:0:
220,225,21952,1,2,1:2:0:0:
295,275,22141,2,0,L|237:312,1,68.8,2|10,0:0|0:2,0:0:0:0:
109,200,22518,2,0,L|234:121,1,137.6,2|0,0:0|0:0,0:0:0:0:
369,200,23084,2,0,P|336:191|292:160,1,68.8,8|0,0:2|1:2,0:0:0:0:
347,66,23462,5,2,1:2:0:0:
382,94,23650,1,2,0:0:0:0:
460,47,23839,1,10,0:2:0:0:
432,160,24028,1,2,0:0:0:0:
466,314,24216,6,0,P|419:326|394:366,1,77.3999976379395,0|0,1:2|0:0,0:0:0:0:
391,384,24594,6,0,B|444:409|443:267|336:291,1,180.599994488526,10|0,0:2|0:0,0:0:0:0:
321,330,24971,2,0,B|268:372|221:285|169:328,1,154.799995275879,2|0,1:2|0:0,0:0:0:0:
95,358,25349,1,8,0:2:0:0:
99,189,25537,6,0,P|36:274|97:359,1,223.599989764405,2|2,0:0|0:0,0:0:0:0:
207,231,26103,1,10,0:2:0:0:
207,231,26292,1,2,1:2:0:0:
339,290,26481,6,0,B|392:315|391:173|278:202,1,180.599994488526,6|0,1:2|0:0,0:0:0:0:
283,240,26858,5,14,0:2:0:0:
314,238,26952,1,10,0:2:0:0:
375,201,27047,1,10,0:2:0:0:
384,114,27141,1,10,0:2:0:0:
292,48,27235,6,0,P|276:74|274:98,1,51.6,4|0,1:2|0:0,0:0:0:0:
280,139,27613,6,0,L|194:144,1,68.8,10|0,0:2|1:2,0:0:0:0:
89,80,27990,1,2,1:2:0:0:
45,3,28179,2,0,L|0:62,1,68.8,2|10,0:0|0:2,0:0:0:0:
116,191,28556,2,0,L|220:78,1,137.6,2|0,0:0|0:0,0:0:0:0:
384,114,29122,2,0,P|357:87|307:74,1,68.8,8|0,0:2|1:2,0:0:0:0:
206,138,29499,5,2,1:2:0:0:
216,170,29688,1,2,0:0:0:0:
318,205,29877,1,10,0:2:0:0:
384,114,30066,1,2,0:0:0:0:
283,228,30254,6,0,P|295:276|335:303,1,77.3999976379395,0|0,1:2|0:0,0:0:0:0:
334,318,30632,6,0,P|388:290|333:314,1,180.599994488526,10|0,0:2|0:0,0:0:0:0:
321,349,31009,2,0,B|250:379|250:379|132:370,1,154.799995275879,2|0,1:2|0:0,0:0:0:0:
76,322,31386,1,8,0:2:0:0:
132,163,31575,6,0,P|162:264|75:323,1,223.599989764405,2|10,0:0|0:2,0:0:0:0:
237,217,32141,1,10,0:2:0:0:
318,313,32330,1,10,0:2:0:0:
334,321,32424,1,8,0:2:0:0:
344,316,32518,6,0,L|372:261,2,55.8999974411012,14|0|0,0:2|0:0|1:2,0:0:0:0:
458,223,32896,6,0,L|428:180,2,47.3000014434815,10|0|4,0:3|0:0|0:3,0:0:0:0:
313,121,33273,5,4,1:2:0:0:
321,117,33650,5,2,1:2:0:0:
448,92,33839,1,8,0:2:0:0:
340,15,34028,2,0,P|296:17|259:37,1,77.3999976379395,2|0,0:0|1:2,0:0:0:0:
185,123,34405,1,10,0:2:0:0:
179,133,34782,5,2,1:2:0:0:
67,74,34971,1,0,1:2:0:0:
93,219,35160,1,2,0:0:0:0:
93,219,35349,6,0,B|103:252|130:322|213:332|238:213|160:217,1,206.4,10|8,0:2|0:2,0:0:0:0:
317,0,36103,5,0,0:0:0:0:
317,0,36198,1,8,0:2:0:0:
317,0,36292,2,0,L|335:76,1,68.8,6|2,1:2|0:0,0:0:0:0:
443,142,36669,1,6,0:3:0:0:
249,188,36858,6,0,L|267:112,1,68.8,10|0,0:2|0:0,0:0:0:0:
399,230,37235,1,2,1:2:0:0:
287,348,37424,1,10,0:2:0:0:
179,234,37612,5,2,0:0:0:0:
179,234,37706,1,8,0:2:0:0:
179,234,37801,6,0,B|154:222|124:249|131:264|138:281|107:300|83:288,1,120.399996325684,0|0,1:2|0:0,0:0:0:0:
0,254,38367,1,8,0:2:0:0:
311,53,38745,5,2,1:2:0:0:
241,121,38933,1,10,0:2:0:0:
245,139,39028,1,8,0:2:0:0:
259,164,39122,1,10,0:2:0:0:
282,179,39216,1,8,0:2:0:0:
318,180,39311,1,12,1:2:0:0:
399,50,39499,5,6,0:3:0:0:
228,25,39688,1,10,0:2:0:0:
318,180,39877,2,0,B|288:163|244:186|253:210|260:231|222:259|187:244,1,154.799995275879,6|0,1:2|0:0,0:0:0:0:
88,261,40254,5,2,1:2:0:0:
242,384,40443,1,10,0:2:0:0:
235,130,40632,1,10,0:2:0:0:
247,114,40726,1,8,0:2:0:0:
260,131,40820,1,4,1:2:0:0:
319,337,41009,5,2,1:2:0:0:
127,183,41198,1,10,0:2:0:0:
317,18,41386,1,6,1:2:0:0:
455,186,41575,5,0,1:2:0:0:
455,186,41669,1,8,0:2:0:0:
455,186,41764,1,8,0:2:0:0:
455,186,41858,1,8,0:2:0:0:
455,186,41952,1,10,0:3:0:0:
496,114,42141,2,0,P|475:102|448:98,1,51.599998425293,6|0,0:3|0:0,0:0:0:0:
255,95,42330,5,14,1:2:0:0:
322,198,42518,1,8,0:2:0:0:
334,76,42707,1,8,1:2:0:0:
242,206,42896,1,10,0:2:0:0:
278,19,43084,1,10,1:2:0:0:
293,266,43273,1,8,0:2:0:0:
411,57,43462,1,8,1:2:0:0:
179,153,43650,1,8,0:2:0:0:
432,286,43839,5,10,1:2:0:0:
278,19,44028,1,8,0:2:0:0:
216,333,44216,1,8,1:2:0:0:
411,57,44405,1,10,0:2:0:0:
104,205,44594,1,10,1:2:0:0:
434,350,44782,1,8,0:2:0:0:
207,38,44971,1,8,1:2:0:0:
42,364,45160,1,8,0:2:0:0:
412,112,45349,5,6,1:2:0:0:
323,311,47047,6,0,P|282:291|243:306,1,60.1999981628419,10|0,1:2|0:0,0:0:0:0:
277,144,47235,2,0,P|299:169|304:203,1,68.8,10|0,1:2|0:0,0:0:0:0:
192,252,47424,2,0,P|206:218|238:200,1,43,10|8,0:3|0:3,0:0:0:0:
223,208,47613,1,10,0:3:0:0:
234,204,47707,1,4,0:3:0:0:
251,210,47801,1,4,0:3:0:0:
268,226,47896,1,4,0:3:0:0:
287,274,47990,5,10,0:2:0:0:
247,333,48084,1,8,0:2:0:0:
170,329,48179,1,8,0:2:0:0:
137,252,48273,1,8,0:2:0:0:
171,100,48367,6,0,P|149:131|138:178,1,60.1999981628419,6|0,1:2|0:0,0:0:0:0:
247,333,48556,2,0,P|225:303|214:266,1,60.1999981628419,2|0,0:0|0:0,0:0:0:0:
410,130,48745,2,0,P|359:167|264:134,1,120.399996325684,10|2,0:2|0:0,0:0:0:0:
171,100,49028,1,8,0:2:0:0:
180,107,49122,1,2,1:2:0:0:
307,278,49311,6,0,B|330:315|378:322|378:322|419:296|467:298,1,167.699992323304,2|0,0:0|0:0,0:0:0:0:
470,296,49688,6,0,P|477:348|419:385,1,94.600002886963,2|0,0:0|1:2,0:0:0:0:
281,331,50066,6,0,P|297:291|332:252,1,60.1999981628419,2|0,0:0|0:0,0:0:0:0:
465,165,50254,2,0,P|428:174|382:172,1,60.1999981628419,10|0,0:2|0:0,0:0:0:0:
288,63,50443,1,2,0:0:0:0:
298,70,50537,1,8,0:2:0:0:
261,176,50632,6,0,P|290:157|259:174,1,90.2999972442628,2|0,1:2|0:0,0:0:0:0:
185,323,51009,2,0,P|124:357|170:297,1,193.50000738144,10|0,0:2|0:0,0:0:0:0:
364,238,51386,6,0,P|333:246|266:249,1,60.1999981628419,6|0,1:2|0:0,0:0:0:0:
81,232,51575,2,0,L|115:154,1,60.1999981628419,2|0,0:0|0:0,0:0:0:0:
285,63,51764,2,0,P|230:94|213:165,1,120.399996325684,10|2,0:2|0:0,0:0:0:0:
269,311,52046,1,8,0:2:0:0:
260,303,52141,1,2,1:2:0:0:
466,145,52330,6,0,B|537:131|509:270|387:214,1,193.50000738144,2|0,0:0|0:0,0:0:0:0:
376,223,52707,6,0,P|379:258|397:290,1,55.8999974411012,2|0,0:0|0:0,0:0:0:0:
479,35,52896,6,0,B|397:7|380:136|287:101,1,206.4,2|0,1:2|0:0,0:0:0:0:
151,41,53273,6,0,B|114:120|183:135|245:147|217:229,1,219.300004182816,10|8,0:2|0:2,0:0:0:0:
100,181,53650,6,0,B|107:93|175:115|234:135|256:39,1,232.199992913819,2|0,1:2|0:0,0:0:0:0:
205,0,54028,6,0,P|213:32|236:60,1,60.1999981628419,10|0,0:2|0:0,0:0:0:0:
470,137,54216,5,10,0:2:0:0:
498,155,54311,1,8,0:2:0:0:
512,186,54405,6,0,B|435:237|435:237|342:211,1,180.599994488526,4|0,1:2|0:0,0:0:0:0:
331,205,54782,2,0,P|332:171|371:117,1,60.1999981628419,8|0,0:2|0:0,0:0:0:0:
435,51,54971,6,0,L|400:131,1,55.8999974411012,2|0,0:0|0:2,0:0:0:0:
251,144,55160,2,0,L|229:207,1,55.8999974411012,2|0,1:2|0:0,0:0:0:0:
192,364,55349,6,0,L|162:295,1,55.8999974411012,2|0,0:0|0:0,0:0:0:0:
0,222,55537,2,0,L|24:298,1,55.8999974411012,10|0,0:2|0:0,0:0:0:0:
192,364,55726,6,0,B|158:315|117:357|78:399|33:363,1,167.699992323304,2|0,0:0|0:0,0:0:0:0:
87,281,56103,2,0,L|106:350,1,55.8999974411012,2|0,0:0|0:0,0:0:0:0:
199,235,56292,2,0,L|184:167,1,55.8999974411012,10|0,0:2|0:0,0:0:0:0:
76,54,56481,5,2,0:0:0:0:
76,54,56575,1,8,0:2:0:0:
76,54,56669,2,0,P|208:32|348:45,1,258.000009841919,0|8,1:2|0:2,0:0:0:0:
512,232,57235,6,0,B|562:274|427:319|415:186,1,154.799995275879,2|0,0:0|0:0,0:0:0:0:
428,195,57613,6,0,P|419:230|392:271,1,51.599998425293,2|0,0:0|0:0,0:0:0:0:
300,310,57801,6,0,L|286:212,1,51.599998425293,10|0,0:2|0:0,0:0:0:0:
180,130,57990,2,0,L|192:226,1,51.599998425293,2|0,0:0|0:0,0:0:0:0:
326,325,58179,6,0,L|319:265,1,60.1999981628419,6|0,1:2|0:0,0:0:0:0:
163,113,58367,2,0,L|169:172,1,60.1999981628419,2|0,0:0|0:0,0:0:0:0:
162,324,58556,6,0,L|201:275,1,62.3500019027711,10|0,0:2|0:0,0:0:0:0:
341,98,58745,2,0,L|300:145,1,62.3500019027711,2|0,0:0|0:0,0:0:0:0:
72,260,58933,6,0,L|137:237,1,68.8,6|0,1:2|0:0,0:0:0:0:
444,185,59122,2,0,L|376:199,1,68.8,2|0,1:2|0:0,0:0:0:0:
114,64,59311,6,0,L|180:130,1,68.8,10|0,1:2|0:0,0:0:0:0:
370,375,59499,2,0,L|312:279,1,68.8,6|0,1:2|0:0,0:0:0:0:
263,78,59688,5,8,0:2:0:0:
263,78,59782,1,8,0:2:0:0:
263,78,59877,1,8,0:2:0:0:
263,78,59971,1,8,0:2:0:0:
248,68,60066,5,8,0:2:0:0:
226,101,60160,1,8,0:2:0:0:
276,158,60254,1,8,0:2:0:0:
360,123,60349,1,8,0:2:0:0:
349,12,60443,6,0,L|259:50,1,55.8999974411012,6|0,1:2|0:0,0:0:0:0:
243,216,60632,2,0,L|308:184,1,55.8999974411012,2|0,0:0|0:0,0:0:0:0:
499,129,60820,2,0,P|504:193|441:263,1,111.799994882202,10|2,0:2|0:0,0:0:0:0:
344,327,61103,1,8,0:2:0:0:
354,335,61197,1,2,1:2:0:0:
181,146,61386,6,0,B|116:174|227:263|284:142,1,193.50000738144,2|0,0:0|0:0,0:0:0:0:
300,138,61764,6,0,P|321:189|301:245,1,111.799994882202,2|0,0:0|1:2,0:0:0:0:
85,73,62141,6,0,L|152:79,1,55.8999974411012,2|0,0:0|0:0,0:0:0:0:
228,224,62330,2,0,P|196:220|140:228,1,55.8999974411012,10|0,0:2|0:0,0:0:0:0:
58,328,62518,1,2,0:0:0:0:
66,323,62613,1,8,0:2:0:0:
83,230,62707,6,0,P|94:197|81:230,1,90.2999972442628,2|0,1:2|0:0,0:0:0:0:
13,93,63084,2,0,P|79:64|38:123,1,193.50000738144,10|0,0:2|0:0,0:0:0:0:
247,91,63462,6,0,P|211:83|171:73,1,55.8999974411012,6|0,1:2|0:0,0:0:0:0:
0,38,63650,2,0,L|19:115,1,55.8999974411012,2|0,0:0|0:0,0:0:0:0:
179,235,63839,2,0,P|122:248|59:203,1,111.799994882202,10|2,0:2|0:0,0:0:0:0:
217,169,64122,1,8,0:2:0:0:
226,164,64217,1,0,0:2:0:0:
383,343,64405,6,0,B|425:334|450:282|450:282|439:230|472:184,1,193.50000738144,2|0,0:0|0:0,0:0:0:0:
469,187,64782,2,0,P|478:213|479:241,1,55.8999974411012,2|0,0:0|0:0,0:0:0:0:
304,88,64971,6,0,B|391:71|385:201|471:187,1,206.4,2|0,1:2|0:0,0:0:0:0:
442,85,65349,6,0,B|352:76|381:190|262:170,1,180.599994488526,8|0,0:2|1:2,0:0:0:0:
203,49,65726,6,0,L|147:166,1,68.8,14|0,0:2|0:0,0:0:0:0:
36,165,66009,6,0,L|89:244,1,73.1000013942719,14|0,0:2|0:0,0:0:0:0:
68,374,66292,6,0,L|157:386,1,77.3999976379395,14|0,0:2|0:0,0:0:0:0:
277,324,66481,5,6,1:2:0:0:
285,308,66575,1,8,0:3:0:0:
301,308,66669,1,4,0:3:0:0:
308,320,66764,1,4,0:3:0:0:
308,320,66858,6,0,B|382:305|382:305|388:269|409:240,1,137.6,12|0,1:2|0:0,0:0:0:0:
485,168,67141,1,8,0:2:0:0:
493,178,67235,1,0,1:2:0:0:
391,45,67424,6,0,L|358:113,1,55.8999974411012,2|0,0:0|0:0,0:0:0:0:
235,197,67613,2,0,P|268:194|325:164,1,55.8999974411012,10|0,0:2|0:0,0:0:0:0:
391,45,67801,2,0,P|301:68|176:59,1,180.599994488526,2|0,0:0|0:0,0:0:0:0:
156,13,68179,6,0,P|130:33|95:81,1,55.8999974411012,2|0,0:0|0:0,0:0:0:0:
155,199,68367,2,0,P|148:166|132:138,1,55.8999974411012,10|0,0:2|0:0,0:0:0:0:
40,102,68556,1,2,0:0:0:0:
50,106,68650,1,8,0:2:0:0:
59,112,68745,6,0,P|38:179|66:236,1,111.799994882202,0|0,1:2|0:0,0:0:0:0:
232,308,69122,6,0,L|203:356,1,55.8999974411012,10|0,0:2|0:0,0:0:0:0:
427,253,69311,2,0,L|394:298,1,55.8999974411012,2|0,0:0|0:0,0:0:0:0:
290,128,69499,6,0,P|352:132|418:155,1,120.399996325684,6|0,1:2|1:2,0:0:0:0:
312,55,69877,6,0,P|370:60|423:77,1,111.799994882202,10|0,0:2|0:0,0:0:0:0:
494,142,70160,1,8,0:2:0:0:
498,153,70254,5,2,1:2:0:0:
327,229,70443,1,0,1:2:0:0:
496,190,70632,5,10,0:2:0:0:
406,352,70820,1,0,1:2:0:0:
416,348,70915,1,0,1:2:0:0:
425,347,71009,5,6,1:2:0:0:
232,258,71198,1,10,0:2:0:0:
395,113,71386,1,10,0:2:0:0:
194,16,71575,5,10,0:3:0:0:
201,24,71669,1,8,0:3:0:0:
208,32,71764,1,10,0:3:0:0:
348,222,71952,1,6,0:3:0:0:
95,321,72141,2,0,P|159:376|260:365,1,167.699992323304,10|0,0:2|0:0,0:0:0:0:
273,369,72518,6,0,P|267:317|251:281,1,77.3999976379395,6|0,1:2|0:0,0:0:0:0:
189,163,72896,1,2,0:0:0:0:
298,229,73084,1,2,1:2:0:0:
144,270,73273,2,0,P|102:259|63:161,1,154.799995275879,2|8,1:2|0:2,0:0:0:0:
172,28,73839,6,0,P|224:34|260:50,1,77.3999976379395,10|4,0:3|1:2,0:0:0:0:
381,120,74217,1,0,0:0:0:0:
312,3,74405,1,2,0:0:0:0:
286,118,74594,1,2,1:2:0:0:
396,38,74782,1,2,1:2:0:0:
480,200,74971,1,8,0:2:0:0:
480,200,75160,2,0,L|461:349,1,116.099996456909,8|0,0:2|0:0,0:0:0:0:
460,337,75537,6,0,P|422:350|361:327,1,77.3999976379395,6|2,1:2|0:0,0:0:0:0:
292,257,75915,1,2,0:0:0:0:
159,311,76103,2,0,P|205:357|261:362,1,116.099996456909,0|0,1:2|0:0,0:0:0:0:
283,333,76481,2,0,L|284:389,1,38.6999988189698,2|0,0:0|0:0,0:0:0:0:
209,245,76669,1,10,0:2:0:0:
74,175,76858,2,0,P|117:135|190:131,1,116.099996456909,6|0,1:2|0:0,0:0:0:0:
205,138,77235,5,8,0:2:0:0:
16,44,77424,1,8,0:2:0:0:
142,238,77613,1,8,0:2:0:0:
142,238,77707,1,8,0:2:0:0:
142,238,77801,1,8,0:2:0:0:
225,19,77990,1,8,0:3:0:0:
121,118,78179,5,10,0:2:0:0:
234,279,78367,1,6,0:3:0:0:
457,181,78556,6,0,P|398:185|340:229,1,116.099996456909,6|0,1:2|0:0,0:0:0:0:
335,238,78933,1,10,0:2:0:0:
162,123,79122,6,0,P|221:127|279:171,1,116.099996456909,6|0,1:2|0:0,0:0:0:0:
284,180,79499,1,10,0:2:0:0:
348,323,79688,6,0,P|321:362|288:381,1,77.3999976379395,6|0,1:2|0:0,0:0:0:0:
157,342,80066,5,0,1:2:0:0:
214,277,80254,1,0,1:2:0:0:
72,215,80443,2,0,L|165:205,1,77.3999976379395,10|0,0:2|0:0,0:0:0:0:
248,95,80820,2,0,L|137:111,1,77.3999976379395,10|2,0:2|1:2,0:0:0:0:
126,128,81103,1,0,1:0:0:0:
137,136,81198,5,8,1:2:0:0:
256,226,81386,1,10,1:2:0:0:
336,22,81575,6,0,L|368:151,1,116.099996456909,6|0,1:2|0:0,0:0:0:0:
372,168,81952,1,10,0:2:0:0:
462,358,82141,6,0,L|341:299,1,116.099996456909,6|0,1:2|0:0,0:0:0:0:
329,293,82518,1,10,0:2:0:0:
101,245,82707,6,0,B|156:251|147:213|158:175|221:200,1,116.099996456909,6|0,1:2|0:0,0:0:0:0:
240,195,83084,2,0,L|228:223,2,30.0999990814209,0|8|4,1:2|0:3|0:3,0:0:0:0:
84,360,83462,5,14,0:2:0:0:
66,178,83650,1,0,1:2:0:0:
66,178,83745,1,0,1:2:0:0:
66,178,83839,6,0,P|63:136|98:85,1,77.3999976379395,14|0,1:2|0:0,0:0:0:0:
100,84,84122,2,0,P|132:112|183:115,1,77.3999976379395,14|0,1:2|0:0,0:0:0:0:
207,111,84405,1,14,1:2:0:0:
378,47,84594,6,0,P|394:120|424:214,1,154.799995275879,6|8,1:2|0:2,0:0:0:0:
504,356,85160,1,8,0:3:0:0:
504,356,85254,1,8,0:3:0:0:
504,356,85349,1,0,1:2:0:0:
345,236,85537,1,6,0:3:0:0:
496,141,85726,1,10,0:3:0:0:
397,297,85915,6,0,B|398:314|357:347|341:327|326:311|274:334|276:366,1,154.799995275879,6|0,1:2|1:2,0:0:0:0:
482,369,86481,2,0,L|462:330,1,38.6999988189698,0|0,1:2|0:0,0:0:0:0:
355,142,86669,2,0,L|339:198,1,38.6999988189698,0|0,1:2|0:0,0:0:0:0:
208,342,86858,5,8,0:2:0:0:
208,342,86952,1,8,0:2:0:0:
208,342,87047,1,8,0:2:0:0:
208,342,87141,1,8,0:2:0:0:
190,346,87236,5,8,0:0:0:0:
200,383,87330,1,8,0:0:0:0:
277,382,87424,1,8,0:2:0:0:
304,296,87519,1,8,0:0:0:0:
222,216,87613,6,0,P|98:235|100:322,1,180.599994488526,6|0,1:2|0:0,0:0:0:0:
86,304,87990,1,10,0:2:0:0:
297,168,88179,6,0,P|252:135|177:107,1,111.799994882202,2|0,1:2|0:0,0:0:0:0:
325,94,88556,6,0,P|284:68|233:47,1,86,2|8,1:2|0:2,0:0:0:0:
0,98,88933,6,0,B|-15:154|123:129|81:27,1,180.599994488526,6|0,1:2|0:0,0:0:0:0:
50,16,89311,6,0,L|86:88,1,51.599998425293,2|0,1:2|0:0,0:0:0:0:
206,138,89499,2,0,L|173:82,1,43,10|0,0:2|0:0,0:0:0:0:
90,300,89688,6,0,P|161:354|131:269,1,240.799992651367,2|0,1:2|1:2,0:0:0:0:
40,211,90254,1,8,0:2:0:0:
227,293,90443,1,10,0:2:0:0:
226,325,90538,1,0,0:0:0:0:
219,353,90632,6,0,L|309:305,1,60.1999981628419,6|0,1:2|0:0,0:0:0:0:
328,204,90821,2,0,L|320:277,1,51.599998425293,2|0,0:2|0:0,0:0:0:0:
390,359,91009,2,0,L|343:320,1,43,10|0,0:2|0:0,0:0:0:0:
222,229,91198,6,0,B|298:328|379:179|304:215,1,180.599994488526,6|0,1:2|0:0,0:0:0:0:
222,229,91575,6,0,B|160:120|335:98|263:161,1,180.599994488526,6|0,1:2|0:0,0:0:0:0:
197,233,91952,5,6,1:2:0:0:
352,72,92330,1,0,1:2:0:0:
352,72,92424,1,0,1:2:0:0:
352,72,92518,6,0,B|260:180|166:100|202:15|274:36,1,232.199992913819,6|0,1:2|1:2,0:0:0:0:
268,32,92896,6,0,L|256:106,1,55.8999974411012,14|0,1:2|0:0,0:0:0:0:
111,166,93179,6,0,L|106:242,1,55.8999974411012,14|0,1:2|0:0,0:0:0:0:
317,308,93462,6,0,L|316:375,1,55.8999974411012,14|0,1:2|0:0,0:0:0:0:
475,183,93650,6,0,P|422:156|323:159,1,111.799994882202,6|0,1:2|1:2,0:0:0:0:
161,280,94028,1,8,0:2:0:0:
265,76,94216,1,8,0:3:0:0:
272,102,94311,1,8,0:3:0:0:
294,84,94405,1,8,0:3:0:0:
413,272,94594,5,10,0:3:0:0:
193,83,94782,1,6,0:3:0:0:
272,384,94971,1,6,1:2:0:0:
256,192,95066,12,0,96669,0:0:0:0:
