osu file format v14

[General]
AudioFilename: audio.mp3
AudioLeadIn: 0
PreviewTime: 51918
Countdown: 0
SampleSet: Soft
StackLeniency: 0.7
Mode: 0
LetterboxInBreaks: 0
WidescreenStoryboard: 1

[Editor]
DistanceSpacing: 1.7
BeatDivisor: 4
GridSize: 16
TimelineZoom: 1

[Metadata]
Title:Yume Kataru yori Yume Utaou
TitleUnicode:夢語るよりユメを歌おう
Artist:Aqours
ArtistUnicode:Aqours
Creator:Mrgglock
Version:Normal [WIP, not ready for mod yet]
Source:ラブライブ!サンシャイン!!
Tags:ラブライブ!サンシャイン!! Ending TV Size school idol project Kawaiwkyik Rizia Takami Chika 高海千歌 Inami Anju 伊波杏樹 Sakurauchi Riko 桜内梨子 Aida Rikako 逢田梨香子 Matsuura Kanan 松浦果南 Suwa Nanaka 諏訪ななか Kurosawa Dia 黒澤ダイヤ Komiya Arisa 小宮有紗 Watanabe You 渡辺 曜 Saito Shuka 斉藤朱夏 Tsushima Yoshiko 津島善子 Kobayashi Aika 小林愛香 Kunikida Hanamaru 国木田花丸 Takatsuki Kanako 高槻かなこ Ohara Mari 小原鞠莉 Suzuki Aina 鈴木愛奈 Kurosawa Ruby 黒澤ルビィ Furihata Ai 降幡 愛
BeatmapID:2038316
BeatmapSetID:973673

[Difficulty]
HPDrainRate:3
CircleSize:3
OverallDifficulty:3
ApproachRate:4
SliderMultiplier:1.2
SliderTickRate:1

[Events]
//Background and Video events
0,0,"love live.jpg",0,0
//Break Periods
//Storyboard Layer 0 (Background)
//Storyboard Layer 1 (Fail)
//Storyboard Layer 2 (Pass)
//Storyboard Layer 3 (Foreground)
//Storyboard Sound Samples

[TimingPoints]
13030,377.358490566038,4,2,0,50,1,0
51920,-100,4,1,0,50,0,1
76071,-100,4,2,0,50,0,0

[HitObjects]
151,159,13030,6,0,B|191:95|271:97,1,120,0|8,0:0|0:0,0:0:0:0:
340,98,13596,2,0,B|410:143|349:262,1,180,0|8,0:0|0:0,0:0:0:0:
284,345,14351,2,0,B|186:355|177:219,1,180,0|8,0:0|0:0,0:0:0:0:
189,127,15105,2,0,B|229:63|340:36,1,180,0|8,0:0|0:0,0:0:0:0:
432,32,15860,5,0,0:0:0:0:
435,104,16049,2,0,L|435:237,1,120,0|8,0:0|0:0,0:0:0:0:
431,309,16615,2,0,B|413:354|413:355|413:355|319:354,1,120
256,352,17181,2,0,P|216:341|185:305,1,60,8|0,0:0|0:0,0:0:0:0:
256,80,17747,1,0,0:0:0:0:
256,144,18124,2,0,L|256:354,1,180,0|8,0:0|0:0,0:0:0:0:
351,200,19068,5,0,0:0:0:0:
352,80,19445,1,8,0:0:0:0:
276,90,19634,2,0,P|310:17|403:21,1,180,0|8,0:0|0:0,0:0:0:0:
480,48,20388,2,0,P|497:127|418:202,1,180,0|8,0:0|0:0,0:0:0:0:
320,272,21143,2,0,P|199:201|224:147,1,180,0|8,0:0|0:0,0:0:0:0:
176,80,22086,6,0,B|100:126|100:126|97:198,1,120,0|8,0:0|0:0,0:0:0:0:
98,249,22653,1,0,0:0:0:0:
223,380,23030,1,0,0:0:0:0:
256,201,23407,1,0,0:0:0:0:
432,224,23785,5,0,0:0:0:0:
384,160,23973,2,0,B|251:270|236:61|236:61|132:150|112:80,1,360,8|0,0:0|0:0,0:0:0:0:
26,276,25483,6,10,P|32:372|92:402,1,120,8|8,0:0|0:0,0:0:0:0:
118,313,26049,2,0,L|183:313,1,60,0|8,0:0|0:0,0:0:0:0:
249,239,26426,2,2,P|300:308|220:395,1,180,2|10,0:0|0:0,0:0:0:0:
423,260,27369,6,2,L|381:213,1,60
366,316,27747,2,2,L|324:269,1,60,10|2,0:0|0:0,0:0:0:0:
111,162,28502,5,10,0:0:0:0:
290,65,28879,1,2,0:0:0:0:
245,228,29445,6,2,P|222:301|276:365,1,120
320,277,30011,1,10,0:0:0:0:
430,105,30388,1,2,0:0:0:0:
237,36,30766,2,2,P|169:44|136:125,1,120,10|2,0:0|0:0,0:0:0:0:
480,217,31520,6,2,P|493:292|430:349,1,120,10|2,0:0|0:0,0:0:0:0:
358,220,32275,1,10,0:0:0:0:
293,267,32464,2,2,P|285:189|402:153,1,180,2|10,0:0|0:0,0:0:0:0:
480,32,33407,6,2,L|438:79,1,60
399,30,33785,2,2,L|357:77,1,60,10|2,0:0|0:0,0:0:0:0:
166,191,34539,6,2,L|233:135,1,60,10|2,0:0|0:0,0:0:0:0:
272,120,34916,2,2,P|317:184|273:261,1,120,2|10,0:0|0:0,0:0:0:0:
287,295,35483,6,2,L|169:218,1,120
175,168,36049,2,2,L|132:127,1,60,2|10,0:0|0:0,0:0:0:0:
104,95,36426,1,2,0:0:0:0:
113,22,36803,2,2,P|33:75|41:133,1,120,10|2,0:0|0:0,0:0:0:0:
31,246,37558,6,2,P|141:201|149:183,2,120,10|2|10,0:0|0:0|0:0,0:0:0:0:
60,158,38691,1,2,0:0:0:0:
152,32,39068,1,10,0:0:0:0:
229,29,39256,2,2,P|317:83|286:170,1,180,2|10,0:0|0:0,0:0:0:0:
224,272,40200,6,2,L|266:225,1,60
320,176,40578,2,2,P|296:136|276:128,1,60,10|2,0:0|0:0,0:0:0:0:
147,182,41143,2,2,L|106:225,1,60,2|10,0:0|0:0,0:0:0:0:
29,210,41520,2,2,P|82:299|170:269,1,180,6|14,0:0|0:0,0:0:0:0:
256,84,42653,5,2,0:0:0:0:
340,84,42842,2,2,P|376:106|395:159,1,60,10|2,0:0|0:0,0:0:0:0:
300,250,43407,5,2,0:0:0:0:
216,250,43596,2,2,P|180:228|161:175,1,60,10|2,0:0|0:0,0:0:0:0:
93,77,44162,5,2,0:0:0:0:
171,80,44351,2,2,P|209:99|232:151,1,60,10|2,0:0|0:0,0:0:0:0:
69,153,44917,5,2,0:0:0:0:
146,159,45106,2,2,P|182:181|201:234,1,60,10|2,0:0|0:0,0:0:0:0:
357,258,45860,6,2,P|377:295|415:308,1,60,10|2,0:0|0:0,0:0:0:0:
434,270,46237,2,2,P|414:200|356:179,1,120,2|10,0:0|0:0,0:0:0:0:
234,32,46992,2,2,P|186:66|176:124,1,120,2|10,0:0|0:0,0:0:0:0:
55,285,47747,6,2,P|62:338|138:379,1,120,2|10,0:0|0:0,0:0:0:0:
326,207,48502,2,0,L|232:310,1,120,0|8,0:0|0:0,0:0:0:0:
113,378,49256,5,2,0:0:0:0:
63,229,49634,2,2,P|54:174|89:156,1,60
141,45,50200,1,2,0:0:0:0:
235,169,50577,2,6,B|305:27|305:27|389:108|373:199|373:199|310:173|306:131,1,420,6|14,0:0|0:0,0:0:0:0:
187,75,52275,6,2,L|187:137,1,60
188,213,52653,2,2,L|188:275,1,60,10|2,0:0|0:0,0:0:0:0:
192,352,53030,2,2,P|253:357|277:306,1,120,2|10,0:0|0:0,0:0:0:0:
264,233,53596,6,6,P|325:247|356:310,1,120
368,368,54162,2,2,L|395:305,1,60,10|2,0:0|0:0,0:0:0:0:
412,240,54539,2,6,P|354:177|269:163,1,120,6|14,0:0|0:0,0:0:0:0:
167,171,55294,6,2,L|197:222,1,60
249,281,55672,2,2,L|218:332,1,60,10|2,0:0|0:0,0:0:0:0:
143,354,56049,2,2,P|86:350|67:297,1,120,2|10,2:0|0:0,0:0:0:0:
82,220,56615,6,6,P|132:184|161:183,1,60
202,145,57181,1,10,0:0:0:0:
108,19,57558,1,2,0:0:0:0:
247,88,57936,2,6,B|275:55|467:42|472:171,1,240,14|14,0:0|0:0,0:0:0:0:
444,238,58879,6,2,L|392:203,1,60
319,181,59257,2,2,P|296:210|319:243,1,60,2|10,0:0|0:0,0:0:0:0:
355,288,59634,1,2,0:0:0:0:
199,293,60011,2,2,L|136:292,1,60
63,273,60388,2,2,P|10:207|60:141,1,180,10|10,0:0|0:0,0:0:0:0:
138,140,61143,5,2,0:0:0:0:
267,137,61520,2,2,P|270:107|282:80,2,60,2|10|2,0:0|0:0|0:0,0:0:0:0:
331,209,62086,2,2,P|392:249|379:296,1,120,2|10,0:0|0:0,0:0:0:0:
341,322,62653,2,2,P|317:338|219:257,1,180,2|10,0:0|0:0,0:0:0:0:
168,129,63407,2,0,P|88:188|108:283,1,180,0|8,0:0|0:0,0:0:0:0:
210,312,64351,6,2,L|150:312,2,60,2|2|10,0:0|0:0|0:0,0:0:0:0:
288,312,64917,2,2,P|331:322|383:312,1,60,10|2,0:0|0:0,0:0:0:0:
403,255,65294,2,2,P|356:212|348:185,1,60,2|10,0:0|0:0,0:0:0:0:
327,144,65671,6,6,P|276:109|205:130,1,120
260,183,66237,2,10,L|231:249,1,60
206,310,66614,2,6,P|159:232|197:169,1,120,6|14,0:0|0:0,0:0:0:0:
164,64,67369,6,2,L|104:64,2,60,2|2|10,0:0|0:0|0:0,0:0:0:0:
198,134,67936,2,2,P|237:101|245:62,1,60
303,48,68313,2,2,P|335:60|359:84,1,60,2|10,0:0|0:0,0:0:0:0:
421,115,68690,6,6,B|391:169|300:157|264:245,1,180,6|14,0:0|0:0,0:0:0:0:
202,352,69633,1,2,0:0:0:0:
154,244,69917,1,2,0:0:0:0:
252,181,70200,1,2,0:0:0:0:
273,260,70388,2,6,P|323:148|204:117,1,240
91,55,71520,5,10,0:0:0:0:
96,132,71709,2,6,B|-38:156|4:276|182:283,1,300
302,365,73030,5,10,0:0:0:0:
221,367,73219,2,2,P|235:320|254:298,1,60
344,135,73785,1,10,0:0:0:0:
174,21,74162,2,6,P|232:25|274:66,1,120,6|14,0:0|0:0,0:0:0:0:
299,225,74917,6,0,L|265:278,2,60,0|0|8,0:0|0:0|0:0,0:0:0:0:
248,166,75483,2,6,P|293:146|369:256,1,180,6|14,0:0|0:0,0:0:0:0:
272,368,76426,6,2,L|325:323,1,70
377,283,76803,2,2,P|371:231|323:237,1,60
299,195,77181,1,2,0:0:0:0:
104,155,77653,6,2,P|43:175|18:242,1,120
120,230,78219,1,0,0:0:0:0:
259,378,78596,2,6,P|333:344|335:262,1,150,6|14,0:0|0:0,0:0:0:0:
112,144,79445,6,2,P|147:130|174:144,1,60
250,143,79823,2,2,L|312:143,1,60,10|2,0:0|0:0,0:0:0:0:
419,328,80388,6,2,P|421:291|391:276,1,60,0|8,0:0|0:0,0:0:0:0:
299,322,80766,2,6,P|179:304|270:221,1,300
383,209,82086,6,2,L|361:90,1,120,10|2,0:0|0:0,0:0:0:0:
207,115,82841,2,2,L|100:138,1,60,10|2,0:0|0:0,0:0:0:0:
166,275,83407,2,2,L|225:263,1,60,2|10,0:0|0:0,0:0:0:0:
400,144,84351,5,14,0:0:0:0:
181,217,84728,2,6,P|198:183|222:163,1,60
282,131,85105,6,0,P|323:116|352:131,1,60,8|0,0:0|0:0,0:0:0:0:
367,192,85483,2,2,P|357:266|312:338,1,120,2|10,0:0|0:0,0:0:0:0:
301,375,86049,1,2,0:0:0:0:
171,288,86426,1,2,0:0:0:0:
106,341,86615,2,6,P|125:218|244:250,1,240,14|14,0:0|0:0,0:0:0:0:
280,348,87747,5,2,0:0:0:0:
332,243,88030,1,2,0:0:0:0:
264,147,88313,1,2,0:0:0:0:
333,183,88502,2,2,P|404:114|294:22,1,240,10|10,0:0|0:0,0:0:0:0:
322,102,89445,6,2,L|221:102,1,60
183,102,89822,2,6,B|319:175|-99:243|347:366,1,420,6|14,0:0|0:0,0:0:0:0:
341,205,91520,6,2,L|426:90,1,120,2|10,0:0|0:0,0:0:0:0:
490,132,92086,2,2,P|464:43|355:51,1,180,2|10,0:0|0:0,0:0:0:0:
312,53,92841,2,2,P|255:90|248:156,1,120
323,131,93407,1,10,0:0:0:0:
401,134,93596,2,2,P|412:226|401:371,1,180,2|10,0:0|0:0,0:0:0:0:
357,370,94351,6,4,P|326:360|322:320,1,60
299,180,94917,2,2,P|284:145|244:127,1,60,2|10,0:0|0:0,0:0:0:0:
110,127,95483,1,4,0:0:0:0:
152,276,95860,1,4,0:0:0:0:
256,48,96426,2,4,L|256:224,1,150,12|4,0:0|0:0,0:0:0:0:
256,270,97180,5,0,0:0:0:0:
378,178,97463,1,0,0:0:0:0:
439,225,97652,6,8,P|457:260|441:280,1,60
346,287,98030,2,8,P|328:252|298:236,1,60
220,193,98407,2,8,P|211:165|229:143,1,60
323,102,98784,2,8,P|360:101|375:117,1,60
256,192,99162,12,0,100577,0:0:0:0:
