osu file format v14

[General]
AudioFilename: audio.mp3
AudioLeadIn: 0
PreviewTime: 51918
Countdown: 0
SampleSet: Soft
StackLeniency: 0.7
Mode: 0
LetterboxInBreaks: 0
WidescreenStoryboard: 1

[Editor]
DistanceSpacing: 2
BeatDivisor: 4
GridSize: 16
TimelineZoom: 1

[Metadata]
Title:Yume Kataru yori Yume Utaou
TitleUnicode:夢語るよりユメを歌おう
Artist:Aqours
ArtistUnicode:Aqours
Creator:Mrgglock
Version:Insane [WIP, not ready for mod yet]
Source:ラブライブ!サンシャイン!!
Tags:ラブライブ!サンシャイン!! Ending TV Size school idol project Kawaiwkyik Rizia Takami Chika 高海千歌 Inami Anju 伊波杏樹 Sakurauchi Riko 桜内梨子 Aida Rikako 逢田梨香子 Matsuura Kanan 松浦果南 Suwa Nanaka 諏訪ななか Kurosawa Dia 黒澤ダイヤ Komiya Arisa 小宮有紗 Watanabe You 渡辺 曜 Saito Shuka 斉藤朱夏 Tsushima Yoshiko 津島善子 Kobayashi Aika 小林愛香 Kunikida Hanamaru 国木田花丸 Takatsuki Kanako 高槻かなこ Ohara Mari 小原鞠莉 Suzuki Aina 鈴木愛奈 Kurosawa Ruby 黒澤ルビィ Furihata Ai 降幡 愛
BeatmapID:2038315
BeatmapSetID:973673

[Difficulty]
HPDrainRate:5
CircleSize:4.2
OverallDifficulty:9
ApproachRate:9.2
SliderMultiplier:1.4
SliderTickRate:1

[Events]
//Background and Video events
0,0,"love live.jpg",0,0
//Break Periods
//Storyboard Layer 0 (Background)
//Storyboard Layer 1 (Fail)
//Storyboard Layer 2 (Pass)
//Storyboard Layer 3 (Foreground)
//Storyboard Sound Samples

[TimingPoints]
13030,377.358490566038,4,2,0,50,1,0
51920,-100,4,1,0,50,0,1
76071,-100,4,2,0,50,0,0

[HitObjects]
151,159,13030,6,0,B|191:95|191:95|262:96,1,140,0|8,0:0|0:0,0:0:0:0:
251,222,13596,2,0,B|234:148|234:148|284:98,1,140,0|8,0:0|0:0,0:0:0:0:
431,145,14162,1,8,0:0:0:0:
431,145,14351,2,0,B|391:209|391:209|319:208,1,140
255,95,14917,1,8,0:0:0:0:
431,145,15105,2,0,B|391:209|391:209|319:208,1,140
326,208,15671,1,8,0:0:0:0:
256,95,15860,6,0,L|256:133,2,35
175,226,16237,1,0,0:0:0:0:
326,208,16426,1,8,0:0:0:0:
130,288,16615,2,0,B|148:243|148:242|148:242|242:243,1,140
326,208,17181,1,8,0:0:0:0:
178,223,17369,1,0,0:0:0:0:
256,94,17747,1,0,0:0:0:0:
256,304,18124,2,0,L|256:63,1,210,0|8,0:0|0:0,0:0:0:0:
325,304,18879,6,0,L|325:265,2,35
254,96,19445,1,8,0:0:0:0:
176,103,19634,2,0,P|210:30|292:26,1,140
235,178,20200,1,8,0:0:0:0:
235,178,20388,2,0,P|234:97|307:59,1,140
97,176,20954,1,8,0:0:0:0:
256,94,21143,2,0,L|256:304,1,210,0|8,0:0|0:0,0:0:0:0:
191,192,21898,5,0,0:0:0:0:
191,192,21992,1,0,0:0:0:0:
191,192,22086,2,0,B|239:118|239:118|311:118,1,140,0|8,0:0|0:0,0:0:0:0:
385,127,22653,1,0,0:0:0:0:
320,289,23030,1,0,0:0:0:0:
191,192,23407,1,0,0:0:0:0:
290,118,23785,5,0,0:0:0:0:
290,118,23879,1,0,0:0:0:0:
290,118,23973,2,0,B|226:81|169:128|169:129|169:129|119:59|41:89|53:176|141:282,1,420,8|0,0:0|0:0,0:0:0:0:
249,158,25483,6,10,P|346:158|380:216,1,140,8|8,0:0|0:0,0:0:0:0:
298,224,26049,1,2,0:0:0:0:
204,327,26237,1,10,0:0:0:0:
119,214,26426,2,2,P|80:135|174:63,1,210,2|10,0:0|0:0,0:0:0:0:
166,61,27369,5,2,0:0:0:0:
260,164,27558,1,2,0:0:0:0:
330,42,27747,1,10,0:0:0:0:
420,147,27935,1,2,0:0:0:0:
218,141,28502,6,2,L|221:224,1,70,10|2,0:0|0:0,0:0:0:0:
378,124,28879,2,2,L|384:264,1,140,2|10,0:0|0:0,0:0:0:0:
134,270,29445,6,2,P|83:213|107:132,1,140
160,193,30011,1,10,0:0:0:0:
265,100,30200,1,2,0:0:0:0:
316,229,30388,1,2,0:0:0:0:
316,229,30766,2,2,P|372:190|361:102,1,140,10|2,0:0|0:0,0:0:0:0:
134,270,31520,6,2,P|83:213|107:132,1,140,10|2,0:0|0:0,0:0:0:0:
160,193,32086,1,2,0:0:0:0:
265,100,32275,1,10,0:0:0:0:
288,177,32464,2,2,P|343:120|273:20,1,210,2|10,0:0|0:0,0:0:0:0:
265,100,33407,5,2,0:0:0:0:
151,180,33596,1,2,0:0:0:0:
263,265,33785,1,10,0:0:0:0:
148,341,33973,1,2,0:0:0:0:
304,79,34539,6,2,L|304:173,1,70,10|2,0:0|0:0,0:0:0:0:
150,44,34916,2,2,L|151:185,1,140,2|10,0:0|0:0,0:0:0:0:
301,178,35483,6,2,L|182:261,1,140
180,117,36049,1,10,0:0:0:0:
301,178,36237,1,2,0:0:0:0:
186,258,36426,1,2,0:0:0:0:
191,333,36803,2,2,P|111:280|119:222,1,140,10|2,0:0|0:0,0:0:0:0:
158,210,37558,6,2,P|203:100|221:92,2,140,10|2|10,0:0|0:0|0:0,0:0:0:0:
256,160,38691,1,2,0:0:0:0:
58,357,39068,1,10,0:0:0:0:
213,94,39256,2,2,P|316:110|321:202,1,210,2|10,0:0|0:0,0:0:0:0:
51,125,40200,5,2,0:0:0:0:
52,245,40388,1,2,0:0:0:0:
142,167,40577,1,10,0:0:0:0:
214,287,40766,1,2,0:0:0:0:
451,139,41143,1,2,0:0:0:0:
356,257,41332,1,10,0:0:0:0:
493,74,41520,2,2,P|390:90|385:182,1,210,6|14,0:0|0:0,0:0:0:0:
113,177,42653,5,2,0:0:0:0:
77,113,42842,2,2,P|119:104|169:131,1,70,10|2,0:0|0:0,0:0:0:0:
289,150,43407,5,2,0:0:0:0:
410,223,43596,1,10,0:0:0:0:
413,84,43785,1,2,0:0:0:0:
410,223,44162,5,2,0:0:0:0:
446,287,44351,2,2,P|404:296|354:269,1,70,10|2,0:0|0:0,0:0:0:0:
234,250,44917,5,2,0:0:0:0:
113,177,45106,1,10,0:0:0:0:
110,316,45295,1,2,0:0:0:0:
166,249,45483,6,4,L|167:287,3,35
95,272,45860,6,2,L|83:344,1,70,10|2,0:0|0:0,0:0:0:0:
18,284,46237,2,2,P|38:214|96:193,1,140,2|10,0:0|0:0,0:0:0:0:
290,193,46803,5,2,0:0:0:0:
211,208,46992,2,2,P|218:155|294:114,1,140,2|10,0:0|0:0,0:0:0:0:
290,193,47558,5,2,0:0:0:0:
369,178,47747,2,2,P|362:231|286:272,1,140,2|10,0:0|0:0,0:0:0:0:
211,208,48313,5,2,0:0:0:0:
211,208,48502,2,0,L|72:220,1,140,0|8,0:0|0:0,0:0:0:0:
290,193,49256,5,2,0:0:0:0:
64,269,49634,1,2,0:0:0:0:
142,357,49822,1,2,0:0:0:0:
188,123,50200,1,2,0:0:0:0:
275,310,50577,2,6,B|356:136|356:136|430:324|429:324|429:324|327:251,1,490,6|14,0:0|0:0,0:0:0:0:
126,153,52276,5,2,0:0:0:0:
276,61,52464,1,2,0:0:0:0:
220,227,52653,1,10,0:0:0:0:
145,69,52841,1,2,0:0:0:0:
98,238,53030,1,2,0:0:0:0:
239,153,53219,2,2,P|243:92|262:62,1,70,2|10,0:0|0:0,0:0:0:0:
343,72,53596,6,6,P|308:123|330:195,1,140
367,145,54162,1,10,0:0:0:0:
244,270,54351,1,2,0:0:0:0:
414,224,54539,2,6,P|459:145|429:78,1,140,6|14,0:0|0:0,0:0:0:0:
386,231,55294,5,2,0:0:0:0:
236,323,55482,1,2,0:0:0:0:
292,157,55671,1,10,0:0:0:0:
367,315,55859,1,2,0:0:0:0:
414,146,56048,1,2,0:0:0:0:
284,223,56237,2,2,P|287:270|265:318,1,70,2|10,0:0|0:0,0:0:0:0:
185,306,56615,6,6,P|220:255|219:221,1,70
145,239,57181,1,10,0:0:0:0:
387,83,57558,1,2,0:0:0:0:
407,5,57936,2,6,P|444:27|338:147,1,280,14|14,0:0|0:0,0:0:0:0:
110,196,58880,5,2,0:0:0:0:
214,52,59068,1,2,0:0:0:0:
271,216,59256,1,2,0:0:0:0:
129,112,59445,1,10,0:0:0:0:
89,282,59634,1,2,0:0:0:0:
368,193,60011,5,2,0:0:0:0:
359,270,60200,2,2,P|423:248|339:122,1,280,10|10,0:0|0:0,0:0:0:0:
96,80,61143,5,2,0:0:0:0:
315,351,61520,1,2,0:0:0:0:
402,198,61709,1,10,0:0:0:0:
235,251,61898,1,2,0:0:0:0:
401,304,62087,5,2,0:0:0:0:
304,158,62275,1,2,0:0:0:0:
477,135,62464,1,10,0:0:0:0:
361,3,62653,1,2,0:0:0:0:
358,178,62842,5,2,0:0:0:0:
215,76,63031,1,2,0:0:0:0:
246,247,63219,1,10,0:0:0:0:
239,340,63407,2,0,P|161:286|189:175,1,210,0|8,0:0|0:0,0:0:0:0:
386,153,64351,5,2,0:0:0:0:
236,61,64539,1,2,0:0:0:0:
292,227,64728,1,10,0:0:0:0:
367,69,64916,1,2,0:0:0:0:
414,238,65105,1,2,0:0:0:0:
267,150,65294,2,2,P|220:193|213:220,1,70,2|10,0:0|0:0,0:0:0:0:
185,78,65671,6,6,P|220:129|198:201,1,140
145,145,66237,1,10,0:0:0:0:
268,270,66426,1,2,0:0:0:0:
98,224,66614,2,6,P|53:145|83:78,1,140,6|14,0:0|0:0,0:0:0:0:
126,231,67369,5,2,0:0:0:0:
276,323,67557,1,2,0:0:0:0:
221,156,67746,1,10,0:0:0:0:
136,308,67936,1,2,0:0:0:0:
98,146,68123,1,2,0:0:0:0:
226,248,68313,2,2,P|237:280|261:305,1,70,2|10,0:0|0:0,0:0:0:0:
336,304,68690,5,6,0:0:0:0:
329,214,68879,2,6,B|294:163|353:108|311:57,1,140,6|14,0:0|0:0,0:0:0:0:
129,82,69633,1,2,0:0:0:0:
187,338,69917,1,2,0:0:0:0:
328,118,70200,1,2,0:0:0:0:
107,352,70388,2,6,P|167:259|266:354,1,280
186,340,71520,5,10,0:0:0:0:
186,340,71709,2,6,P|161:205|334:120,1,350
275,182,73030,5,10,0:0:0:0:
141,223,73218,1,2,0:0:0:0:
75,98,73407,1,2,0:0:0:0:
275,182,73785,1,10,0:0:0:0:
261,260,74162,2,6,P|325:239|353:177,1,140,6|14,0:0|0:0,0:0:0:0:
275,182,74917,1,2,0:0:0:0:
184,32,75105,1,2,0:0:0:0:
346,98,75294,1,10,0:0:0:0:
197,186,75483,2,6,P|211:139|346:150,1,210,6|14,0:0|0:0,0:0:0:0:
184,208,76426,6,2,L|182:119,1,70
182,31,76803,1,2,0:0:0:0:
296,111,76992,1,2,0:0:0:0:
184,208,77181,1,2,0:0:0:0:
258,289,77746,6,2,P|322:296|370:245,1,140
296,222,78313,1,0,0:0:0:0:
333,155,78690,2,6,P|251:156|222:226,1,140,6|14,0:0|0:0,0:0:0:0:
415,224,79445,5,2,0:0:0:0:
331,86,79634,1,2,0:0:0:0:
251,225,79822,1,10,0:0:0:0:
415,224,80011,1,2,0:0:0:0:
222,44,80388,5,2,0:0:0:0:
144,161,80577,1,10,0:0:0:0:
74,193,80766,2,6,P|76:125|159:237,1,350
115,298,82086,6,2,L|144:157,1,140,10|2,0:0|0:0,0:0:0:0:
138,38,82841,1,10,0:0:0:0:
162,190,83030,1,2,0:0:0:0:
374,38,83407,1,2,0:0:0:0:
350,190,83596,1,10,0:0:0:0:
96,304,84351,5,14,0:0:0:0:
256,128,84728,1,6,0:0:0:0:
256,192,84916,1,6,0:0:0:0:
256,256,85105,5,10,0:0:0:0:
144,85,85294,1,2,0:0:0:0:
296,59,85482,1,2,0:0:0:0:
138,346,85860,1,10,0:0:0:0:
162,194,86049,1,2,0:0:0:0:
374,346,86426,1,2,0:0:0:0:
351,192,86615,2,6,P|280:123|392:32,1,280,14|14,0:0|0:0,0:0:0:0:
355,109,87747,5,2,0:0:0:0:
124,111,88030,1,2,0:0:0:0:
256,384,88313,1,2,0:0:0:0:
135,192,88502,2,2,P|206:123|95:31,1,280,10|10,0:0|0:0,0:0:0:0:
124,111,89445,5,2,0:0:0:0:
355,109,89634,1,2,0:0:0:0:
256,384,89822,2,6,P|192:272|283:81,1,350
278,84,90860,2,8,L|291:121,7,35
124,111,91898,5,10,0:0:0:0:
49,138,92086,2,2,P|75:49|183:56,1,210,2|10,0:0|0:0,0:0:0:0:
399,33,92841,2,2,P|456:70|463:138,1,140
388,111,93407,1,10,0:0:0:0:
256,2,93596,2,2,L|256:240,1,210,2|10,0:0|0:0,0:0:0:0:
399,194,94351,6,4,L|379:225,2,35
218,338,94917,1,12,0:0:0:0:
163,194,95105,1,4,0:0:0:0:
163,122,95483,1,4,0:0:0:0:
240,48,95860,1,4,0:0:0:0:
240,48,96237,1,8,0:0:0:0:
240,48,96331,1,8,0:0:0:0:
240,48,96426,2,4,L|240:224,1,175,12|4,0:0|0:0,0:0:0:0:
215,338,97180,5,4,0:0:0:0:
318,194,97463,1,4,0:0:0:0:
181,163,97652,1,0,0:0:0:0:
304,79,97841,1,0,0:0:0:0:
354,209,98030,1,0,0:0:0:0:
445,81,98218,1,0,0:0:0:0:
320,145,98407,1,0,0:0:0:0:
435,239,98596,1,0,0:0:0:0:
337,342,98784,1,0,0:0:0:0:
256,224,98973,2,12,B|224:140|144:160|102:39|204:-10|256:68|256:68|304:-10|404:39|365:160|284:139|256:224,1,595,0|0,0:0|0:0,0:0:0:0:
