osu file format v14

[General]
AudioFilename: audio.mp3
AudioLeadIn: 0
PreviewTime: 53527
Countdown: 0
SampleSet: Soft
StackLeniency: 0.7
Mode: 3
LetterboxInBreaks: 0
SpecialStyle: 0
WidescreenStoryboard: 0

[Editor]
DistanceSpacing: 2.1
BeatDivisor: 4
GridSize: 8
TimelineZoom: 1.9

[Metadata]
Title:Yuki wa Doko ni? Kimi no Mune ni!
TitleUnicode:勇気はどこに?君の胸に!
Artist:Aqours
ArtistUnicode:Aqours
Creator:arcwinolivirus
Version:4K Expert
Source:ラブライブ!サンシャイン!!
Tags:Love Live! Sunshine!! 2 school idol project Where Can You Find Courage? Inside Your Heart!
BeatmapID:1442904
BeatmapSetID:682351

[Difficulty]
HPDrainRate:8
CircleSize:4
OverallDifficulty:8
ApproachRate:5
SliderMultiplier:1.4
SliderTickRate:1

[Events]
//Background and Video events
0,0,"lovelive yuuki.jpg",0,0
//Break Periods
//Storyboard Layer 0 (Background)
//Storyboard Layer 1 (Fail)
//Storyboard Layer 2 (Pass)
//Storyboard Layer 3 (Foreground)
//Storyboard Sound Samples

[TimingPoints]
354,359.281437125748,4,2,1,80,1,0
53527,-100,4,2,1,80,0,1
59276,-100,4,2,1,80,0,0
65024,-100,4,2,1,80,0,1
70773,-100,4,2,1,80,0,0
76521,-100,4,2,1,80,0,1
82270,-100,4,2,1,80,0,0
92868,405.405405405405,4,2,1,80,1,0
92868,-88.6524822695036,4,2,1,80,0,0
93070,437.956204379562,4,2,1,80,1,0
93070,-82.0411846747067,4,2,1,80,0,0
93288,594.059405940594,4,2,1,80,1,0
93288,-60.4814322003145,4,2,1,80,0,0
93585,833.333333333333,4,2,1,80,1,0
93585,-43.114598603087,4,2,1,80,0,0
94001,422.535211267606,4,2,1,80,1,0
94001,-85.0303983674164,4,2,1,80,0,0
94846,359.281437125748,4,2,1,80,1,0

[HitObjects]
64,192,354,5,0,0:0:0:0:
448,192,354,1,0,0:0:0:0:
320,192,533,1,0,0:0:0:0:
192,192,713,1,0,0:0:0:0:
64,192,892,1,0,0:0:0:0:
448,192,892,1,0,0:0:0:0:
192,192,1252,1,0,0:0:0:0:
320,192,1431,1,0,0:0:0:0:
448,192,1611,1,0,0:0:0:0:
64,192,1611,1,0,0:0:0:0:
320,192,1970,1,0,0:0:0:0:
192,192,2150,1,0,0:0:0:0:
448,192,2330,1,0,0:0:0:0:
64,192,2509,1,0,0:0:0:0:
320,192,2509,1,0,0:0:0:0:
192,192,2689,1,0,0:0:0:0:
320,192,2868,1,0,0:0:0:0:
448,192,3048,1,0,0:0:0:0:
64,192,3228,1,0,0:0:0:0:
192,192,3228,1,0,0:0:0:0:
448,192,3407,1,0,0:0:0:0:
320,192,3407,1,0,0:0:0:0:
64,192,3587,1,0,0:0:0:0:
192,192,3767,1,0,0:0:0:0:
448,192,3767,1,0,0:0:0:0:
320,192,4126,1,0,0:0:0:0:
448,192,4126,1,0,0:0:0:0:
64,192,4306,1,0,0:0:0:0:
192,192,4485,1,0,0:0:0:0:
320,192,4485,1,0,0:0:0:0:
64,192,4845,1,0,0:0:0:0:
192,192,4845,1,0,0:0:0:0:
320,192,5024,1,0,0:0:0:0:
192,192,5204,1,0,0:0:0:0:
448,192,5204,1,0,0:0:0:0:
64,192,5383,1,0,0:0:0:0:
320,192,5383,1,0,0:0:0:0:
192,192,5563,1,0,0:0:0:0:
64,192,5743,1,0,0:0:0:0:
448,192,5922,1,0,0:0:0:0:
320,192,6102,1,0,0:0:0:0:
192,192,6102,1,0,0:0:0:0:
64,192,6102,1,0,0:0:0:0:
64,192,7539,5,4,0:0:0:0:
192,192,7539,1,2,0:0:0:0:
320,192,7539,1,0,0:0:0:0:
448,192,7539,1,0,0:0:0:0:
192,192,7898,1,0,0:0:0:0:
64,192,8078,1,8,0:0:0:0:
448,192,8078,1,0,0:0:0:0:
320,192,8168,1,8,0:0:0:0:
64,192,8258,1,8,0:0:0:0:
192,192,8258,1,0,0:0:0:0:
448,192,8437,1,8,0:0:0:0:
320,192,8437,1,0,0:0:0:0:
192,192,8797,1,0,0:0:0:0:
320,192,8797,1,2,0:0:0:0:
64,192,8976,1,2,0:0:0:0:
192,192,8976,1,4,0:0:0:0:
448,192,8976,1,0,0:0:0:0:
320,192,9156,1,2,0:0:0:0:
448,192,9156,1,0,0:0:0:0:
192,192,9515,1,2,0:0:0:0:
320,192,9515,1,0,0:0:0:0:
64,192,9695,1,8,0:0:0:0:
448,192,9695,1,0,0:0:0:0:
448,192,9874,1,8,0:0:0:0:
192,192,9874,1,0,0:0:0:0:
320,192,10054,1,2,0:0:0:0:
192,192,10054,1,0,0:0:0:0:
448,192,10234,1,2,0:0:0:0:
64,192,10234,1,0,0:0:0:0:
64,192,10413,1,2,0:0:0:0:
192,192,10413,1,4,0:0:0:0:
320,192,10413,1,0,0:0:0:0:
448,192,10413,1,0,0:0:0:0:
192,192,10773,1,2,0:0:0:0:
320,192,10773,1,0,0:0:0:0:
448,192,10773,1,0,0:0:0:0:
64,192,10952,1,0,0:0:0:0:
192,192,11132,1,2,0:0:0:0:
320,192,11132,1,0,0:0:0:0:
448,192,11132,1,0,0:0:0:0:
64,192,11491,1,2,0:0:0:0:
192,192,11491,1,0,0:0:0:0:
320,192,11491,1,0,0:0:0:0:
64,192,11851,1,2,0:0:0:0:
192,192,11851,1,4,0:0:0:0:
320,192,11851,1,0,0:0:0:0:
448,192,11851,1,0,0:0:0:0:
320,192,12389,1,8,0:0:0:0:
448,192,12389,1,0,0:0:0:0:
64,192,12569,1,2,0:0:0:0:
192,192,12749,1,8,0:0:0:0:
320,192,12749,1,0,0:0:0:0:
64,192,12928,1,8,0:0:0:0:
320,192,12928,1,0,0:0:0:0:
192,192,13108,1,8,0:0:0:0:
448,192,13108,1,0,0:0:0:0:
64,192,13288,1,2,0:0:0:0:
192,192,13288,1,4,0:0:0:0:
320,192,13288,1,0,0:0:0:0:
64,192,13467,1,0,0:0:0:0:
448,192,13467,1,0,0:0:0:0:
192,192,13647,1,2,0:0:0:0:
320,192,13647,1,0,0:0:0:0:
320,192,13827,1,0,0:0:0:0:
64,192,13827,1,0,0:0:0:0:
192,192,14006,1,2,0:0:0:0:
448,192,14006,1,0,0:0:0:0:
64,192,14186,1,8,0:0:0:0:
448,192,14186,1,0,0:0:0:0:
320,192,14276,1,8,0:0:0:0:
64,192,14365,1,2,0:0:0:0:
192,192,14365,1,0,0:0:0:0:
320,192,14545,1,8,0:0:0:0:
448,192,14545,1,0,0:0:0:0:
192,192,14635,1,8,0:0:0:0:
64,192,14725,1,2,0:0:0:0:
448,192,14725,1,0,0:0:0:0:
192,192,14904,1,8,0:0:0:0:
320,192,14904,1,0,0:0:0:0:
64,192,14994,1,8,0:0:0:0:
320,192,15084,1,2,0:0:0:0:
448,192,15084,1,0,0:0:0:0:
64,192,15264,1,8,0:0:0:0:
192,192,15264,1,0,0:0:0:0:
320,192,15353,1,8,0:0:0:0:
64,192,15443,1,2,0:0:0:0:
448,192,15443,1,0,0:0:0:0:
320,192,15623,1,8,0:0:0:0:
448,192,15623,1,0,0:0:0:0:
64,192,15713,1,8,0:0:0:0:
192,192,15803,1,8,0:0:0:0:
320,192,15803,1,0,0:0:0:0:
448,192,15892,1,8,0:0:0:0:
64,192,15982,1,8,0:0:0:0:
192,192,15982,1,0,0:0:0:0:
320,192,16072,1,8,0:0:0:0:
64,192,16162,1,2,0:0:0:0:
192,192,16162,1,0,0:0:0:0:
448,192,16162,1,0,0:0:0:0:
64,192,16342,1,2,0:0:0:0:
320,192,16342,1,0,0:0:0:0:
192,192,16521,1,2,0:0:0:0:
448,192,16521,1,0,0:0:0:0:
64,192,16701,1,2,0:0:0:0:
320,192,16701,1,0,0:0:0:0:
192,192,17060,1,2,0:0:0:0:
448,192,17060,1,0,0:0:0:0:
64,192,17240,1,2,0:0:0:0:
320,192,17240,1,0,0:0:0:0:
64,192,17419,1,2,0:0:0:0:
192,192,17419,1,4,0:0:0:0:
320,192,17419,1,0,0:0:0:0:
448,192,17419,1,0,0:0:0:0:
320,192,18138,1,0,0:0:0:0:
192,192,18318,1,0,0:0:0:0:
64,192,19036,1,2,0:0:0:0:
192,192,19036,1,4,0:0:0:0:
320,192,19036,1,0,0:0:0:0:
448,192,19036,1,0,0:0:0:0:
192,192,19216,1,0,0:0:0:0:
448,192,19216,1,0,0:0:0:0:
64,192,19395,1,2,0:0:0:0:
320,192,19395,1,0,0:0:0:0:
448,192,19575,1,0,0:0:0:0:
192,192,19755,1,2,0:0:0:0:
320,192,19755,1,0,0:0:0:0:
64,192,19934,1,0,0:0:0:0:
320,192,19934,1,0,0:0:0:0:
192,192,20114,1,2,0:0:0:0:
448,192,20114,1,0,0:0:0:0:
64,192,20294,1,0,0:0:0:0:
192,192,20473,1,2,0:0:0:0:
448,192,20473,1,0,0:0:0:0:
192,192,20653,1,0,0:0:0:0:
320,192,20653,1,0,0:0:0:0:
64,192,20833,1,2,0:0:0:0:
448,192,20833,1,0,0:0:0:0:
320,192,21012,1,0,0:0:0:0:
64,192,21192,1,2,0:0:0:0:
448,192,21192,1,0,0:0:0:0:
64,192,21371,1,0,0:0:0:0:
192,192,21371,1,0,0:0:0:0:
320,192,21551,1,2,0:0:0:0:
448,192,21551,1,0,0:0:0:0:
192,192,21731,1,0,0:0:0:0:
64,192,21910,1,2,0:0:0:0:
448,192,21910,1,0,0:0:0:0:
64,192,22090,1,0,0:0:0:0:
320,192,22090,1,0,0:0:0:0:
192,192,22270,1,2,0:0:0:0:
448,192,22270,1,0,0:0:0:0:
64,192,22449,1,0,0:0:0:0:
192,192,22629,1,2,0:0:0:0:
320,192,22629,1,0,0:0:0:0:
192,192,22809,1,0,0:0:0:0:
448,192,22809,1,0,0:0:0:0:
64,192,22988,1,2,0:0:0:0:
320,192,22988,1,0,0:0:0:0:
448,192,23168,1,0,0:0:0:0:
64,192,23348,1,2,0:0:0:0:
320,192,23348,1,0,0:0:0:0:
192,192,23527,1,0,0:0:0:0:
320,192,23527,1,0,0:0:0:0:
64,192,23707,1,2,0:0:0:0:
448,192,23707,1,0,0:0:0:0:
192,192,23886,1,0,0:0:0:0:
320,192,23886,1,0,0:0:0:0:
64,192,24066,1,2,0:0:0:0:
448,192,24066,1,0,0:0:0:0:
64,192,24246,1,0,0:0:0:0:
192,192,24246,1,0,0:0:0:0:
320,192,24246,1,0,0:0:0:0:
192,192,24425,1,2,0:0:0:0:
320,192,24425,1,0,0:0:0:0:
448,192,24425,1,0,0:0:0:0:
64,192,24605,1,0,0:0:0:0:
192,192,24695,1,0,0:0:0:0:
320,192,24785,1,2,0:0:0:0:
448,192,24785,1,0,0:0:0:0:
64,192,24964,1,0,0:0:0:0:
448,192,24964,1,0,0:0:0:0:
192,192,25144,1,2,0:0:0:0:
320,192,25144,1,0,0:0:0:0:
64,192,25324,1,0,0:0:0:0:
448,192,25324,1,0,0:0:0:0:
64,192,25503,1,2,0:0:0:0:
320,192,25503,1,0,0:0:0:0:
192,192,25683,1,0,0:0:0:0:
448,192,25683,1,0,0:0:0:0:
64,192,25862,1,2,0:0:0:0:
448,192,25862,1,0,0:0:0:0:
192,192,26042,1,0,0:0:0:0:
320,192,26042,1,0,0:0:0:0:
64,192,26222,1,2,0:0:0:0:
448,192,26222,1,0,0:0:0:0:
192,192,26401,1,0,0:0:0:0:
320,192,26401,1,0,0:0:0:0:
64,192,26581,1,2,0:0:0:0:
192,192,26581,1,0,0:0:0:0:
448,192,26761,1,0,0:0:0:0:
320,192,26851,1,0,0:0:0:0:
64,192,26940,1,2,0:0:0:0:
192,192,26940,1,0,0:0:0:0:
320,192,27120,1,0,0:0:0:0:
192,192,27210,1,0,0:0:0:0:
64,192,27300,1,2,0:0:0:0:
448,192,27300,1,0,0:0:0:0:
64,192,27659,1,2,0:0:0:0:
448,192,27659,1,0,0:0:0:0:
64,192,27839,1,0,0:0:0:0:
192,192,27839,1,0,0:0:0:0:
320,192,28018,1,2,0:0:0:0:
448,192,28018,1,0,0:0:0:0:
192,192,28198,1,0,0:0:0:0:
448,192,28198,1,0,0:0:0:0:
64,192,28377,1,2,0:0:0:0:
320,192,28377,1,0,0:0:0:0:
192,192,28557,1,0,0:0:0:0:
448,192,28557,1,0,0:0:0:0:
64,192,28737,1,2,0:0:0:0:
320,192,28737,1,0,0:0:0:0:
64,192,28916,1,4,0:0:0:0:
192,192,28916,1,0,0:0:0:0:
448,192,28916,1,0,0:0:0:0:
320,192,29096,1,2,0:0:0:0:
448,192,29096,1,0,0:0:0:0:
64,192,29276,1,0,0:0:0:0:
192,192,29276,1,0,0:0:0:0:
64,192,29455,1,2,0:0:0:0:
192,192,29455,1,4,0:0:0:0:
320,192,29455,1,0,0:0:0:0:
448,192,29455,1,0,0:0:0:0:
64,192,29815,1,2,0:0:0:0:
192,192,29815,1,0,0:0:0:0:
320,192,29994,1,8,0:0:0:0:
448,192,29994,1,0,0:0:0:0:
64,192,30084,1,8,0:0:0:0:
192,192,30084,1,0,0:0:0:0:
320,192,30174,1,2,0:0:0:0:
448,192,30174,1,0,0:0:0:0:
64,192,30353,1,8,0:0:0:0:
192,192,30353,1,0,0:0:0:0:
320,192,30443,1,8,0:0:0:0:
64,192,30533,1,2,0:0:0:0:
192,192,30533,1,4,0:0:0:0:
448,192,30533,1,0,0:0:0:0:
320,192,30623,1,0,0:0:0:0:
448,192,30713,1,0,0:0:0:0:
64,192,30803,1,0,0:0:0:0:
192,192,30892,1,8,0:0:0:0:
320,192,30892,1,0,0:0:0:0:
448,192,30892,1,0,0:0:0:0:
64,192,30982,1,0,0:0:0:0:
192,192,31072,1,2,0:0:0:0:
320,192,31072,1,0,0:0:0:0:
448,192,31162,1,0,0:0:0:0:
64,192,31252,1,0,0:0:0:0:
320,192,31342,1,0,0:0:0:0:
64,192,31431,1,2,0:0:0:0:
192,192,31431,1,0,0:0:0:0:
448,192,31521,1,0,0:0:0:0:
64,192,31611,1,8,0:0:0:0:
192,192,31611,1,0,0:0:0:0:
320,192,31611,1,0,0:0:0:0:
448,192,31701,1,0,0:0:0:0:
192,192,31791,1,2,0:0:0:0:
320,192,31791,1,0,0:0:0:0:
64,192,31880,1,0,0:0:0:0:
320,192,31970,1,2,0:0:0:0:
448,192,31970,1,0,0:0:0:0:
192,192,32060,1,0,0:0:0:0:
448,192,32150,1,0,0:0:0:0:
64,192,32240,1,0,0:0:0:0:
192,192,32330,1,8,0:0:0:0:
320,192,32330,1,0,0:0:0:0:
448,192,32330,1,0,0:0:0:0:
64,192,32419,1,0,0:0:0:0:
192,192,32509,1,2,0:0:0:0:
320,192,32509,1,0,0:0:0:0:
448,192,32599,1,0,0:0:0:0:
64,192,32689,1,0,0:0:0:0:
320,192,32779,1,0,0:0:0:0:
64,192,32868,1,2,0:0:0:0:
192,192,32868,1,0,0:0:0:0:
448,192,32958,1,0,0:0:0:0:
64,192,33048,1,8,0:0:0:0:
192,192,33048,1,0,0:0:0:0:
320,192,33048,1,0,0:0:0:0:
448,192,33138,1,0,0:0:0:0:
192,192,33228,1,2,0:0:0:0:
320,192,33228,1,0,0:0:0:0:
64,192,33318,1,0,0:0:0:0:
320,192,33407,1,2,0:0:0:0:
448,192,33407,1,0,0:0:0:0:
64,192,33587,1,0,0:0:0:0:
192,192,33767,1,8,0:0:0:0:
320,192,33767,1,0,0:0:0:0:
448,192,33767,1,0,0:0:0:0:
64,192,33946,1,2,0:0:0:0:
320,192,33946,1,0,0:0:0:0:
448,192,34126,1,0,0:0:0:0:
192,192,34306,1,2,0:0:0:0:
320,192,34306,1,0,0:0:0:0:
64,192,34485,1,8,0:0:0:0:
320,192,34485,1,0,0:0:0:0:
448,192,34485,1,0,0:0:0:0:
64,192,34665,1,2,0:0:0:0:
192,192,34665,1,0,0:0:0:0:
448,192,34845,1,0,0:0:0:0:
192,192,35024,1,2,0:0:0:0:
320,192,35024,1,0,0:0:0:0:
64,192,35204,1,8,0:0:0:0:
320,192,35204,1,0,0:0:0:0:
448,192,35204,1,0,0:0:0:0:
64,192,35383,1,2,0:0:0:0:
192,192,35383,1,0,0:0:0:0:
320,192,35473,1,8,0:0:0:0:
448,192,35473,1,0,0:0:0:0:
64,192,35563,1,2,0:0:0:0:
192,192,35563,1,0,0:0:0:0:
320,192,35743,1,2,0:0:0:0:
448,192,35743,1,0,0:0:0:0:
64,192,35922,1,8,0:0:0:0:
192,192,35922,1,0,0:0:0:0:
448,192,35922,1,0,0:0:0:0:
192,192,36102,1,2,0:0:0:0:
320,192,36102,1,0,0:0:0:0:
64,192,36282,1,2,0:0:0:0:
192,192,36282,1,4,0:0:0:0:
320,192,36282,1,0,0:0:0:0:
448,192,36282,1,0,0:0:0:0:
448,192,36461,1,0,0:0:0:0:
64,192,36641,1,8,0:0:0:0:
192,192,36641,1,0,0:0:0:0:
320,192,36641,1,0,0:0:0:0:
192,192,36821,1,2,0:0:0:0:
448,192,36821,1,0,0:0:0:0:
64,192,37000,1,0,0:0:0:0:
320,192,37180,1,2,0:0:0:0:
448,192,37180,1,0,0:0:0:0:
64,192,37359,1,8,0:0:0:0:
192,192,37359,1,0,0:0:0:0:
320,192,37359,1,0,0:0:0:0:
64,192,37539,1,2,0:0:0:0:
192,192,37539,1,4,0:0:0:0:
320,192,37539,1,0,0:0:0:0:
448,192,37539,1,0,0:0:0:0:
192,192,37898,1,2,0:0:0:0:
320,192,37898,1,0,0:0:0:0:
64,192,38078,1,8,0:0:0:0:
320,192,38078,1,0,0:0:0:0:
448,192,38078,1,0,0:0:0:0:
192,192,38258,1,2,0:0:0:0:
448,192,38258,1,0,0:0:0:0:
64,192,38437,1,2,0:0:0:0:
192,192,38437,1,4,0:0:0:0:
320,192,38437,1,0,0:0:0:0:
448,192,38437,1,0,0:0:0:0:
64,192,38617,1,2,0:0:0:0:
320,192,38617,1,0,0:0:0:0:
64,192,38797,1,8,0:0:0:0:
192,192,38797,1,0,0:0:0:0:
448,192,38797,1,0,0:0:0:0:
192,192,39156,1,2,0:0:0:0:
320,192,39156,1,4,0:0:0:0:
448,192,39156,1,0,0:0:0:0:
64,192,39246,1,0,0:0:0:0:
192,192,39336,1,2,0:0:0:0:
448,192,39336,1,0,0:0:0:0:
320,192,39425,1,0,0:0:0:0:
64,192,39515,1,2,0:0:0:0:
192,192,39515,1,0,0:0:0:0:
448,192,39605,1,0,0:0:0:0:
64,192,39695,1,2,0:0:0:0:
320,192,39695,1,0,0:0:0:0:
192,192,39785,1,0,0:0:0:0:
448,192,39874,1,0,0:0:0:0:
192,192,39964,1,0,0:0:0:0:
320,192,40054,1,2,0:0:0:0:
448,192,40054,1,0,0:0:0:0:
64,192,40144,1,0,0:0:0:0:
192,192,40234,1,2,0:0:0:0:
320,192,40234,1,0,0:0:0:0:
448,192,40324,1,0,0:0:0:0:
64,192,40413,1,2,0:0:0:0:
192,192,40413,1,0,0:0:0:0:
320,192,40503,1,0,0:0:0:0:
64,192,40593,1,0,0:0:0:0:
448,192,40683,1,0,0:0:0:0:
64,192,40773,1,8,0:0:0:0:
192,192,40773,1,0,0:0:0:0:
320,192,40773,1,0,0:0:0:0:
192,192,40952,1,8,0:0:0:0:
320,192,40952,1,0,0:0:0:0:
448,192,40952,1,0,0:0:0:0:
64,192,41132,1,2,0:0:0:0:
448,192,41132,1,0,0:0:0:0:
320,192,41312,1,0,0:0:0:0:
64,192,41491,1,2,0:0:0:0:
448,192,41491,1,0,0:0:0:0:
192,192,41581,1,2,0:0:0:0:
320,192,41581,1,0,0:0:0:0:
64,192,41671,1,8,0:0:0:0:
448,192,41671,1,0,0:0:0:0:
192,192,41851,1,0,0:0:0:0:
320,192,41851,1,0,0:0:0:0:
64,192,42030,1,2,0:0:0:0:
192,192,42030,1,4,0:0:0:0:
320,192,42030,1,0,0:0:0:0:
448,192,42030,1,0,0:0:0:0:
192,192,42210,1,0,0:0:0:0:
320,192,42389,1,0,0:0:0:0:
192,192,42479,1,0,0:0:0:0:
64,192,42569,1,2,0:0:0:0:
448,192,42569,1,0,0:0:0:0:
192,192,42749,1,2,0:0:0:0:
448,192,42749,1,0,0:0:0:0:
192,192,42928,1,2,0:0:0:0:
320,192,42928,1,0,0:0:0:0:
64,192,43108,1,2,0:0:0:0:
448,192,43108,1,0,0:0:0:0:
192,192,43198,1,0,0:0:0:0:
448,192,43288,1,2,0:0:0:0:
320,192,43288,1,0,0:0:0:0:
64,192,43467,1,2,0:0:0:0:
192,192,43467,1,0,0:0:0:0:
320,192,43647,1,0,0:0:0:0:
192,192,43827,1,0,0:0:0:0:
320,192,43916,1,0,0:0:0:0:
64,192,44006,1,2,0:0:0:0:
448,192,44006,1,0,0:0:0:0:
192,192,44186,1,0,0:0:0:0:
448,192,44365,1,2,0:0:0:0:
320,192,44365,1,0,0:0:0:0:
64,192,44545,1,2,0:0:0:0:
448,192,44545,1,0,0:0:0:0:
320,192,44635,1,0,0:0:0:0:
64,192,44725,1,2,0:0:0:0:
192,192,44725,1,0,0:0:0:0:
64,192,44904,1,2,0:0:0:0:
192,192,44904,1,4,0:0:0:0:
320,192,44904,1,0,0:0:0:0:
448,192,44904,1,0,0:0:0:0:
320,192,45264,1,0,0:0:0:0:
192,192,45353,1,0,0:0:0:0:
64,192,45443,1,2,0:0:0:0:
448,192,45443,1,0,0:0:0:0:
192,192,45623,1,8,0:0:0:0:
320,192,45623,1,0,0:0:0:0:
448,192,45623,1,0,0:0:0:0:
64,192,45803,1,2,0:0:0:0:
192,192,45803,1,0,0:0:0:0:
448,192,45982,1,0,0:0:0:0:
192,192,46162,1,2,0:0:0:0:
320,192,46162,1,0,0:0:0:0:
64,192,46342,1,0,0:0:0:0:
320,192,46521,1,2,0:0:0:0:
448,192,46521,1,0,0:0:0:0:
64,192,46701,1,8,0:0:0:0:
192,192,46701,1,0,0:0:0:0:
448,192,46701,1,0,0:0:0:0:
192,192,46880,1,2,0:0:0:0:
320,192,46880,1,0,0:0:0:0:
64,192,47060,1,8,0:0:0:0:
320,192,47060,1,0,0:0:0:0:
448,192,47060,1,0,0:0:0:0:
64,192,47240,1,2,0:0:0:0:
192,192,47240,1,0,0:0:0:0:
320,192,47419,1,8,0:0:0:0:
448,192,47419,1,0,0:0:0:0:
64,192,47509,1,8,0:0:0:0:
192,192,47509,1,0,0:0:0:0:
320,192,47599,1,8,0:0:0:0:
448,192,47599,1,0,0:0:0:0:
64,192,47689,1,8,0:0:0:0:
192,192,47689,1,0,0:0:0:0:
320,192,47779,1,2,0:0:0:0:
448,192,47779,1,4,0:0:0:0:
64,192,47958,1,0,0:0:0:0:
192,192,48138,1,8,0:0:0:0:
320,192,48138,1,2,0:0:0:0:
448,192,48138,1,0,0:0:0:0:
64,192,48318,1,0,0:0:0:0:
192,192,48497,1,2,0:0:0:0:
320,192,48497,1,0,0:0:0:0:
448,192,48677,1,0,0:0:0:0:
64,192,48856,1,8,0:0:0:0:
192,192,48856,1,2,0:0:0:0:
320,192,48856,1,0,0:0:0:0:
448,192,49036,1,0,0:0:0:0:
64,192,49216,1,2,0:0:0:0:
320,192,49216,1,0,0:0:0:0:
192,192,49395,1,2,0:0:0:0:
320,192,49395,1,0,0:0:0:0:
64,192,49575,1,2,0:0:0:0:
192,192,49575,1,8,0:0:0:0:
448,192,49575,1,0,0:0:0:0:
320,192,49755,1,2,0:0:0:0:
448,192,49755,1,0,0:0:0:0:
64,192,49934,1,2,0:0:0:0:
192,192,49934,1,0,0:0:0:0:
64,192,50114,1,2,0:0:0:0:
448,192,50114,1,0,0:0:0:0:
192,192,50294,1,2,0:0:0:0:
320,192,50294,1,8,0:0:0:0:
448,192,50294,1,0,0:0:0:0:
64,192,50473,1,8,0:0:0:0:
192,192,50473,1,2,0:0:0:0:
320,192,50473,1,0,0:0:0:0:
64,192,50653,1,2,0:0:0:0:
192,192,50653,1,4,0:0:0:0:
320,192,50653,1,8,0:0:0:0:
448,192,50653,1,0,0:0:0:0:
64,192,50833,1,2,0:0:0:0:
448,192,50833,1,0,0:0:0:0:
192,192,51012,1,2,0:0:0:0:
320,192,51012,1,0,0:0:0:0:
64,192,51192,1,8,0:0:0:0:
192,192,51192,1,2,0:0:0:0:
448,192,51192,1,0,0:0:0:0:
192,192,51551,1,8,0:0:0:0:
320,192,51551,1,2,0:0:0:0:
64,192,51551,1,0,0:0:0:0:
64,192,51731,1,2,0:0:0:0:
448,192,51731,1,0,0:0:0:0:
192,192,51910,1,2,0:0:0:0:
320,192,51910,1,0,0:0:0:0:
448,192,51910,1,8,0:0:0:0:
64,192,52090,1,2,0:0:0:0:
192,192,52090,1,4,0:0:0:0:
320,192,52090,1,0,0:0:0:0:
448,192,52090,1,0,0:0:0:0:
320,192,52809,1,0,0:0:0:0:
192,192,52898,1,0,0:0:0:0:
448,192,52988,1,0,0:0:0:0:
192,192,53078,1,0,0:0:0:0:
320,192,53168,1,0,0:0:0:0:
64,192,53258,1,0,0:0:0:0:
192,192,53348,1,0,0:0:0:0:
448,192,53437,1,0,0:0:0:0:
64,192,53527,1,4,0:0:0:0:
192,192,53527,1,2,0:0:0:0:
320,192,53527,1,0,0:0:0:0:
64,192,53707,1,2,0:0:0:0:
448,192,53707,1,0,0:0:0:0:
192,192,53886,1,8,0:0:0:0:
320,192,53886,1,0,0:0:0:0:
448,192,53886,1,0,0:0:0:0:
64,192,54066,1,2,0:0:0:0:
320,192,54066,1,0,0:0:0:0:
64,192,54246,1,8,0:0:0:0:
192,192,54246,1,0,0:0:0:0:
448,192,54246,1,0,0:0:0:0:
192,192,54425,1,2,0:0:0:0:
320,192,54425,1,0,0:0:0:0:
64,192,54605,1,8,0:0:0:0:
320,192,54605,1,0,0:0:0:0:
448,192,54605,1,0,0:0:0:0:
192,192,54785,1,2,0:0:0:0:
448,192,54785,1,0,0:0:0:0:
64,192,54964,1,8,0:0:0:0:
192,192,54964,1,0,0:0:0:0:
320,192,54964,1,0,0:0:0:0:
64,192,55144,1,2,0:0:0:0:
448,192,55144,1,0,0:0:0:0:
192,192,55324,1,8,0:0:0:0:
320,192,55324,1,0,0:0:0:0:
448,192,55324,1,0,0:0:0:0:
64,192,55503,1,2,0:0:0:0:
320,192,55503,1,0,0:0:0:0:
64,192,55683,1,8,0:0:0:0:
192,192,55683,1,0,0:0:0:0:
448,192,55683,1,0,0:0:0:0:
320,192,55862,1,2,0:0:0:0:
448,192,55862,1,0,0:0:0:0:
192,192,55952,1,2,0:0:0:0:
64,192,56042,1,8,0:0:0:0:
320,192,56042,1,0,0:0:0:0:
448,192,56042,1,0,0:0:0:0:
64,192,56222,1,2,0:0:0:0:
192,192,56222,1,0,0:0:0:0:
192,192,56401,1,8,0:0:0:0:
320,192,56401,1,0,0:0:0:0:
448,192,56401,1,0,0:0:0:0:
64,192,56581,1,2,0:0:0:0:
448,192,56581,1,0,0:0:0:0:
64,192,56761,1,8,0:0:0:0:
192,192,56761,1,0,0:0:0:0:
320,192,56761,1,0,0:0:0:0:
192,192,56940,1,2,0:0:0:0:
448,192,56940,1,0,0:0:0:0:
64,192,57120,1,8,0:0:0:0:
320,192,57120,1,0,0:0:0:0:
448,192,57120,1,0,0:0:0:0:
64,192,57300,1,2,0:0:0:0:
192,192,57300,1,0,0:0:0:0:
192,192,57479,1,8,0:0:0:0:
320,192,57479,1,0,0:0:0:0:
448,192,57479,1,0,0:0:0:0:
64,192,57659,1,8,0:0:0:0:
192,192,57659,1,4,0:0:0:0:
320,192,57659,1,0,0:0:0:0:
448,192,57659,1,0,0:0:0:0:
192,192,58018,1,2,0:0:0:0:
448,192,58018,1,0,0:0:0:0:
64,192,58198,1,8,0:0:0:0:
320,192,58198,1,0,0:0:0:0:
448,192,58198,1,0,0:0:0:0:
320,192,58377,1,2,0:0:0:0:
192,192,58377,1,0,0:0:0:0:
448,192,58557,1,8,0:0:0:0:
64,192,58557,1,0,0:0:0:0:
192,192,58557,1,0,0:0:0:0:
320,192,58737,1,8,0:0:0:0:
448,192,58737,1,2,0:0:0:0:
64,192,58827,1,8,0:0:0:0:
192,192,58827,1,0,0:0:0:0:
320,192,58916,1,8,0:0:0:0:
448,192,58916,1,0,0:0:0:0:
64,192,59006,1,8,0:0:0:0:
192,192,59006,1,0,0:0:0:0:
320,192,59096,1,8,0:0:0:0:
448,192,59096,1,0,0:0:0:0:
64,192,59186,1,8,0:0:0:0:
192,192,59186,1,0,0:0:0:0:
64,192,59276,1,2,0:0:0:0:
192,192,59276,1,4,0:0:0:0:
320,192,59276,1,0,0:0:0:0:
448,192,59276,1,0,0:0:0:0:
192,192,59455,1,0,0:0:0:0:
320,192,59455,1,0,0:0:0:0:
64,192,59635,1,2,0:0:0:0:
320,192,59635,1,8,0:0:0:0:
448,192,59635,1,0,0:0:0:0:
192,192,59725,1,0,0:0:0:0:
320,192,59815,1,0,0:0:0:0:
448,192,59815,1,0,0:0:0:0:
64,192,59994,1,2,0:0:0:0:
192,192,59994,1,0,0:0:0:0:
64,192,60174,1,0,0:0:0:0:
448,192,60174,1,0,0:0:0:0:
192,192,60353,1,2,0:0:0:0:
320,192,60353,1,8,0:0:0:0:
448,192,60353,1,0,0:0:0:0:
64,192,60533,1,0,0:0:0:0:
320,192,60533,1,0,0:0:0:0:
64,192,60713,1,2,0:0:0:0:
448,192,60713,1,0,0:0:0:0:
192,192,60892,1,0,0:0:0:0:
320,192,60892,1,0,0:0:0:0:
64,192,61072,1,2,0:0:0:0:
320,192,61072,1,8,0:0:0:0:
448,192,61072,1,0,0:0:0:0:
192,192,61252,1,0,0:0:0:0:
448,192,61252,1,0,0:0:0:0:
64,192,61431,1,2,0:0:0:0:
320,192,61431,1,0,0:0:0:0:
192,192,61611,1,0,0:0:0:0:
448,192,61611,1,0,0:0:0:0:
64,192,61791,1,2,0:0:0:0:
320,192,61791,1,8,0:0:0:0:
448,192,61791,1,0,0:0:0:0:
192,192,61970,1,0,0:0:0:0:
64,192,61970,1,0,0:0:0:0:
320,192,62060,1,0,0:0:0:0:
64,192,62150,1,2,0:0:0:0:
192,192,62150,1,4,0:0:0:0:
448,192,62150,1,0,0:0:0:0:
192,192,62419,1,0,0:0:0:0:
320,192,62419,1,2,0:0:0:0:
64,192,62689,1,2,0:0:0:0:
448,192,62689,1,0,0:0:0:0:
64,192,62868,1,2,0:0:0:0:
192,192,62868,1,0,0:0:0:0:
320,192,62868,1,0,0:0:0:0:
448,192,62868,1,4,0:0:0:0:
192,192,63138,1,2,0:0:0:0:
320,192,63138,1,0,0:0:0:0:
320,192,63407,1,2,0:0:0:0:
448,192,63407,1,0,0:0:0:0:
192,192,63497,1,0,0:0:0:0:
64,192,63587,1,4,0:0:0:0:
320,192,63587,1,2,0:0:0:0:
448,192,63587,1,0,0:0:0:0:
192,192,63767,1,2,0:0:0:0:
320,192,63767,1,0,0:0:0:0:
64,192,63946,1,8,0:0:0:0:
192,192,63946,1,0,0:0:0:0:
448,192,63946,1,0,0:0:0:0:
64,192,64126,1,2,0:0:0:0:
320,192,64126,1,0,0:0:0:0:
192,192,64306,1,8,0:0:0:0:
320,192,64306,1,0,0:0:0:0:
448,192,64306,1,0,0:0:0:0:
64,192,64485,1,8,0:0:0:0:
192,192,64485,1,0,0:0:0:0:
320,192,64575,1,8,0:0:0:0:
448,192,64575,1,0,0:0:0:0:
64,192,64665,1,8,0:0:0:0:
192,192,64665,1,0,0:0:0:0:
320,192,64755,1,8,0:0:0:0:
448,192,64755,1,0,0:0:0:0:
64,192,64845,1,8,0:0:0:0:
192,192,64845,1,0,0:0:0:0:
320,192,64934,1,8,0:0:0:0:
448,192,64934,1,0,0:0:0:0:
64,192,65024,1,4,0:0:0:0:
192,192,65024,1,2,0:0:0:0:
320,192,65024,1,0,0:0:0:0:
448,192,65024,1,0,0:0:0:0:
192,192,65204,1,2,0:0:0:0:
320,192,65204,1,0,0:0:0:0:
64,192,65383,1,8,0:0:0:0:
320,192,65383,1,0,0:0:0:0:
448,192,65383,1,0,0:0:0:0:
192,192,65563,1,2,0:0:0:0:
448,192,65563,1,0,0:0:0:0:
64,192,65743,1,8,0:0:0:0:
192,192,65743,1,0,0:0:0:0:
320,192,65743,1,0,0:0:0:0:
64,192,65922,1,2,0:0:0:0:
448,192,65922,1,0,0:0:0:0:
192,192,66102,1,8,0:0:0:0:
320,192,66102,1,0,0:0:0:0:
448,192,66102,1,0,0:0:0:0:
64,192,66282,1,8,0:0:0:0:
192,192,66282,1,4,0:0:0:0:
320,192,66282,1,0,0:0:0:0:
448,192,66282,1,0,0:0:0:0:
64,192,66641,1,2,0:0:0:0:
192,192,66641,1,0,0:0:0:0:
320,192,66731,1,2,0:0:0:0:
448,192,66731,1,0,0:0:0:0:
64,192,66821,1,8,0:0:0:0:
192,192,66821,1,0,0:0:0:0:
192,192,67000,1,2,0:0:0:0:
320,192,67000,1,0,0:0:0:0:
64,192,67180,1,8,0:0:0:0:
320,192,67180,1,0,0:0:0:0:
448,192,67180,1,0,0:0:0:0:
192,192,67359,1,2,0:0:0:0:
448,192,67359,1,0,0:0:0:0:
64,192,67539,1,8,0:0:0:0:
192,192,67539,1,0,0:0:0:0:
320,192,67539,1,0,0:0:0:0:
64,192,67719,1,2,0:0:0:0:
448,192,67719,1,0,0:0:0:0:
64,192,67898,1,8,0:0:0:0:
192,192,67898,1,4,0:0:0:0:
320,192,67898,1,0,0:0:0:0:
448,192,67898,1,0,0:0:0:0:
192,192,68078,1,2,0:0:0:0:
320,192,68078,1,0,0:0:0:0:
64,192,68168,1,2,0:0:0:0:
192,192,68258,1,8,0:0:0:0:
320,192,68258,1,0,0:0:0:0:
448,192,68258,1,0,0:0:0:0:
64,192,68437,1,2,0:0:0:0:
448,192,68437,1,0,0:0:0:0:
64,192,68617,1,8,0:0:0:0:
192,192,68617,1,0,0:0:0:0:
320,192,68617,1,0,0:0:0:0:
320,192,68797,1,2,0:0:0:0:
448,192,68797,1,0,0:0:0:0:
192,192,68886,1,0,0:0:0:0:
64,192,68976,1,8,0:0:0:0:
320,192,68976,1,0,0:0:0:0:
448,192,68976,1,0,0:0:0:0:
64,192,69156,1,2,0:0:0:0:
192,192,69156,1,4,0:0:0:0:
320,192,69156,1,0,0:0:0:0:
448,192,69156,1,0,0:0:0:0:
320,192,69515,1,2,0:0:0:0:
448,192,69515,1,0,0:0:0:0:
192,192,69605,1,2,0:0:0:0:
64,192,69695,1,8,0:0:0:0:
320,192,69695,1,0,0:0:0:0:
448,192,69695,1,0,0:0:0:0:
64,192,69874,1,2,0:0:0:0:
192,192,69874,1,0,0:0:0:0:
192,192,70054,1,8,0:0:0:0:
320,192,70054,1,0,0:0:0:0:
448,192,70054,1,0,0:0:0:0:
64,192,70234,1,2,0:0:0:0:
448,192,70234,1,0,0:0:0:0:
192,192,70413,1,8,0:0:0:0:
320,192,70413,1,0,0:0:0:0:
64,192,70503,1,8,0:0:0:0:
448,192,70503,1,0,0:0:0:0:
192,192,70593,1,2,0:0:0:0:
320,192,70593,1,0,0:0:0:0:
64,192,70773,1,4,0:0:0:0:
192,192,70773,1,2,0:0:0:0:
320,192,70773,1,0,0:0:0:0:
448,192,70773,1,0,0:0:0:0:
64,192,70952,1,0,0:0:0:0:
192,192,71132,1,2,0:0:0:0:
320,192,71132,1,0,0:0:0:0:
448,192,71132,1,0,0:0:0:0:
192,192,71312,1,0,0:0:0:0:
64,192,71491,1,2,0:0:0:0:
320,192,71491,1,0,0:0:0:0:
448,192,71491,1,0,0:0:0:0:
320,192,71671,1,0,0:0:0:0:
64,192,71851,1,2,0:0:0:0:
192,192,71851,1,0,0:0:0:0:
448,192,71851,1,0,0:0:0:0:
448,192,72030,1,0,0:0:0:0:
64,192,72210,1,2,0:0:0:0:
192,192,72210,1,0,0:0:0:0:
320,192,72210,1,0,0:0:0:0:
320,192,72389,1,0,0:0:0:0:
64,192,72569,1,2,0:0:0:0:
192,192,72569,1,0,0:0:0:0:
448,192,72569,1,0,0:0:0:0:
192,192,72749,1,0,0:0:0:0:
64,192,72928,1,2,0:0:0:0:
320,192,72928,1,0,0:0:0:0:
448,192,72928,1,0,0:0:0:0:
192,192,73108,1,8,0:0:0:0:
320,192,73108,1,0,0:0:0:0:
448,192,73108,1,0,0:0:0:0:
64,192,73288,1,8,0:0:0:0:
192,192,73288,1,2,0:0:0:0:
448,192,73288,1,0,0:0:0:0:
64,192,73467,1,8,0:0:0:0:
192,192,73467,1,0,0:0:0:0:
320,192,73467,1,0,0:0:0:0:
192,192,73647,1,2,0:0:0:0:
320,192,73647,1,4,0:0:0:0:
448,192,73647,1,8,0:0:0:0:
64,192,73647,1,0,0:0:0:0:
320,192,74186,1,0,0:0:0:0:
64,192,74365,1,2,0:0:0:0:
192,192,74365,1,4,0:0:0:0:
320,192,74365,1,0,0:0:0:0:
448,192,74365,1,0,0:0:0:0:
64,192,74635,1,2,0:0:0:0:
448,192,74635,1,0,0:0:0:0:
192,192,74904,1,2,0:0:0:0:
320,192,74904,1,0,0:0:0:0:
64,192,75084,1,8,0:0:0:0:
192,192,75084,1,0,0:0:0:0:
320,192,75084,1,0,0:0:0:0:
448,192,75084,1,0,0:0:0:0:
64,192,76521,1,2,0:0:0:0:
192,192,76521,1,4,0:0:0:0:
320,192,76521,1,0,0:0:0:0:
448,192,76521,1,0,0:0:0:0:
192,192,76701,1,2,0:0:0:0:
320,192,76701,1,0,0:0:0:0:
64,192,76880,1,8,0:0:0:0:
320,192,76880,1,0,0:0:0:0:
448,192,76880,1,0,0:0:0:0:
64,192,77060,1,2,0:0:0:0:
192,192,77060,1,0,0:0:0:0:
192,192,77240,1,2,0:0:0:0:
320,192,77240,1,8,0:0:0:0:
448,192,77240,1,0,0:0:0:0:
64,192,77419,1,2,0:0:0:0:
448,192,77419,1,0,0:0:0:0:
64,192,77599,1,8,0:0:0:0:
192,192,77599,1,0,0:0:0:0:
320,192,77599,1,0,0:0:0:0:
320,192,77779,1,2,0:0:0:0:
448,192,77779,1,0,0:0:0:0:
64,192,77958,1,8,0:0:0:0:
192,192,77958,1,0,0:0:0:0:
448,192,77958,1,0,0:0:0:0:
192,192,78138,1,2,0:0:0:0:
320,192,78138,1,0,0:0:0:0:
64,192,78318,1,8,0:0:0:0:
320,192,78318,1,0,0:0:0:0:
448,192,78318,1,0,0:0:0:0:
64,192,78497,1,2,0:0:0:0:
192,192,78497,1,0,0:0:0:0:
192,192,78677,1,8,0:0:0:0:
320,192,78677,1,0,0:0:0:0:
448,192,78677,1,0,0:0:0:0:
64,192,78856,1,2,0:0:0:0:
448,192,78856,1,0,0:0:0:0:
64,192,79036,1,8,0:0:0:0:
192,192,79036,1,0,0:0:0:0:
320,192,79036,1,0,0:0:0:0:
192,192,79216,1,2,0:0:0:0:
448,192,79216,1,0,0:0:0:0:
64,192,79395,1,8,0:0:0:0:
320,192,79395,1,0,0:0:0:0:
448,192,79395,1,0,0:0:0:0:
192,192,79575,1,2,0:0:0:0:
320,192,79575,1,0,0:0:0:0:
64,192,79755,1,8,0:0:0:0:
192,192,79755,1,0,0:0:0:0:
448,192,79755,1,0,0:0:0:0:
64,192,79934,1,2,0:0:0:0:
320,192,79934,1,0,0:0:0:0:
192,192,80114,1,8,0:0:0:0:
320,192,80114,1,0,0:0:0:0:
448,192,80114,1,0,0:0:0:0:
64,192,80294,1,2,0:0:0:0:
448,192,80294,1,0,0:0:0:0:
64,192,80473,1,8,0:0:0:0:
192,192,80473,1,0,0:0:0:0:
320,192,80473,1,0,0:0:0:0:
192,192,80653,1,2,0:0:0:0:
448,192,80653,1,0,0:0:0:0:
64,192,80833,1,8,0:0:0:0:
320,192,80833,1,0,0:0:0:0:
448,192,80833,1,0,0:0:0:0:
192,192,81012,1,2,0:0:0:0:
320,192,81012,1,0,0:0:0:0:
64,192,81192,1,8,0:0:0:0:
192,192,81192,1,0,0:0:0:0:
448,192,81192,1,0,0:0:0:0:
64,192,81371,1,2,0:0:0:0:
320,192,81371,1,0,0:0:0:0:
192,192,81551,1,8,0:0:0:0:
320,192,81551,1,0,0:0:0:0:
448,192,81551,1,0,0:0:0:0:
64,192,81731,1,2,0:0:0:0:
448,192,81731,1,0,0:0:0:0:
192,192,81821,1,2,0:0:0:0:
320,192,81821,1,0,0:0:0:0:
64,192,81910,1,8,0:0:0:0:
448,192,81910,1,0,0:0:0:0:
192,192,82090,1,0,0:0:0:0:
320,192,82180,1,8,0:0:0:0:
448,192,82270,1,0,0:0:0:0:
64,192,82270,1,2,0:0:0:0:
192,192,82270,1,4,0:0:0:0:
448,192,82449,1,0,0:0:0:0:
64,192,82629,1,2,0:0:0:0:
192,192,82629,1,8,0:0:0:0:
320,192,82629,1,0,0:0:0:0:
320,192,82809,1,0,0:0:0:0:
64,192,82988,1,2,0:0:0:0:
192,192,82988,1,0,0:0:0:0:
448,192,82988,1,0,0:0:0:0:
448,192,83168,1,0,0:0:0:0:
64,192,83348,1,2,0:0:0:0:
192,192,83348,1,8,0:0:0:0:
320,192,83348,1,0,0:0:0:0:
320,192,83527,1,0,0:0:0:0:
64,192,83707,1,2,0:0:0:0:
192,192,83707,1,0,0:0:0:0:
448,192,83707,1,0,0:0:0:0:
64,192,83886,1,0,0:0:0:0:
192,192,84066,1,2,0:0:0:0:
320,192,84066,1,8,0:0:0:0:
448,192,84066,1,0,0:0:0:0:
192,192,84246,1,0,0:0:0:0:
64,192,84425,1,2,0:0:0:0:
320,192,84425,1,0,0:0:0:0:
448,192,84425,1,0,0:0:0:0:
64,192,84605,1,0,0:0:0:0:
192,192,84785,1,2,0:0:0:0:
320,192,84785,1,8,0:0:0:0:
448,192,84785,1,0,0:0:0:0:
192,192,84964,1,0,0:0:0:0:
64,192,85144,1,2,0:0:0:0:
192,192,85144,1,4,0:0:0:0:
320,192,85144,1,0,0:0:0:0:
448,192,85144,1,0,0:0:0:0:
64,192,85324,1,2,0:0:0:0:
320,192,85324,1,0,0:0:0:0:
448,192,85324,1,0,0:0:0:0:
64,192,85683,1,2,0:0:0:0:
192,192,85683,1,0,0:0:0:0:
448,192,85683,1,0,0:0:0:0:
192,192,86042,1,2,0:0:0:0:
320,192,86042,1,0,0:0:0:0:
448,192,86042,1,0,0:0:0:0:
64,192,86222,1,2,0:0:0:0:
192,192,86222,1,0,0:0:0:0:
320,192,86222,1,0,0:0:0:0:
64,192,86401,1,2,0:0:0:0:
192,192,86401,1,4,0:0:0:0:
320,192,86401,1,8,0:0:0:0:
448,192,86401,1,0,0:0:0:0:
320,192,86761,1,0,0:0:0:0:
448,192,86761,1,0,0:0:0:0:
192,192,86940,1,0,0:0:0:0:
320,192,86940,1,0,0:0:0:0:
64,192,87120,1,0,0:0:0:0:
192,192,87120,1,0,0:0:0:0:
320,192,87300,1,0,0:0:0:0:
448,192,87479,1,0,0:0:0:0:
64,192,87479,1,0,0:0:0:0:
320,192,87659,1,0,0:0:0:0:
192,192,87839,1,0,0:0:0:0:
64,192,88018,1,0,0:0:0:0:
320,192,88018,1,0,0:0:0:0:
448,192,88018,1,0,0:0:0:0:
192,192,88198,1,0,0:0:0:0:
320,192,88377,1,0,0:0:0:0:
64,192,88557,1,0,0:0:0:0:
192,192,88916,1,0,0:0:0:0:
320,192,89096,1,0,0:0:0:0:
64,192,89276,1,0,0:0:0:0:
192,192,89276,1,0,0:0:0:0:
448,192,89276,1,0,0:0:0:0:
64,192,89635,1,0,0:0:0:0:
192,192,89815,1,0,0:0:0:0:
320,192,89994,1,0,0:0:0:0:
448,192,90174,1,0,0:0:0:0:
320,192,90353,1,0,0:0:0:0:
192,192,90533,1,0,0:0:0:0:
64,192,90713,1,0,0:0:0:0:
192,192,90892,1,0,0:0:0:0:
320,192,90892,1,0,0:0:0:0:
448,192,90892,1,0,0:0:0:0:
64,192,91072,1,0,0:0:0:0:
192,192,91252,1,0,0:0:0:0:
320,192,91431,1,0,0:0:0:0:
192,192,91791,1,0,0:0:0:0:
320,192,91970,1,0,0:0:0:0:
448,192,92150,1,0,0:0:0:0:
320,192,92195,1,0,0:0:0:0:
192,192,92240,1,0,0:0:0:0:
64,192,92509,1,0,0:0:0:0:
320,192,92689,1,0,0:0:0:0:
192,192,92868,1,0,0:0:0:0:
448,192,93070,1,0,0:0:0:0:
320,192,93288,1,0,0:0:0:0:
192,192,93585,1,0,0:0:0:0:
64,192,94001,1,0,0:0:0:0:
192,192,94846,1,0,0:0:0:0:
320,192,94935,1,0,0:0:0:0:
64,192,95025,1,0,0:0:0:0:
192,192,95025,1,0,0:0:0:0:
448,192,95025,1,0,0:0:0:0:
