osu file format v14

[General]
AudioFilename: audio.mp3
AudioLeadIn: 1000
PreviewTime: 61721
Countdown: 0
SampleSet: Soft
StackLeniency: 0.7
Mode: 0
LetterboxInBreaks: 0
WidescreenStoryboard: 1

[Editor]
DistanceSpacing: 1.4
BeatDivisor: 4
GridSize: 8
TimelineZoom: 2.2

[Metadata]
Title:Wonderful Stories
TitleUnicode:Wonderful Stories
Artist:Aqours
ArtistUnicode:Aqours
Creator:Lami
Version:z
Source:Lovelive! Sunshine!!
Tags:ラブライブ!サンシャイン!! eding anime tv size school idol project Inami Anju 伊波杏樹 Aida Rikako 逢田梨香子 Suwa Nanaka 諏訪ななか Komiya Arisa 小宮有紗 Saito Shuka 斉藤朱夏 Kobayashi Aika 小林愛香 Takatsuki Kanako 高槻かなこ Suzuki Aina 鈴木愛奈 Furihata Ai 降幡 愛 Takami Chika 高海千歌 Sakurauchi Riko 桜内梨子 Matsuura Kanan 松浦果南 Kurosawa Dia 黒澤ダイヤ Watanabe You 渡辺 曜 Tsushima Yoshiko 津島善子 Kunikida Hanamaru 国木田花丸 Ohara Mari 小原鞠莉 Kurosawa Ruby 黒澤ルビィ
BeatmapID:1509376
BeatmapSetID:714142

[Difficulty]
HPDrainRate:5
CircleSize:4
OverallDifficulty:6
ApproachRate:8
SliderMultiplier:1.4
SliderTickRate:1

[Events]
//Background and Video events
0,0,"Love.Live!.School.Idol.Festival.full.2180381.png",0,0
//Break Periods
//Storyboard Layer 0 (Background)
//Storyboard Layer 1 (Fail)
//Storyboard Layer 2 (Pass)
//Storyboard Layer 3 (Foreground)
//Storyboard Sound Samples

[TimingPoints]
324,372.670807453416,4,2,0,50,1,0
324,-111.111111111111,4,2,0,50,0,0
9268,-105.263157894737,4,2,0,50,0,0
12249,-100,4,2,0,50,0,0
24174,-105.263157894737,4,2,0,50,0,0
48025,-100,4,2,0,50,0,0
62932,-100,4,2,0,50,0,1
89764,-100,4,2,0,50,0,0

[HitObjects]
101,222,137,5,0,0:0:0:0:
101,222,230,1,0,0:0:0:0:
101,222,324,2,0,L|176:200,1,62.9999980773926
216,135,696,1,0,0:0:0:0:
245,218,883,2,0,P|240:253|219:289,1,62.9999980773926
145,309,1255,1,0,0:0:0:0:
213,364,1442,2,0,P|244:360|272:346,1,62.9999980773926
344,295,1814,6,0,P|347:260|357:215,1,62.9999980773926
413,168,2187,2,0,P|409:136|404:105,1,62.9999980773926
356,30,2560,2,0,P|298:23|250:68,1,125.999996154785
172,224,3305,6,0,L|150:149,1,62.9999980773926
86,107,3678,1,0,0:0:0:0:
170,80,3865,2,0,P|198:92|222:113,1,62.9999980773926
253,195,4237,1,0,0:0:0:0:
321,139,4424,2,0,P|326:108|321:77,1,62.9999980773926
253,195,4796,6,0,P|248:226|253:257,1,62.9999980773926
334,290,5168,2,0,P|339:259|334:228,1,62.9999980773926
262,340,5541,2,0,L|112:326,1,125.999996154785
153,207,6286,6,0,P|158:181|191:143,1,62.9999980773926
358,147,6659,1,0,0:0:0:0:
245,218,6846,2,0,P|240:253|219:289,1,62.9999980773926
148,65,7218,1,0,0:0:0:0:
230,82,7404,2,0,P|252:100|265:127,1,31.4999990386963
153,207,7777,5,0,0:0:0:0:
79,169,7963,1,0,0:0:0:0:
50,271,8150,1,0,0:0:0:0:
148,227,8336,1,0,0:0:0:0:
215,330,8522,2,0,L|218:362,2,31.4999990386963
286,234,8895,1,0,0:0:0:0:
310,223,8988,1,0,0:0:0:0:
335,220,9081,1,0,0:0:0:0:
361,226,9174,1,0,0:0:0:0:
383,240,9268,6,0,P|388:271|384:314,1,66.4999982242585
310,360,9640,1,0,0:0:0:0:
220,186,9827,6,0,P|245:164|283:147,1,66.4999982242585
368,161,10199,1,0,0:0:0:0:
247,288,10386,6,0,L|102:271,1,132.999996448517
163,44,11131,6,0,P|178:71|181:119,1,66.4999982242585
280,110,11504,6,0,P|275:142|247:182,1,66.4999982242585
328,240,11876,6,0,P|299:267|241:288,1,99.7499973363877
44,270,12249,6,0,P|91:226|180:245,1,140
246,287,12808,2,0,P|260:244|254:196,1,70
200,75,13181,2,0,P|186:118|193:166,1,70
340,174,13553,1,0,0:0:0:0:
246,287,13740,6,0,B|196:281|146:314|146:314|91:274,1,140
124,136,14299,2,0,P|142:173|145:228,1,70
31,140,14671,2,0,P|38:103|52:70,1,70
174,31,15044,1,0,0:0:0:0:
229,184,15230,6,0,P|285:194|349:117,1,140
275,29,15789,2,0,P|268:65|264:107,1,70
358,207,16162,2,0,P|353:170|346:134,1,70
229,184,16535,6,0,B|181:179|181:179|151:147|151:147|85:139,1,140
77,157,17001,1,0,0:0:0:0:
69,181,17094,1,0,0:0:0:0:
145,271,17280,1,0,0:0:0:0:
229,184,17466,1,0,0:0:0:0:
247,315,17653,1,0,0:0:0:0:
319,171,17839,2,0,P|360:156|409:159,1,70
264,38,18212,5,0,0:0:0:0:
363,62,18398,1,0,0:0:0:0:
226,125,18584,5,0,0:0:0:0:
295,261,18771,1,0,0:0:0:0:
161,184,18957,5,0,0:0:0:0:
127,354,19143,1,0,0:0:0:0:
69,184,19330,5,0,0:0:0:0:
312,287,19516,1,0,0:0:0:0:
334,296,20634,1,0,0:0:0:0:
353,304,20727,1,0,0:0:0:0:
372,312,20820,2,0,B|400:279|397:239|397:239|421:255|448:249,1,105
435,179,21193,6,0,L|344:166,1,70
215,92,21566,2,0,L|290:102,1,70
315,237,21938,1,0,0:0:0:0:
244,189,22125,1,0,0:0:0:0:
238,276,22311,1,0,0:0:0:0:
322,150,22497,6,0,P|279:107|181:127,1,140
128,266,23056,1,0,0:0:0:0:
243,204,23243,1,0,0:0:0:0:
103,140,23429,2,0,L|14:127,1,70
213,285,23802,2,0,L|302:271,1,70
370,157,24174,6,0,B|388:196|388:196|372:289,1,132.999996448517
298,194,24733,2,0,P|296:121|366:77,1,132.999996448517
462,164,25292,1,0,0:0:0:0:
462,164,25479,1,0,0:0:0:0:
345,282,25665,6,0,P|246:263|198:257,1,132.999996448517
142,182,26224,2,0,P|206:167|273:159,1,132.999996448517
413,254,26783,1,0,0:0:0:0:
364,174,26969,1,0,0:0:0:0:
319,274,27156,6,0,P|312:308|310:341,1,66.4999982242585
223,284,27528,1,0,0:0:0:0:
256,197,27715,2,0,P|202:159|139:171,1,132.999996448517
58,216,28274,1,0,0:0:0:0:
135,72,28460,6,0,B|170:60|206:76|206:76|232:52|232:52|270:58,1,132.999996448517
401,149,29019,1,0,0:0:0:0:
304,246,29205,2,0,P|256:215|268:133,1,132.999996448517
383,50,29764,2,0,L|396:121,1,66.4999982242585
304,246,30137,6,0,P|238:233|163:227,1,132.999996448517
112,348,30696,2,0,P|177:360|235:299,1,132.999996448517
94,185,31255,2,0,P|85:221|84:264,1,66.4999982242585
221,147,31628,6,0,B|265:156|265:156|298:187|298:187|344:200,1,132.999996448517
206,59,32187,2,0,B|163:67|163:67|130:99|130:99|84:112,1,132.999996448517
165,222,32746,1,0,0:0:0:0:
221,147,32932,1,0,0:0:0:0:
281,287,33119,6,0,P|326:285|370:200,1,132.999996448517
351,89,33678,1,0,0:0:0:0:
287,156,33864,2,0,L|201:145,1,66.4999982242585
86,111,34237,1,0,0:0:0:0:
122,294,34423,6,0,B|158:206|158:206|143:162,1,132.999996448517
256,53,34982,5,0,0:0:0:0:
331,114,35168,1,0,0:0:0:0:
206,133,35355,5,0,0:0:0:0:
283,34,35541,1,0,0:0:0:0:
401,164,35727,1,0,0:0:0:0:
401,164,35820,1,0,0:0:0:0:
401,164,35914,1,0,0:0:0:0:
267,244,36100,6,0,L|184:235,1,66.4999982242585
116,228,36473,1,0,0:0:0:0:
229,330,36659,2,0,P|291:336|341:288,1,132.999996448517
381,142,37218,2,0,P|389:172|397:221,1,66.4999982242585
282,142,37591,6,0,P|287:107|296:76,1,66.4999982242585
382,43,37963,1,0,0:0:0:0:
349,181,38150,2,0,P|290:178|200:186,1,132.999996448517
148,37,38709,1,0,0:0:0:0:
237,72,38895,1,0,0:0:0:0:
136,173,39081,6,0,P|140:213|157:241,1,66.4999982242585
291,295,39454,1,0,0:0:0:0:
211,340,39640,2,0,L|118:334,1,66.4999982242585
85,240,40013,2,0,L|178:234,1,66.4999982242585
246,112,40386,6,0,B|264:147|264:147|254:250,1,132.999996448517
192,310,40945,1,0,0:0:0:0:
131,148,41131,2,0,P|176:107|250:114,1,132.999996448517
351,229,41690,1,0,0:0:0:0:
388,136,41876,1,0,0:0:0:0:
428,297,42063,6,0,B|340:313|340:313|297:295,1,132.999996448517
185,216,42622,1,0,0:0:0:0:
245,112,42808,2,0,P|260:147|260:196,1,66.4999982242585
181,293,43181,1,0,0:0:0:0:
101,226,43367,1,0,0:0:0:0:
269,258,43553,6,0,L|353:243,1,66.4999982242585
245,112,43926,2,0,L|179:99,1,66.4999982242585
67,216,44299,1,0,0:0:0:0:
176,183,44485,1,0,0:0:0:0:
99,69,44671,1,0,0:0:0:0:
99,69,44764,1,0,0:0:0:0:
99,69,44858,1,0,0:0:0:0:
131,261,45044,5,0,0:0:0:0:
259,177,45230,1,0,0:0:0:0:
254,284,45417,1,0,0:0:0:0:
398,179,45603,2,0,P|418:133|398:44,1,132.999996448517
295,126,46162,2,0,L|312:229,1,99.7499973363877
383,285,46535,6,0,P|395:251|397:222,1,33.2499991121292
410,147,46721,1,0,0:0:0:0:
410,147,46814,1,0,0:0:0:0:
410,147,46907,1,0,0:0:0:0:
291,104,47094,1,0,0:0:0:0:
246,273,47280,5,0,0:0:0:0:
329,186,47466,1,0,0:0:0:0:
178,163,47653,1,0,0:0:0:0:
345,297,47839,1,0,0:0:0:0:
410,147,48025,6,0,L|422:58,1,70
242,122,48398,2,0,L|252:197,1,70
402,263,48771,2,0,P|361:244|320:250,1,70
208,336,49143,2,0,P|245:336|276:319,1,70
173,209,49516,5,0,0:0:0:0:
148,289,49702,1,0,0:0:0:0:
64,148,49889,5,0,0:0:0:0:
74,241,50075,1,0,0:0:0:0:
219,97,50261,5,0,0:0:0:0:
194,210,50448,1,0,0:0:0:0:
31,44,50634,5,0,0:0:0:0:
47,152,50820,1,0,0:0:0:0:
179,35,51007,6,0,L|256:23,1,70
325,171,51379,2,0,L|248:161,1,70
353,59,51752,2,0,L|430:48,1,70
442,205,52125,1,0,0:0:0:0:
383,294,52311,6,0,P|343:240|347:162,1,140
189,117,52870,1,0,0:0:0:0:
288,50,53056,1,0,0:0:0:0:
265,209,53243,2,0,P|230:209|195:188,1,70
57,72,53615,1,0,0:0:0:0:
95,179,53802,1,0,0:0:0:0:
198,37,53988,6,0,L|300:26,1,70
314,187,54361,2,0,P|292:150|292:104,1,70
418,142,54733,1,0,0:0:0:0:
324,265,54920,1,0,0:0:0:0:
418,240,55106,1,0,0:0:0:0:
288,120,55292,6,0,P|230:115|173:178,1,140
268,314,55851,1,0,0:0:0:0:
252,194,56038,1,0,0:0:0:0:
148,276,56224,1,0,0:0:0:0:
119,261,56317,1,0,0:0:0:0:
97,238,56410,1,0,0:0:0:0:
82,211,56504,1,0,0:0:0:0:
76,180,56597,1,0,0:0:0:0:
79,148,56690,1,0,0:0:0:0:
92,119,56783,1,0,0:0:0:0:
114,96,56876,1,0,0:0:0:0:
143,82,56969,6,0,L|307:60,1,140
364,180,57528,1,0,0:0:0:0:
238,162,57715,1,0,0:0:0:0:
354,90,57901,1,0,0:0:0:0:
383,211,58087,1,0,0:0:0:0:
427,43,58274,1,0,0:0:0:0:
220,72,58460,5,0,0:0:0:0:
314,168,58646,1,0,0:0:0:0:
149,137,58833,1,0,0:0:0:0:
346,86,59019,1,0,0:0:0:0:
326,293,59205,1,0,0:0:0:0:
224,169,59392,1,0,0:0:0:0:
185,289,59578,1,0,0:0:0:0:
180,306,59671,1,0,0:0:0:0:
175,324,59764,1,0,0:0:0:0:
168,341,59858,1,0,0:0:0:0:
163,360,59951,6,0,P|116:361|63:347,1,70
153,222,60323,2,0,P|200:220|253:235,1,70
330,336,60696,1,0,0:0:0:0:
381,157,60883,1,0,0:0:0:0:
438,274,61069,1,0,0:0:0:0:
246,142,61255,1,0,0:0:0:0:
246,142,62373,5,0,0:0:0:0:
246,142,62466,1,0,0:0:0:0:
246,142,62560,2,0,L|170:121,1,70
236,257,62932,6,0,P|271:222|344:227,1,105
359,235,63305,1,0,0:0:0:0:
275,342,63491,2,0,L|194:333,1,70
93,221,63864,2,0,L|166:213,1,70
262,120,64237,1,0,0:0:0:0:
333,266,64423,6,0,P|370:220|361:165,1,105
354,142,64796,1,0,0:0:0:0:
250,241,64982,2,0,L|265:324,1,70
167,201,65355,2,0,L|181:129,1,70
295,48,65727,1,0,0:0:0:0:
181,129,65914,6,0,P|114:135|68:71,1,140
139,245,66473,2,0,B|191:214|242:231|242:231|284:196,1,140
344,114,67032,1,0,0:0:0:0:
402,276,67218,1,0,0:0:0:0:
402,276,67777,5,0,0:0:0:0:
285,250,67963,1,0,0:0:0:0:
413,156,68150,5,0,0:0:0:0:
252,176,68336,1,0,0:0:0:0:
397,71,68522,6,0,P|363:43|271:50,1,140
269,52,68895,5,0,0:0:0:0:
204,133,69081,1,0,0:0:0:0:
102,112,69268,1,0,0:0:0:0:
232,223,69454,1,0,0:0:0:0:
261,229,69547,2,0,P|298:220|341:196,1,70
405,133,69827,5,0,0:0:0:0:
388,341,70013,1,0,0:0:0:0:
388,341,70386,5,0,0:0:0:0:
287,319,70572,1,0,0:0:0:0:
240,226,70758,1,0,0:0:0:0:
189,358,70945,1,0,0:0:0:0:
161,346,71038,2,0,P|151:310|139:266,1,70
58,218,71317,5,0,0:0:0:0:
267,137,71504,1,0,0:0:0:0:
283,166,71876,5,0,0:0:0:0:
151,122,72063,1,0,0:0:0:0:
365,102,72249,5,0,0:0:0:0:
213,235,72435,1,0,0:0:0:0:
231,49,72622,5,0,0:0:0:0:
363,258,72808,1,0,0:0:0:0:
103,285,72994,1,0,0:0:0:0:
256,157,73181,2,0,B|295:137|331:157|331:157|371:183|417:154,1,140
418,145,73646,1,0,0:0:0:0:
434,121,73740,5,0,0:0:0:0:
398,245,73926,1,0,0:0:0:0:
280,71,74112,5,0,0:0:0:0:
278,261,74299,1,0,0:0:0:0:
154,132,74485,2,0,B|79:120|79:120|52:150,1,105
50,216,74858,6,0,P|90:252|144:252,1,105
170,241,75230,1,0,0:0:0:0:
233,135,75417,2,0,P|236:97|241:61,1,70
282,220,75789,2,0,P|285:257|290:294,1,70
404,323,76162,1,0,0:0:0:0:
439,163,76348,6,0,P|394:126|338:135,1,105
315,142,76721,1,0,0:0:0:0:
253,265,76907,2,0,L|240:192,1,70
136,328,77280,2,0,L|149:254,1,70
166,136,77653,1,0,0:0:0:0:
321,218,77839,6,0,P|388:224|434:161,1,140
380,36,78398,1,0,0:0:0:0:
295,96,78584,1,0,0:0:0:0:
266,98,78678,1,0,0:0:0:0:
238,97,78771,1,0,0:0:0:0:
211,90,78864,1,0,0:0:0:0:
185,79,78957,1,0,0:0:0:0:
80,245,79143,6,0,B|136:228|136:228|153:196|153:196|203:177,1,140
403,276,79702,5,0,0:0:0:0:
297,324,79889,1,0,0:0:0:0:
273,206,80075,5,0,0:0:0:0:
425,255,80261,1,0,0:0:0:0:
377,41,80448,6,0,P|349:75|355:166,1,140
355,170,80820,5,0,0:0:0:0:
265,116,81007,1,0,0:0:0:0:
201,235,81193,1,0,0:0:0:0:
102,157,81379,1,0,0:0:0:0:
81,137,81473,2,0,L|67:52,1,70
162,25,81752,5,0,0:0:0:0:
38,224,81938,1,0,0:0:0:0:
38,224,82311,5,0,0:0:0:0:
112,291,82497,1,0,0:0:0:0:
173,166,82684,1,0,0:0:0:0:
264,250,82870,1,0,0:0:0:0:
291,263,82963,2,0,P|326:249|367:231,1,70
425,156,83243,5,0,0:0:0:0:
253,333,83429,1,0,0:0:0:0:
253,333,83802,5,0,0:0:0:0:
189,246,83988,1,0,0:0:0:0:
329,166,84175,1,0,0:0:0:0:
186,126,84361,1,0,0:0:0:0:
160,110,84454,2,0,L|101:116,1,35
228,62,84640,5,0,0:0:0:0:
249,88,84733,1,0,0:0:0:0:
258,121,84826,1,0,0:0:0:0:
252,156,84920,2,0,L|226:200,1,35
141,236,85106,2,0,L|166:280,1,35
269,334,85292,5,0,0:0:0:0:
335,88,85665,5,0,0:0:0:0:
131,211,86038,5,0,0:0:0:0:
368,253,86410,5,0,0:0:0:0:
103,280,86783,6,0,P|59:240|80:156,1,140
244,117,87342,1,0,0:0:0:0:
215,231,87528,1,0,0:0:0:0:
82,133,87715,1,0,0:0:0:0:
279,42,87901,1,0,0:0:0:0:
326,268,88087,1,0,0:0:0:0:
326,268,88460,6,0,L|367:278,2,35
281,156,88833,1,0,0:0:0:0:
219,302,89019,1,0,0:0:0:0:
219,302,89112,1,0,0:0:0:0:
219,302,89205,1,0,0:0:0:0:
219,302,89299,1,0,0:0:0:0:
219,302,89392,2,0,L|94:285,1,105
34,274,89764,5,0,0:0:0:0:
256,192,89858,12,0,93864,0:0:0:0:
