osu file format v14

[General]
AudioFilename: audio.mp3
AudioLeadIn: 1000
PreviewTime: 61721
Countdown: 0
SampleSet: Soft
StackLeniency: 0.7
Mode: 0
LetterboxInBreaks: 0
WidescreenStoryboard: 1

[Editor]
DistanceSpacing: 1.4
BeatDivisor: 4
GridSize: 8
TimelineZoom: 2.2

[Metadata]
Title:Wonderful Stories
TitleUnicode:Wonderful Stories
Artist:Aqours
ArtistUnicode:Aqours
Creator:Lami
Version:Insane
Source:Lovelive! Sunshine!!
Tags:ラブライブ!サンシャイン!! eding anime tv size school idol project Inami Anju 伊波杏樹 Aida Rikako 逢田梨香子 Suwa Nanaka 諏訪ななか Komiya Arisa 小宮有紗 Saito Shuka 斉藤朱夏 Kobayashi Aika 小林愛香 Takatsuki Kanako 高槻かなこ Suzuki Aina 鈴木愛奈 Furihata Ai 降幡 愛 Takami Chika 高海千歌 Sakurauchi Riko 桜内梨子 Matsuura Kanan 松浦果南 Kurosawa Dia 黒澤ダイヤ Watanabe You 渡辺 曜 Tsushima Yoshiko 津島善子 Kunikida Hanamaru 国木田花丸 Ohara Mari 小原鞠莉 Kurosawa Ruby 黒澤ルビィ
BeatmapID:1509282
BeatmapSetID:714142

[Difficulty]
HPDrainRate:6
CircleSize:4
OverallDifficulty:7.5
ApproachRate:9
SliderMultiplier:1.7
SliderTickRate:1

[Events]
//Background and Video events
0,0,"Love.Live!.School.Idol.Festival.full.2180381.png",0,0
//Break Periods
//Storyboard Layer 0 (Background)
//Storyboard Layer 1 (Fail)
//Storyboard Layer 2 (Pass)
//Storyboard Layer 3 (Foreground)
//Storyboard Sound Samples

[TimingPoints]
324,372.670807453416,4,2,0,50,1,0
324,-125,4,2,0,50,0,0
9268,-111.111111111111,4,2,0,50,0,0
11504,-90.9090909090908,4,2,0,50,0,0
11876,-76.9230769230769,4,2,0,50,0,0
12249,-100,4,2,0,50,0,0
24174,-111.111111111111,4,2,0,50,0,0
48025,-100,4,2,0,50,0,0
62932,-100,4,2,0,50,0,1
89764,-100,4,2,0,50,0,0

[HitObjects]
246,316,137,5,0,0:0:0:0:
259,326,230,1,0,0:0:0:0:
272,336,324,2,0,L|359:312,1,68
258,183,696,1,0,0:0:0:0:
185,246,883,2,0,L|161:333,1,68
339,232,1255,1,0,0:0:0:0:
346,143,1442,2,0,P|314:105|278:89,1,68
109,164,1814,5,0,0:0:0:0:
190,213,2001,1,0,0:0:0:0:
212,104,2187,1,0,0:0:0:0:
79,151,2373,1,0,0:0:0:0:
145,35,2560,2,0,P|178:13|215:11,1,68
359,121,2932,2,0,P|325:115|298:95,1,68
443,7,3305,5,0,0:0:0:0:
457,105,3491,1,0,0:0:0:0:
443,7,3678,1,0,0:0:0:0:
359,121,3864,2,0,L|344:191,1,68
180,248,4237,1,0,0:0:0:0:
294,332,4423,2,0,L|364:347,1,68
445,164,4796,5,0,0:0:0:0:
269,242,4982,1,0,0:0:0:0:
440,364,5168,1,0,0:0:0:0:
370,227,5355,1,0,0:0:0:0:
264,368,5541,2,0,P|245:366|224:356,1,34
155,312,5727,1,0,0:0:0:0:
152,295,5820,1,0,0:0:0:0:
150,278,5914,1,0,0:0:0:0:
147,261,6007,1,0,0:0:0:0:
145,244,6100,1,0,0:0:0:0:
142,227,6193,1,0,0:0:0:0:
140,211,6286,6,0,P|145:181|182:137,1,68
373,142,6659,1,0,0:0:0:0:
309,214,6845,2,0,P|277:225|243:222,1,68
134,48,7218,1,0,0:0:0:0:
228,67,7404,2,0,P|253:88|268:119,1,68
140,211,7777,5,0,0:0:0:0:
55,167,7963,1,0,0:0:0:0:
22,284,8150,1,0,0:0:0:0:
134,233,8336,1,0,0:0:0:0:
210,351,8522,2,0,L|214:387,2,34
292,241,8895,1,0,0:0:0:0:
319,229,8988,1,0,0:0:0:0:
348,226,9081,1,0,0:0:0:0:
377,232,9174,1,0,0:0:0:0:
402,248,9268,6,0,P|409:284|404:332,1,76.4999976654053
318,384,9640,1,0,0:0:0:0:
217,186,9827,6,0,P|244:161|288:142,1,76.4999976654053
386,157,10199,1,0,0:0:0:0:
247,303,10386,6,0,L|82:284,1,152.999995330811
151,24,11131,6,0,P|168:55|171:110,1,76.4999976654053
284,99,11504,6,0,P|278:135|247:182,1,93.5000028533936
339,248,11876,6,0,P|306:279|239:303,1,110.499994941712
15,282,12249,6,0,P|68:231|170:253,1,170
246,302,12808,2,0,P|262:252|255:197,1,85
194,59,13181,2,0,P|178:109|185:164,1,85
352,173,13553,1,0,0:0:0:0:
246,302,13740,6,0,B|188:295|132:332|132:332|68:287,1,170
106,129,14299,2,0,P|126:172|130:234,1,85
0,134,14671,2,0,P|7:92|25:54,1,85
163,9,15044,1,0,0:0:0:0:
226,184,15230,6,0,P|291:195|363:108,1,170
279,7,15789,2,0,P|271:48|266:97,1,85
373,211,16162,2,0,P|368:168|360:127,1,85
226,184,16535,6,0,B|171:178|171:178|137:142|137:142|62:133,1,170
52,154,17001,1,0,0:0:0:0:
44,180,17094,1,0,0:0:0:0:
130,284,17280,1,0,0:0:0:0:
226,184,17466,1,0,0:0:0:0:
247,334,17653,1,0,0:0:0:0:
329,169,17839,2,0,P|376:153|432:155,1,85
266,18,18212,5,0,0:0:0:0:
379,44,18398,1,0,0:0:0:0:
222,116,18584,5,0,0:0:0:0:
302,272,18771,1,0,0:0:0:0:
148,184,18957,5,0,0:0:0:0:
110,378,19143,1,0,0:0:0:0:
44,184,19330,5,0,0:0:0:0:
321,302,19516,1,0,0:0:0:0:
346,312,20634,1,0,0:0:0:0:
368,321,20727,1,0,0:0:0:0:
390,330,20820,2,0,B|422:292|418:247|418:247|446:266|477:258,1,127.5
462,178,21193,6,0,L|357:163,1,85
211,78,21566,2,0,L|295:90,1,85
325,245,21938,1,0,0:0:0:0:
243,190,22125,1,0,0:0:0:0:
237,288,22311,1,0,0:0:0:0:
333,145,22497,6,0,P|283:97|172:118,1,170
111,278,23056,1,0,0:0:0:0:
242,207,23243,1,0,0:0:0:0:
83,134,23429,2,0,L|-19:118,1,85
208,300,23802,2,0,L|310:284,1,85
388,154,24174,6,0,B|408:198|408:198|390:305,1,152.999995330811
305,195,24733,2,0,P|306:111|383:61,1,152.999995330811
492,161,25292,1,0,0:0:0:0:
492,161,25479,1,0,0:0:0:0:
359,296,25665,6,0,P|246:274|191:268,1,152.999995330811
126,182,26224,2,0,P|200:165|276:155,1,152.999995330811
437,264,26783,1,0,0:0:0:0:
381,173,26969,1,0,0:0:0:0:
329,287,27156,6,0,P|321:326|319:364,1,76.4999976654053
219,298,27528,1,0,0:0:0:0:
256,199,27715,2,0,P|196:155|123:169,1,152.999995330811
30,220,28274,1,0,0:0:0:0:
119,57,28460,6,0,B|159:42|199:60|199:60|230:34|230:34|274:39,1,152.999995330811
423,144,29019,1,0,0:0:0:0:
312,255,29205,2,0,P|257:219|271:126,1,152.999995330811
402,31,29764,2,0,L|417:113,1,76.4999976654053
312,255,30137,6,0,P|237:240|151:233,1,152.999995330811
93,371,30696,2,0,P|167:385|233:315,1,152.999995330811
72,185,31255,2,0,P|62:227|61:275,1,76.4999976654053
218,142,31628,6,0,B|267:152|267:152|305:188|305:188|357:202,1,152.999995330811
200,41,32187,2,0,B|151:51|151:51|113:87|113:87|61:101,1,152.999995330811
153,228,32746,1,0,0:0:0:0:
218,142,32932,1,0,0:0:0:0:
286,302,33119,6,0,P|337:299|388:202,1,152.999995330811
366,76,33678,1,0,0:0:0:0:
293,152,33864,2,0,L|195:139,1,76.4999976654053
71,95,34237,1,0,0:0:0:0:
104,309,34423,6,0,B|145:210|145:210|128:158,1,152.999995330811
256,35,34982,5,0,0:0:0:0:
343,104,35168,1,0,0:0:0:0:
200,126,35355,5,0,0:0:0:0:
288,13,35541,1,0,0:0:0:0:
423,161,35727,1,0,0:0:0:0:
423,161,35820,1,0,0:0:0:0:
423,161,35914,1,0,0:0:0:0:
270,252,36100,6,0,L|175:242,1,76.4999976654053
97,234,36473,1,0,0:0:0:0:
226,351,36659,2,0,P|297:358|354:303,1,152.999995330811
400,135,37218,2,0,P|410:171|418:227,1,76.4999976654053
287,135,37591,6,0,P|293:97|303:60,1,76.4999976654053
401,23,37963,1,0,0:0:0:0:
363,180,38150,2,0,P|296:177|193:187,1,152.999995330811
134,17,38709,1,0,0:0:0:0:
236,57,38895,1,0,0:0:0:0:
120,172,39081,6,0,P|124:217|144:250,1,76.4999976654053
297,311,39454,1,0,0:0:0:0:
206,363,39640,2,0,L|100:356,1,76.4999976654053
62,248,40013,2,0,L|168:241,1,76.4999976654053
246,102,40386,6,0,B|266:142|266:142|255:260,1,152.999995330811
184,328,40945,1,0,0:0:0:0:
115,143,41131,2,0,P|165:97|250:104,1,152.999995330811
366,235,41690,1,0,0:0:0:0:
408,129,41876,1,0,0:0:0:0:
453,313,42063,6,0,B|352:331|352:331|304:310,1,152.999995330811
176,220,42622,1,0,0:0:0:0:
245,101,42808,2,0,P|261:142|261:197,1,76.4999976654053
172,308,43181,1,0,0:0:0:0:
80,232,43367,1,0,0:0:0:0:
272,269,43553,6,0,L|369:251,1,76.4999976654053
245,101,43926,2,0,L|169:87,1,76.4999976654053
41,220,44299,1,0,0:0:0:0:
165,183,44485,1,0,0:0:0:0:
78,53,44671,1,0,0:0:0:0:
78,53,44764,1,0,0:0:0:0:
78,53,44858,1,0,0:0:0:0:
115,271,45044,5,0,0:0:0:0:
260,175,45230,1,0,0:0:0:0:
255,298,45417,1,0,0:0:0:0:
420,178,45603,2,0,P|442:126|419:24,1,152.999995330811
302,117,46162,2,0,L|321:235,1,114.749996498108
402,299,46535,6,0,P|416:261|418:228,1,38.2499988327027
433,141,46721,1,0,0:0:0:0:
433,141,46814,1,0,0:0:0:0:
433,141,46907,1,0,0:0:0:0:
297,93,47094,1,0,0:0:0:0:
246,286,47280,5,0,0:0:0:0:
340,187,47466,1,0,0:0:0:0:
168,160,47653,1,0,0:0:0:0:
359,313,47839,1,0,0:0:0:0:
433,141,48025,6,0,L|447:39,1,85
241,114,48398,2,0,L|253:199,1,85
424,274,48771,2,0,P|377:252|331:260,1,85
202,358,49143,2,0,P|244:358|280:338,1,85
162,212,49516,5,0,0:0:0:0:
134,304,49702,1,0,0:0:0:0:
38,143,49889,5,0,0:0:0:0:
49,250,50075,1,0,0:0:0:0:
215,88,50261,5,0,0:0:0:0:
184,208,50448,1,0,0:0:0:0:
0,24,50634,5,0,0:0:0:0:
18,155,50820,1,0,0:0:0:0:
169,14,51007,6,0,L|256:1,1,85
335,170,51379,2,0,L|248:157,1,85
369,41,51752,2,0,L|456:28,1,85
469,208,52125,1,0,0:0:0:0:
402,309,52311,6,0,P|356:249|361:158,1,170
180,107,52870,1,0,0:0:0:0:
294,31,53056,1,0,0:0:0:0:
268,212,53243,2,0,P|228:212|187:189,1,85
29,57,53615,1,0,0:0:0:0:
73,178,53802,1,0,0:0:0:0:
191,17,53988,6,0,L|308:3,1,85
324,188,54361,2,0,P|298:145|298:93,1,85
442,136,54733,1,0,0:0:0:0:
334,277,54920,1,0,0:0:0:0:
442,249,55106,1,0,0:0:0:0:
294,111,55292,6,0,P|227:105|162:177,1,170
271,332,55851,1,0,0:0:0:0:
253,195,56038,1,0,0:0:0:0:
134,288,56224,1,0,0:0:0:0:
101,271,56317,1,0,0:0:0:0:
75,246,56410,1,0,0:0:0:0:
58,214,56504,1,0,0:0:0:0:
51,179,56597,1,0,0:0:0:0:
55,143,56690,1,0,0:0:0:0:
70,110,56783,1,0,0:0:0:0:
95,83,56876,1,0,0:0:0:0:
128,67,56969,6,0,L|315:42,1,170
381,179,57528,1,0,0:0:0:0:
237,159,57715,1,0,0:0:0:0:
370,77,57901,1,0,0:0:0:0:
403,214,58087,1,0,0:0:0:0:
452,22,58274,1,0,0:0:0:0:
216,57,58460,5,0,0:0:0:0:
324,166,58646,1,0,0:0:0:0:
135,131,58833,1,0,0:0:0:0:
360,72,59019,1,0,0:0:0:0:
337,308,59205,1,0,0:0:0:0:
220,167,59392,1,0,0:0:0:0:
177,304,59578,1,0,0:0:0:0:
170,324,59671,1,0,0:0:0:0:
164,344,59764,1,0,0:0:0:0:
157,364,59858,1,0,0:0:0:0:
151,384,59951,6,0,P|97:386|37:370,1,85
140,228,60323,2,0,P|193:225|254:242,1,85
342,358,60696,1,0,0:0:0:0:
400,154,60883,1,0,0:0:0:0:
465,287,61069,1,0,0:0:0:0:
246,135,61255,1,0,0:0:0:0:
246,135,62373,5,0,0:0:0:0:
246,135,62466,1,0,0:0:0:0:
246,135,62560,2,0,L|159:113,1,85
235,268,62932,6,0,P|275:228|358:233,1,127.5
374,242,63305,1,0,0:0:0:0:
279,365,63491,2,0,L|186:354,1,85
71,227,63864,2,0,L|155:217,1,85
264,111,64237,1,0,0:0:0:0:
345,278,64423,6,0,P|388:226|377:162,1,127.5
370,136,64796,1,0,0:0:0:0:
250,250,64982,2,0,L|267:344,1,85
156,204,65355,2,0,L|172:121,1,85
301,29,65727,1,0,0:0:0:0:
172,121,65914,6,0,P|95:128|43:55,1,170
123,253,66473,2,0,B|183:218|241:237|241:237|290:198,1,170
358,104,67032,1,0,0:0:0:0:
424,296,67218,1,0,0:0:0:0:
424,296,67777,5,0,0:0:0:0:
291,267,67963,1,0,0:0:0:0:
437,153,68150,5,0,0:0:0:0:
253,174,68336,1,0,0:0:0:0:
418,55,68522,6,0,P|379:23|275:31,1,127.5
272,33,68895,5,0,0:0:0:0:
198,126,69081,1,0,0:0:0:0:
82,102,69268,1,0,0:0:0:0:
230,229,69454,1,0,0:0:0:0:
263,235,69547,2,0,P|305:226|354:198,1,85
428,126,69827,5,0,0:0:0:0:
409,364,70013,1,0,0:0:0:0:
409,364,70386,5,0,0:0:0:0:
293,339,70572,1,0,0:0:0:0:
238,232,70758,1,0,0:0:0:0:
180,383,70945,1,0,0:0:0:0:
148,369,71038,2,0,P|138:328|123:278,1,85
31,223,71317,5,0,0:0:0:0:
270,131,71504,1,0,0:0:0:0:
288,164,71876,5,0,0:0:0:0:
137,114,72063,1,0,0:0:0:0:
382,91,72249,5,0,0:0:0:0:
208,243,72435,1,0,0:0:0:0:
229,30,72622,5,0,0:0:0:0:
379,269,72808,1,0,0:0:0:0:
83,300,72994,1,0,0:0:0:0:
257,154,73181,2,0,B|302:131|343:154|343:154|389:183|441:150,1,170
442,139,73646,1,0,0:0:0:0:
461,112,73740,5,0,0:0:0:0:
420,253,73926,1,0,0:0:0:0:
285,55,74112,5,0,0:0:0:0:
282,271,74299,1,0,0:0:0:0:
141,125,74485,2,0,B|55:111|55:111|25:145,1,127.5
22,220,74858,6,0,P|67:262|129:262,1,127.5
160,250,75230,1,0,0:0:0:0:
231,128,75417,2,0,P|235:84|240:43,1,85
287,225,75789,2,0,P|291:268|296:309,1,85
427,343,76162,1,0,0:0:0:0:
467,160,76348,6,0,P|415:117|351:128,1,127.5
325,135,76721,1,0,0:0:0:0:
254,277,76907,2,0,L|238:193,1,85
120,348,77280,2,0,L|135:264,1,85
154,129,77653,1,0,0:0:0:0:
332,223,77839,6,0,P|409:230|461:157,1,170
399,15,78398,1,0,0:0:0:0:
301,83,78584,1,0,0:0:0:0:
269,86,78678,1,0,0:0:0:0:
237,84,78771,1,0,0:0:0:0:
206,77,78864,1,0,0:0:0:0:
177,64,78957,1,0,0:0:0:0:
56,253,79143,6,0,B|120:234|120:234|140:197|140:197|197:176,1,170
425,289,79702,5,0,0:0:0:0:
304,345,79889,1,0,0:0:0:0:
276,210,80075,5,0,0:0:0:0:
450,266,80261,1,0,0:0:0:0:
395,20,80448,6,0,P|363:59|371:163,1,127.5
371,168,80820,5,0,0:0:0:0:
267,106,81007,1,0,0:0:0:0:
191,229,81193,1,0,0:0:0:0:
82,154,81379,1,0,0:0:0:0:
57,131,81473,2,0,P|47:83|42:33,1,85
149,2,81752,5,0,0:0:0:0:
8,230,81938,1,0,0:0:0:0:
8,230,82311,5,0,0:0:0:0:
92,307,82497,1,0,0:0:0:0:
156,175,82684,1,0,0:0:0:0:
266,259,82870,1,0,0:0:0:0:
297,274,82963,2,0,P|339:258|384:237,1,85
445,150,83243,5,0,0:0:0:0:
246,360,83429,1,0,0:0:0:0:
246,360,83802,5,0,0:0:0:0:
180,255,83988,1,0,0:0:0:0:
340,163,84175,1,0,0:0:0:0:
178,117,84361,1,0,0:0:0:0:
147,99,84454,2,0,L|81:106,1,42.5
225,44,84640,5,0,0:0:0:0:
249,75,84733,1,0,0:0:0:0:
259,113,84826,1,0,0:0:0:0:
253,152,84920,2,0,L|223:202,1,42.5
125,244,85106,2,0,L|155:294,1,42.5
272,355,85292,5,0,0:0:0:0:
348,75,85665,5,0,0:0:0:0:
115,214,86038,5,0,0:0:0:0:
382,294,86410,5,0,0:0:0:0:
83,294,86783,6,0,P|32:249|56:153,1,170
243,107,87342,1,0,0:0:0:0:
210,237,87528,1,0,0:0:0:0:
59,126,87715,1,0,0:0:0:0:
283,21,87901,1,0,0:0:0:0:
337,280,88087,1,0,0:0:0:0:
337,280,88460,6,0,L|384:291,2,42.5
286,153,88833,1,0,0:0:0:0:
215,319,89019,1,0,0:0:0:0:
215,319,89112,1,0,0:0:0:0:
215,319,89205,1,0,0:0:0:0:
215,319,89299,1,0,0:0:0:0:
215,319,89392,2,0,L|72:299,1,127.5
4,287,89764,5,0,0:0:0:0:
256,192,89858,12,0,93864,0:0:0:0:
