osu file format v14

[General]
AudioFilename: audio.mp3
AudioLeadIn: 0
PreviewTime: 61080
Countdown: 1
SampleSet: Soft
StackLeniency: 0.4
Mode: 0
LetterboxInBreaks: 0
WidescreenStoryboard: 0

[Editor]
Bookmarks: 41339,86184
DistanceSpacing: 1.3
BeatDivisor: 4
GridSize: 32
TimelineZoom: 1.8

[Metadata]
Title:Waku-Waku Week
TitleUnicode:Waku-Waku Week
Artist:Aqours
ArtistUnicode:Aqours
Creator:b00
Version:Waku
Source:Love Live Sunshine
Tags:
BeatmapID:1455587
BeatmapSetID:687778

[Difficulty]
HPDrainRate:6
CircleSize:4
OverallDifficulty:8
ApproachRate:9.3
SliderMultiplier:1.9
SliderTickRate:1

[Events]
//Background and Video events
0,0,"Love.Live!.Sunshine!!.full.1992793.jpg",0,0
//Break Periods
//Storyboard Layer 0 (Background)
//Storyboard Layer 1 (Fail)
//Storyboard Layer 2 (Pass)
//Storyboard Layer 3 (Foreground)
//Storyboard Sound Samples

[TimingPoints]
-474,310.880829015544,4,2,0,100,1,0
4810,-142.857142857143,4,2,2,50,0,0
6987,-142.857142857143,4,2,3,50,0,0
7298,-142.857142857143,4,2,2,50,0,0
7842,-142.857142857143,4,2,3,50,0,0
8541,-142.857142857143,4,2,2,50,0,0
9474,-142.857142857143,4,2,3,50,0,0
9785,-142.857142857143,4,2,2,50,0,0
10717,-142.857142857143,4,2,3,50,0,0
11028,-142.857142857143,4,2,2,50,0,0
11650,-142.857142857143,4,2,3,50,0,0
12272,-142.857142857143,4,2,2,50,0,0
12582,-142.857142857143,4,2,3,50,0,0
12893,-142.857142857143,4,2,2,50,0,0
17557,-142.857142857143,4,2,3,50,0,0
24707,-111.111111111111,4,2,2,50,0,0
26261,-111.111111111111,4,2,3,50,0,0
26417,-111.111111111111,4,2,3,50,0,0
44292,-166.666666666666,4,2,3,50,0,0
49266,-111.111111111111,4,2,3,50,0,0
57971,-111.111111111111,4,2,3,25,0,0
59215,-166.666666666666,4,2,3,50,0,0
60769,-99.9999999999998,4,2,2,50,0,0
61702,-90.9090909090909,4,2,3,50,0,1
81443,-125,4,2,3,50,0,0

[Colours]
Combo1 : 255,104,32
Combo2 : 255,81,81
Combo3 : 0,64,128

[HitObjects]
256,192,924,12,0,4500,0:0:0:0:
440,22,4810,6,0,P|464:43|475:75,1,66.4999979705811,8|2,0:0|0:0,0:0:0:0:
388,100,5121,1,2,0:0:0:0:
441,208,5277,1,0,0:0:0:0:
401,202,5355,1,0,0:0:0:0:
366,183,5432,1,8,0:0:0:0:
388,100,5588,1,0,0:0:0:0:
347,254,5743,6,0,B|319:242|319:242|255:244,1,66.4999979705811,2|0,0:0|0:0,0:0:0:0:
151,340,6054,2,0,B|183:344|183:344|223:331,1,66.4999979705811,10|0,0:0|0:0,0:0:0:0:
347,254,6365,1,2,0:0:0:0:
178,243,6520,1,0,0:0:0:0:
301,329,6676,1,2,0:0:0:0:
236,172,6831,1,0,0:0:0:0:
79,277,6987,5,8,0:0:0:0:
79,277,7298,2,0,L|73:210,1,66.4999979705811,10|0,0:0|0:0,0:0:0:0:
238,105,7608,2,0,L|236:172,1,66.4999979705811,2|0,0:0|0:0,0:0:0:0:
314,233,7842,1,8,0:0:0:0:
347,254,7919,2,0,B|386:262|386:262|422:252,1,66.4999979705811,2|0,0:0|0:0,0:0:0:0:
438,139,8230,6,2,P|399:136|366:145,1,66.4999979705811,0|0,0:0|0:0,0:0:0:0:
241,194,8541,1,8,0:0:0:0:
310,80,8696,1,2,0:0:0:0:
347,254,8852,1,0,0:0:0:0:
372,142,9007,1,0,0:0:0:0:
231,279,9163,1,8,0:0:0:0:
231,279,9474,6,0,L|151:271,1,66.4999979705811,8|0,0:0|0:0,0:0:0:0:
21,224,9785,2,0,L|93:215,1,66.4999979705811,10|0,0:0|0:0,0:0:0:0:
229,191,10095,1,2,0:0:0:0:
95,104,10251,1,0,0:0:0:0:
56,113,10329,1,0,0:0:0:0:
29,142,10406,1,8,0:0:0:0:
128,241,10562,1,2,0:0:0:0:
175,47,10717,6,0,B|211:41|211:41|246:56,1,66.4999979705811,2|0,0:0|0:0,0:0:0:0:
339,150,11028,2,8,B|303:156|303:156|268:141,1,66.4999979705811
158,69,11339,1,0,0:0:0:0:
238,52,11494,1,0,0:0:0:0:
324,44,11650,1,8,0:0:0:0:
401,82,11805,1,0,0:0:0:0:
218,194,11961,5,0,0:0:0:0:
185,192,12038,1,0,0:0:0:0:
151,192,12116,1,0,0:0:0:0:
117,193,12194,1,0,0:0:0:0:
83,194,12272,1,10,0:0:0:0:
141,306,12427,1,2,0:0:0:0:
127,104,12582,1,10,0:0:0:0:
0,259,12738,1,0,0:0:0:0:
15,288,12816,1,0,0:0:0:0:
40,303,12893,1,8,0:0:0:0:
42,127,13049,1,2,0:0:0:0:
251,319,13204,5,2,0:0:0:0:
283,67,13360,1,2,0:0:0:0:
259,243,13515,1,2,0:0:0:0:
295,0,13671,1,6,0:0:0:0:
295,0,13981,1,2,0:0:0:0:
381,244,14137,1,2,0:0:0:0:
256,192,14292,12,0,15070,0:0:0:0:
147,135,15536,6,0,B|227:117|297:157|297:157|233:176,1,199.499993911743,2|0,0:0|0:0,0:0:0:0:
166,233,16158,1,2,0:0:0:0:
180,48,16313,2,0,B|242:45|242:45|322:77,1,132.999995941162,2|2,0:0|0:0,0:0:0:0:
391,154,16779,2,0,B|435:248|354:243|383:350,1,199.499993911743,2|0,0:0|0:0,0:0:0:0:
477,307,17401,1,0,0:0:0:0:
305,205,17557,2,0,B|255:226|255:226|178:222,1,99.7499969558717,8|0,0:0|0:0,0:0:0:0:
100,208,17867,1,0,0:0:0:0:
256,224,18023,6,0,P|268:271|251:305,1,66.4999979705811,10|0,0:0|0:0,0:0:0:0:
174,374,18334,1,8,0:0:0:0:
100,208,18489,1,8,0:0:0:0:
348,316,18645,1,10,0:0:0:0:
85,322,18800,1,10,0:0:0:0:
241,135,18956,1,10,0:0:0:0:
175,294,19111,1,10,0:0:0:0:
320,232,19266,1,10,0:0:0:0:
349,226,19344,1,10,0:0:0:0:
370,204,19422,6,0,P|381:172|330:83,2,132.999995941162,10|2|0,0:0|0:0|0:0,0:0:0:0:
321,313,20199,1,0,0:0:0:0:
261,161,20355,1,8,0:0:0:0:
488,182,20510,6,0,B|493:216|493:216|478:263,1,66.4999979705811,0|4,0:0|0:0,0:0:0:0:
430,334,20821,1,8,0:0:0:0:
330,334,20976,1,8,0:0:0:0:
263,258,21132,1,8,0:0:0:0:
261,161,21287,1,8,0:0:0:0:
320,80,21443,1,0,0:0:0:0:
352,81,21520,1,0,0:0:0:0:
384,89,21598,1,0,0:0:0:0:
410,109,21676,1,0,0:0:0:0:
421,139,21753,1,0,0:0:0:0:
263,258,21909,5,10,0:0:0:0:
124,60,22064,1,10,0:0:0:0:
78,294,22375,5,10,0:0:0:0:
234,73,22531,1,10,0:0:0:0:
359,181,22842,5,10,0:0:0:0:
53,173,22997,1,10,0:0:0:0:
256,192,23075,12,0,24396,0:0:0:0:
92,144,24707,6,0,P|128:122|191:123,1,85.4999973907472,2|0,0:0|0:0,0:0:0:0:
297,185,25018,2,0,P|259:212|207:212,1,85.4999973907472,2|0,0:0|0:0,0:0:0:0:
0,182,25329,2,0,P|-8:141|18:91,1,85.4999973907472,2|0,0:0|0:0,0:0:0:0:
93,226,25639,6,0,L|77:311,1,85.4999973907472,2|0,0:0|0:0,0:0:0:0:
222,216,25950,2,0,L|223:117,1,85.4999973907472,2|0,0:0|0:0,0:0:0:0:
206,0,26261,1,2,0:0:0:0:
130,141,26417,1,8,0:0:0:0:
304,155,26572,1,8,0:0:0:0:
147,55,26728,1,8,0:0:0:0:
295,68,26883,6,0,L|303:159,1,85.4999973907472,10|0,0:0|0:0,0:0:0:0:
401,321,27194,2,0,P|417:282|415:239,1,85.4999973907472,2|0,0:0|0:0,0:0:0:0:
303,154,27505,2,0,P|257:152|219:176,1,85.4999973907472,2|0,0:0|0:0,0:0:0:0:
278,328,27816,2,0,P|293:283|277:232,1,85.4999973907472,2|0,0:0|0:0,0:0:0:0:
149,174,28127,5,2,0:0:0:0:
157,312,28282,1,2,0:0:0:0:
285,246,28437,1,2,0:0:0:0:
63,307,28593,2,0,B|62:266|62:266|84:202,1,85.4999973907472,2|0,0:0|0:0,0:0:0:0:
163,97,28904,1,8,0:0:0:0:
355,114,29059,1,8,0:0:0:0:
215,192,29215,1,8,0:0:0:0:
422,188,29370,6,0,P|443:248|436:312,1,128.249996086121,2|0,0:0|0:0,0:0:0:0:
286,153,29681,2,0,P|313:122|355:114,1,85.4999973907472,2|0,0:0|0:0,0:0:0:0:
443,240,29992,2,0,P|416:272|375:280,1,85.4999973907472,2|0,0:0|0:0,0:0:0:0:
286,153,30303,2,0,L|183:170,1,85.4999973907472,2|0,0:0|0:0,0:0:0:0:
155,340,30614,6,2,P|175:305|170:251,1,85.4999973907472
100,103,30924,1,2,0:0:0:0:
4,270,31080,2,0,P|43:289|95:275,1,85.4999973907472,2|0,0:0|0:0,0:0:0:0:
258,243,31391,1,8,0:0:0:0:
100,103,31546,1,8,0:0:0:0:
83,282,31702,1,8,0:0:0:0:
231,80,31857,6,2,B|299:102|291:54|373:82,1,128.249996086121,0|0,0:0|0:0,0:0:0:0:
475,107,32168,2,0,P|482:153|461:193,1,85.4999973907472,2|0,0:0|0:0,0:0:0:0:
345,288,32479,2,0,P|337:241|355:182,1,85.4999973907472,2|0,0:0|0:0,0:0:0:0:
483,147,32790,1,2,0:0:0:0:
453,283,32945,1,2,0:0:0:0:
128,154,33101,5,8,0:0:0:0:
268,356,33256,1,8,0:0:0:0:
230,54,33412,1,8,0:0:0:0:
258,276,33567,1,8,0:0:0:0:
258,276,33878,1,2,0:0:0:0:
151,255,34033,2,0,P|112:250|63:271,1,85.4999973907472,2|0,0:0|0:0,0:0:0:0:
258,276,34344,6,0,L|258:167,1,85.4999973907472,10|0,0:0|0:0,0:0:0:0:
105,158,34655,2,0,P|125:121|160:96,1,85.4999973907472,2|0,0:0|0:0,2:0:0:0:
407,158,34966,2,0,P|386:121|351:96,1,85.4999973907472,2|0,0:0|0:0,2:0:0:0:
184,174,35277,1,2,0:0:0:0:
334,181,35432,1,2,0:0:0:0:
170,16,35588,6,0,P|152:63|169:110,1,85.4999973907472,10|0,0:0|0:0,0:0:0:0:
259,227,35899,1,8,0:0:0:0:
312,0,36054,1,10,0:0:0:0:
312,0,36365,1,8,0:0:0:0:
71,67,36520,1,8,0:0:0:0:
351,96,36676,6,0,P|397:86|447:105,2,85.4999973907472,2|0|2,0:0|0:0|0:0,0:0:0:0:
259,227,37142,2,0,P|301:226|335:202,1,85.4999973907472,10|0,0:0|0:0,0:0:0:0:
391,86,37453,1,0,0:0:0:0:
418,215,37608,1,2,0:0:0:0:
247,103,37764,2,0,P|202:96|158:114,1,85.4999973907472,10|0,0:0|0:0,0:0:0:0:
286,2,38075,5,10,0:0:0:0:
211,205,38230,1,10,0:0:0:0:
164,25,38386,1,10,0:0:0:0:
335,202,38541,1,10,0:0:0:0:
335,202,38852,1,0,0:0:0:0:
204,286,39007,2,0,P|197:242|225:188,1,85.4999973907472,0|2,0:0|0:0,0:0:0:0:
328,98,39318,5,10,0:0:0:0:
335,202,39474,1,2,0:0:0:0:
165,108,39629,2,0,P|115:99|71:125,1,85.4999973907472,2|0,0:0|0:0,0:0:0:0:
112,247,39940,2,0,L|212:248,1,85.4999973907472,2|0,0:0|0:0,0:0:0:0:
335,202,40251,2,0,P|303:179|234:187,1,85.4999973907472,10|2,0:0|0:0,0:0:0:0:
219,319,40562,5,2,0:0:0:0:
183,175,40717,1,2,0:0:0:0:
329,343,40873,1,8,0:0:0:0:
112,247,41028,1,8,0:0:0:0:
112,247,41339,1,8,0:0:0:0:
338,114,41494,1,8,0:0:0:0:
206,74,41650,1,2,0:0:0:0:
291,268,41805,6,0,P|330:279|391:259,1,85.4999973907472,10|0,0:0|0:0,0:0:0:0:
480,157,42116,2,0,P|431:148|380:175,1,85.4999973907472,2|0,0:0|0:0,0:0:0:0:
291,268,42427,1,2,0:0:0:0:
318,134,42582,1,8,0:0:0:0:
431,322,42738,1,8,0:0:0:0:
203,231,42893,1,8,0:0:0:0:
203,231,43204,5,8,0:0:0:0:
146,33,43360,1,8,0:0:0:0:
68,215,43515,1,8,0:0:0:0:
324,91,43671,1,8,0:0:0:0:
324,91,43981,1,4,0:0:0:0:
190,119,44292,6,0,B|124:159|97:89|13:129,1,170.999994781494,2|0,0:0|0:0,0:0:0:0:
68,215,44914,1,2,0:0:0:0:
146,33,45070,1,2,0:0:0:0:
161,267,45225,1,10,0:0:0:0:
257,217,45380,6,0,P|288:205|332:212,2,56.9999982604981,2|0|0,0:0|0:0|0:0,0:0:0:0:
204,340,45847,2,0,P|234:348|278:339,1,56.9999982604981,2|0,0:0|0:0,0:0:0:0:
392,345,46158,1,0,0:0:0:0:
412,325,46235,1,0,0:0:0:0:
425,299,46313,1,0,0:0:0:0:
429,271,46391,1,0,0:0:0:0:
423,243,46469,2,0,P|412:217|384:195,1,56.9999982604981
108,160,46779,6,0,L|212:162,1,85.4999973907472,2|0,0:0|0:0,0:0:0:0:
257,217,47090,2,0,P|256:245|245:271,1,56.9999982604981,2|0,0:0|0:0,0:0:0:0:
115,290,47401,1,10,0:0:0:0:
144,126,47557,1,10,0:0:0:0:
204,340,47712,1,10,0:0:0:0:
27,225,47867,6,0,P|21:203|44:151,2,56.9999982604981,8|0|0,0:0|0:0|0:0,0:0:0:0:
60,338,48334,1,8,0:0:0:0:
121,148,48489,1,8,0:0:0:0:
186,289,48645,1,8,0:0:0:0:
94,75,48800,1,8,0:0:0:0:
316,138,48956,1,10,0:0:0:0:
163,200,49111,1,8,0:0:0:0:
236,45,49266,6,0,P|280:36|327:54,1,85.4999973907472,10|0,0:0|0:0,0:0:0:0:
428,110,49577,1,2,0:0:0:0:
203,149,49733,2,0,P|158:158|96:128,1,85.4999973907472,2|0,0:0|0:0,0:0:0:0:
42,60,50044,1,8,0:0:0:0:
27,170,50199,1,8,0:0:0:0:
165,62,50355,1,10,0:0:0:0:
146,221,50510,5,8,0:0:0:0:
306,127,50665,1,10,0:0:0:0:
247,301,50821,1,8,0:0:0:0:
203,149,50976,1,10,0:0:0:0:
357,251,51132,1,8,0:0:0:0:
238,69,51287,1,10,0:0:0:0:
169,300,51443,1,10,0:0:0:0:
97,164,51598,1,10,0:0:0:0:
356,169,51753,6,0,P|367:214|351:259,1,85.4999973907472,8|0,0:0|0:0,0:0:0:0:
268,357,52064,1,2,0:0:0:0:
196,230,52220,2,0,P|189:192|224:125,1,85.4999973907472,2|0,0:0|0:0,0:0:0:0:
300,54,52531,1,8,0:0:0:0:
282,211,52686,1,8,0:0:0:0:
162,48,52842,1,10,0:0:0:0:
104,233,52997,5,8,0:0:0:0:
359,119,53152,1,10,0:0:0:0:
446,260,53308,5,10,0:0:0:0:
103,131,53463,1,10,0:0:0:0:
236,331,53619,5,8,0:0:0:0:
249,64,53774,1,10,0:0:0:0:
86,290,53930,2,0,P|132:292|172:264,1,85.4999973907472
243,207,54241,5,0,0:0:0:0:
243,207,54396,1,0,0:0:0:0:
103,131,54551,6,0,L|9:139,1,85.4999973907472,10|0,0:0|0:0,0:0:0:0:
207,128,54862,1,0,0:0:0:0:
207,128,55018,1,0,0:0:0:0:
305,273,55173,6,0,L|299:358,1,85.4999973907472,10|0,0:0|0:0,0:0:0:0:
313,180,55484,1,0,0:0:0:0:
313,180,55639,1,0,0:0:0:0:
127,273,55795,6,0,L|9:260,1,85.4999973907472,10|0,0:0|0:0,0:0:0:0:
221,290,56106,1,2,0:0:0:0:
141,180,56261,1,2,0:0:0:0:
153,367,56417,1,2,0:0:0:0:
283,136,56572,6,0,L|390:143,1,85.4999973907472,10|0,0:0|0:0,0:0:0:0:
483,185,56883,1,2,0:0:0:0:
407,310,57038,2,0,P|345:320|282:285,1,128.249996086121,2|0,0:0|0:0,0:0:0:0:
217,195,57349,1,8,0:0:0:0:
356,217,57505,1,8,0:0:0:0:
180,308,57660,1,8,0:0:0:0:
161,83,57816,1,8,0:0:0:0:
79,258,57971,5,8,0:0:0:0:
325,162,58127,1,0,0:0:0:0:
319,120,58204,1,0,0:0:0:0:
294,84,58282,2,0,P|271:79|238:92,1,42.7499986953736,8|0,0:0|0:0,0:0:0:0:
104,145,58437,1,8,0:0:0:0:
113,186,58515,1,8,0:0:0:0:
146,205,58593,2,8,P|169:210|210:204,1,42.7499986953736,8|8,0:0|0:0,0:0:0:0:
355,234,58748,1,8,0:0:0:0:
391,247,58826,1,8,0:0:0:0:
426,262,58904,1,8,0:0:0:0:
443,296,58981,1,8,0:0:0:0:
432,333,59059,1,8,0:0:0:0:
400,354,59137,1,8,0:0:0:0:
361,356,59215,6,0,L|257:350,1,85.4999973907472,10|0,0:0|0:0,0:0:0:0:
148,294,59525,2,0,L|210:290,1,56.9999982604981,10|0,0:0|0:0,0:0:0:0:
352,221,59836,2,0,L|255:215,1,85.4999973907472,10|0,0:0|0:0,0:0:0:0:
183,162,60147,1,2,0:0:0:0:
176,270,60303,1,2,0:0:0:0:
176,270,60614,5,8,0:0:0:0:
219,90,60769,2,0,P|286:66|355:92,1,142.5,2|0,0:0|0:0,0:0:0:0:
446,217,61080,6,0,L|341:221,1,95,2|0,0:0|0:0,0:0:0:0:
105,225,61391,2,0,P|78:184|112:102,1,142.5,2|0,0:0|0:0,0:0:0:0:
132,17,61702,6,0,L|150:137,1,104.500003189087,2|0,0:0|0:0,0:0:0:0:
285,154,62013,2,0,L|268:260,1,104.500003189087,8|0,0:0|0:0,0:0:0:0:
161,345,62323,2,0,P|85:333|49:267,1,156.750004783631,2|0,0:0|0:0,0:0:0:0:
0,234,62634,2,0,L|104:225,1,104.500003189087,8|0,0:0|0:0,0:0:0:0:
364,177,62945,6,0,P|353:126|322:85,1,104.500003189087,2|0,0:0|0:0,0:0:0:0:
177,137,63256,2,0,P|235:166|301:146,1,104.500003189087,10|0,0:0|0:0,0:0:0:0:
446,119,63567,1,2,0:0:0:0:
368,262,63722,1,2,0:0:0:0:
322,85,63878,1,8,0:0:0:0:
195,256,64033,6,0,P|194:307|222:350,2,104.500003189087,2|0|0,0:0|0:0|0:0,0:0:0:0:
273,165,64500,2,0,P|300:224|280:281,1,104.500003189087,10|0,0:0|0:0,0:0:0:0:
222,350,64810,1,2,0:0:0:0:
98,277,64966,1,2,0:0:0:0:
302,217,65121,2,0,L|418:224,1,104.500003189087,10|0,0:0|0:0,0:0:0:0:
479,94,65432,6,0,L|372:105,1,104.500003189087,2|0,0:0|0:0,0:0:0:0:
201,160,65743,2,0,P|181:226|212:273,1,104.500003189087,10|0,0:0|0:0,0:0:0:0:
329,330,66054,2,0,B|389:328|389:328|445:297,1,104.500003189087,10|0,0:0|0:0,0:0:0:0:
503,145,66365,2,0,L|487:28,1,104.500003189087,10|0,0:0|0:0,0:0:0:0:
369,242,66676,5,8,0:0:0:0:
511,351,66831,1,8,0:0:0:0:
414,165,66987,1,8,0:0:0:0:
329,330,67142,1,8,0:0:0:0:
329,330,67453,1,8,0:0:0:0:
332,92,67608,1,12,0:0:0:0:
160,240,67919,5,8,0:0:0:0:
18,349,68074,1,8,0:0:0:0:
115,163,68230,1,8,0:0:0:0:
200,328,68385,1,8,0:0:0:0:
200,328,68696,1,8,0:0:0:0:
199,91,68852,1,12,0:0:0:0:
199,91,69163,5,2,0:0:0:0:
291,191,69318,1,2,0:0:0:0:
38,110,69474,1,8,0:0:0:0:
38,110,69785,1,10,0:0:0:0:
38,110,70095,1,8,0:0:0:0:
259,312,70251,1,10,0:0:0:0:
259,312,70562,5,8,0:0:0:0:
266,62,70717,1,8,0:0:0:0:
415,140,70873,2,0,L|411:209,1,52.2500015945435
406,333,71028,5,0,0:0:0:0:
354,337,71105,1,0,0:0:0:0:
305,320,71183,1,0,0:0:0:0:
262,290,71261,1,0,0:0:0:0:
218,262,71338,1,0,0:0:0:0:
168,249,71416,1,0,0:0:0:0:
116,256,71494,1,0,0:0:0:0:
71,281,71572,1,0,0:0:0:0:
36,319,71650,2,0,P|95:362|191:320,1,156.750004783631,8|0,0:0|0:0,0:0:0:0:
213,384,71961,6,0,L|224:280,1,104.500003189087,8|0,0:0|0:0,0:0:0:0:
221,150,72272,2,0,P|170:141|121:159,1,104.500003189087,2|0,0:0|0:0,0:0:0:0:
4,231,72582,2,0,L|10:123,1,104.500003189087,8|0,0:0|0:0,0:0:0:0:
188,64,72893,6,0,P|249:41|338:91,1,156.750004783631,2|0,0:0|0:0,0:0:0:0:
368,158,73204,2,0,L|372:53,1,104.500003189087,10|0,0:0|0:0,0:0:0:0:
498,7,73515,2,0,P|528:61|511:121,1,104.500003189087,10|0,0:0|0:0,0:0:0:0:
451,226,73826,1,10,0:0:0:0:
230,185,73981,6,0,P|204:229|216:278,2,104.500003189087,8|0|0,0:0|0:0|0:0,0:0:0:0:
363,165,74448,2,0,L|356:284,1,104.500003189087,8|0,0:0|0:0,0:0:0:0:
266,360,74759,2,0,P|217:377|169:360,1,104.500003189087,2|0,0:0|0:0,0:0:0:0:
130,181,75070,2,0,P|187:168|241:194,1,104.500003189087,10|0,0:0|0:0,0:0:0:0:
460,253,75380,6,0,L|347:290,1,104.500003189087,10|0,0:0|0:0,0:0:0:0:
111,271,75691,2,0,L|231:294,1,104.500003189087,10|0,0:0|0:0,0:0:0:0:
435,156,76002,2,0,L|309:159,1,104.500003189087,10|0,0:0|0:0,0:0:0:0:
103,161,76313,2,8,L|207:158,1,104.500003189087,10|0,0:0|0:0,0:0:0:0:
411,81,76624,5,8,0:0:0:0:
297,35,76779,1,8,0:0:0:0:
309,201,76935,1,8,0:0:0:0:
78,63,77090,2,0,L|180:42,1,104.500003189087,2|0,0:0|0:0,0:0:0:0:
297,35,77401,1,8,0:0:0:0:
207,158,77557,1,12,0:0:0:0:
207,158,77867,5,2,0:0:0:0:
325,194,78022,1,2,0:0:0:0:
210,316,78178,1,2,0:0:0:0:
474,350,78333,2,0,L|451:232,1,104.500003189087,8|0,0:0|0:0,0:0:0:0:
416,113,78644,1,2,0:0:0:0:
323,306,78800,1,6,0:0:0:0:
323,306,79111,5,2,0:0:0:0:
213,167,79266,1,2,0:0:0:0:
186,276,79422,1,8,0:0:0:0:
335,196,79577,1,2,0:0:0:0:
115,161,79733,1,8,0:0:0:0:
104,261,79888,1,2,0:0:0:0:
208,99,80044,1,8,0:0:0:0:
246,329,80199,1,4,0:0:0:0:
246,329,80510,5,8,0:0:0:0:
286,119,80665,2,0,P|211:99|129:130,1,156.750004783631,2|0,0:0|0:0,0:0:0:0:
97,193,80976,2,0,L|106:78,1,104.500003189087,2|0,0:0|0:0,0:0:0:0:
233,17,81287,1,2,0:0:0:0:
215,209,81443,6,0,P|254:247|296:242,2,76,10|0|0,0:0|0:0|0:0,0:0:0:0:
286,119,81909,1,8,0:0:0:0:
366,175,82064,1,8,0:0:0:0:
362,274,82220,2,0,L|357:360,1,76,8|0,0:0|0:0,0:0:0:0:
205,284,82531,2,0,L|214:208,1,76,8|0,0:0|0:0,0:0:0:0:
285,119,82842,6,8,B|206:86|210:135|137:110,1,152
172,18,83308,1,8,0:0:0:0:
234,207,83463,1,0,0:0:0:0:
185,219,83541,1,0,0:0:0:0:
137,204,83619,1,0,0:0:0:0:
103,168,83696,1,0,0:0:0:0:
54,159,83774,1,8,0:0:0:0:
11,185,83852,1,0,0:0:0:0:
11,234,83930,6,0,P|12:278|40:316,1,76,8|0,0:0|0:0,0:0:0:0:
123,351,84241,1,0,0:0:0:0:
103,168,84396,2,0,P|107:121|138:69,1,76,2|0,0:0|0:0,0:0:0:0:
234,207,84707,2,0,P|250:251|238:296,1,76,2|0,0:0|0:0,0:0:0:0:
92,278,85018,2,0,P|129:278|161:258,1,76,2|0,0:0|0:0,0:0:0:0:
291,105,85329,6,0,L|215:98,1,76,2|0,0:0|0:0,0:0:0:0:
27,159,85639,2,0,L|116:169,1,76,10|0,0:0|0:0,0:0:0:0:
233,186,85950,1,0,0:0:0:0:
136,88,86106,1,0,0:0:0:0:
161,258,86261,1,8,0:0:0:0:
161,258,86572,5,2,0:0:0:0:
322,241,86883,2,0,P|305:196|328:153,1,76,10|0,0:0|0:0,0:0:0:0:
414,129,87194,2,0,P|448:167|444:213,1,76,10|0,0:0|0:0,0:0:0:0:
470,294,87505,2,0,P|426:302|382:261,1,76,10|0,0:0|0:0,0:0:0:0:
256,126,87816,5,2,0:0:0:0:
242,291,87971,1,2,0:0:0:0:
164,145,88127,1,10,0:0:0:0:
161,258,88282,2,0,L|157:335,2,76,2|0|0,0:0|0:0|0:0,0:0:0:0:
167,59,88748,1,8,0:0:0:0:
167,59,89059,6,0,P|223:44|295:76,1,114,2|0,0:0|0:0,0:0:0:0:
315,125,89370,2,0,L|310:47,1,76,2|0,0:0|0:0,0:0:0:0:
426,22,89681,2,0,L|413:108,1,76,2|0,0:0|0:0,0:0:0:0:
370,255,89992,2,0,L|369:172,1,76,10|0,0:0|0:0,0:0:0:0:
165,302,90303,6,0,L|256:311,1,76,2|0,0:0|0:0,0:0:0:0:
236,186,90614,2,0,L|139:186,1,76,8|0,0:0|0:0,0:0:0:0:
5,191,90924,1,2,0:0:0:0:
80,298,91080,1,2,0:0:0:0:
83,99,91235,1,10,0:0:0:0:
83,99,91546,6,0,P|145:81|196:103,1,114,2|0,0:0|0:0,0:0:0:0:
236,186,91857,2,0,L|237:83,1,76,8|0,0:0|0:0,0:0:0:0:
342,59,92168,2,0,L|352:161,1,76,10|0,0:0|0:0,0:0:0:0:
368,258,92479,1,8,0:0:0:0:
236,186,92634,1,0,0:0:0:0:
262,352,92790,5,2,0:0:0:0:
310,205,92945,1,2,0:0:0:0:
161,257,93101,1,2,0:0:0:0:
42,134,93256,1,0,0:0:0:0:
83,106,93334,1,0,0:0:0:0:
130,92,93412,1,0,0:0:0:0:
174,111,93489,1,0,0:0:0:0:
216,135,93567,1,0,0:0:0:0:
265,133,93645,1,0,0:0:0:0:
301,100,93722,1,0,0:0:0:0:
303,50,93800,1,4,0:0:0:0:
256,192,93878,12,0,98852,0:0:0:0:
