osu file format v14

[General]
AudioFilename: audio.mp3
AudioLeadIn: 0
PreviewTime: 61080
Countdown: 1
SampleSet: Soft
StackLeniency: 0.4
Mode: 0
LetterboxInBreaks: 0
WidescreenStoryboard: 1

[Editor]
Bookmarks: 41339,86184,94033
DistanceSpacing: 1.3
BeatDivisor: 4
GridSize: 32
TimelineZoom: 1.8

[Metadata]
Title:Waku-Waku Week
TitleUnicode:Waku-Waku Week
Artist:Aqours
ArtistUnicode:Aqours
Creator:b00
Version:Insane
Source:Love Live Sunshine
Tags:
BeatmapID:1457642
BeatmapSetID:687778

[Difficulty]
HPDrainRate:6
CircleSize:4
OverallDifficulty:8
ApproachRate:9
SliderMultiplier:1.6
SliderTickRate:1

[Events]
//Background and Video events
0,0,"Love.Live!.Sunshine!!.full.1992793.jpg",0,0
//Break Periods
//Storyboard Layer 0 (Background)
//Storyboard Layer 1 (Fail)
//Storyboard Layer 2 (Pass)
//Storyboard Layer 3 (Foreground)
//Storyboard Sound Samples

[TimingPoints]
-474,310.880829015544,4,2,0,100,1,0
4500,-142.857142857143,4,2,3,50,0,0
4966,-142.857142857143,4,2,2,50,0,0
6987,-142.857142857143,4,2,3,50,0,0
7298,-142.857142857143,4,2,2,50,0,0
7842,-142.857142857143,4,2,3,50,0,0
8541,-142.857142857143,4,2,2,50,0,0
9474,-142.857142857143,4,2,3,50,0,0
9785,-142.857142857143,4,2,2,50,0,0
10717,-142.857142857143,4,2,3,50,0,0
11028,-142.857142857143,4,2,2,50,0,0
11650,-142.857142857143,4,2,3,50,0,0
12272,-142.857142857143,4,2,2,50,0,0
12582,-142.857142857143,4,2,3,50,0,0
12893,-142.857142857143,4,2,2,50,0,0
17557,-142.857142857143,4,2,3,50,0,0
24707,-111.111111111111,4,2,2,50,0,0
26261,-111.111111111111,4,2,3,50,0,0
26417,-111.111111111111,4,2,3,50,0,0
44292,-166.666666666666,4,2,3,50,0,0
49266,-111.111111111111,4,2,3,50,0,0
57971,-111.111111111111,4,2,3,25,0,0
59215,-166.666666666666,4,2,3,50,0,0
60769,-99.9999999999998,4,2,2,50,0,0
61702,-90.9090909090909,4,2,3,50,0,1
81443,-125,4,2,3,50,0,0

[Colours]
Combo1 : 255,104,32
Combo2 : 255,81,81
Combo3 : 0,64,128

[HitObjects]
256,192,769,12,8,4500,2:0:0:0:
149,112,4810,6,0,L|231:102,1,55.9999982910157,2|8,0:0|0:0,0:0:0:0:
312,95,5121,1,2,0:0:0:0:
395,142,5277,1,0,0:0:0:0:
414,172,5355,1,0,0:0:0:0:
417,207,5432,2,0,P|422:243|402:281,1,55.9999982910157,8|0,0:0|0:0,0:0:0:0:
301,229,5743,6,0,L|305:168,1,55.9999982910157,2|0,0:0|0:0,0:0:0:0:
195,224,6054,2,0,L|202:300,1,55.9999982910157,10|0,0:0|0:0,0:0:0:0:
208,377,6365,1,2,0:0:0:0:
129,347,6520,1,0,0:0:0:0:
83,258,6676,2,0,P|70:211|91:155,1,83.9999974365235,2|0,0:0|0:0,0:0:0:0:
17,138,6987,6,0,L|95:146,1,55.9999982910157,8|0,0:0|0:0,0:0:0:0:
176,94,7298,2,0,L|248:86,1,55.9999982910157,10|0,0:0|0:0,0:0:0:0:
334,195,7608,2,0,P|306:191|282:162,1,55.9999982910157,2|0,0:0|0:0,0:0:0:0:
321,111,7842,1,8,0:0:0:0:
321,111,7919,2,0,P|332:87|359:69,1,55.9999982910157,2|0,0:0|0:0,0:0:0:0:
439,58,8230,5,2,0:0:0:0:
436,152,8386,1,2,0:0:0:0:
321,111,8541,1,8,0:0:0:0:
439,58,8696,2,0,L|440:126,1,55.9999982910157,2|0,0:0|0:0,0:0:0:0:
441,232,9007,1,0,0:0:0:0:
334,195,9163,2,0,P|300:195|257:211,1,55.9999982910157,8|0,0:0|0:0,0:0:0:0:
189,267,9474,6,0,L|190:189,1,55.9999982910157,10|0,0:0|0:0,0:0:0:0:
115,127,9785,2,0,L|108:196,1,55.9999982910157,10|0,0:0|0:0,0:0:0:0:
278,200,10095,2,0,L|271:134,1,55.9999982910157,2|0,0:0|0:0,0:0:0:0:
238,63,10329,1,0,0:0:0:0:
238,63,10406,2,0,P|199:59|167:73,1,55.9999982910157,8|2,0:0|0:0,0:0:0:0:
67,154,10717,6,0,P|88:135|114:126,1,55.9999982910157,2|0,0:0|0:0,0:0:0:0:
278,200,11028,2,0,P|253:215|206:206,1,55.9999982910157,8|8,0:0|0:0,0:0:0:0:
142,206,11339,1,0,0:0:0:0:
72,252,11494,1,0,0:0:0:0:
85,335,11650,2,0,P|121:349|175:327,1,83.9999974365235,8|0,0:0|0:0,0:0:0:0:
196,383,11961,6,0,L|202:316,1,55.9999982910157,0|0,0:0|0:0,0:0:0:0:
226,215,12272,1,10,0:0:0:0:
226,215,12427,1,2,0:0:0:0:
318,329,12582,1,10,0:0:0:0:
320,223,12738,1,0,0:0:0:0:
321,194,12816,1,0,0:0:0:0:
322,166,12893,1,8,0:0:0:0:
318,329,13049,1,2,0:0:0:0:
431,218,13204,5,2,0:0:0:0:
424,319,13360,1,2,0:0:0:0:
322,166,13515,1,2,0:0:0:0:
512,189,13671,1,6,0:0:0:0:
141,117,13981,5,2,0:0:0:0:
141,117,14137,1,2,0:0:0:0:
256,192,14292,12,0,15070,0:0:0:0:
96,83,15536,6,0,P|171:50|263:77,1,167.999994873047,2|0,0:0|0:0,0:0:0:0:
336,170,16313,2,0,P|288:192|217:158,1,111.999996582031,2|2,0:0|0:0,0:0:0:0:
110,169,16779,6,0,P|99:288|147:325,1,167.999994873047,2|0,0:0|0:0,0:0:0:0:
331,280,17557,2,0,B|343:228|343:228|334:162,1,111.999996582031,8|0,0:0|0:0,0:0:0:0:
329,65,18023,6,0,L|422:72,1,83.9999974365235,10|0,0:0|0:0,0:0:0:0:
488,81,18334,1,8,0:0:0:0:
488,164,18489,1,8,0:0:0:0:
489,248,18645,2,0,L|495:323,2,55.9999982910157,10|10|10,0:0|0:0|0:0,0:0:0:0:
415,335,19111,2,0,P|394:343|347:331,1,55.9999982910157,10|10,0:0|0:0,0:0:0:0:
270,327,19344,1,10,0:0:0:0:
270,327,19422,6,0,B|226:330|226:330|180:314,1,83.9999974365235,10|0,0:0|0:0,0:0:0:0:
146,368,19733,2,0,L|152:292,1,55.9999982910157,2|0,0:0|0:0,0:0:0:0:
176,216,20044,2,0,L|171:139,1,55.9999982910157,0|0,0:0|0:0,0:0:0:0:
152,46,20355,2,0,B|195:39|195:39|242:50,1,83.9999974365235,8|0,0:0|0:0,0:0:0:0:
265,59,20665,5,6,0:0:0:0:
289,109,20821,1,2,0:0:0:0:
331,153,20976,1,2,0:0:0:0:
397,165,21132,1,2,0:0:0:0:
461,131,21287,1,2,0:0:0:0:
453,47,21443,1,2,0:0:0:0:
453,47,21598,2,0,P|404:30|358:53,1,83.9999974365235,2|0,0:0|0:0,0:0:0:0:
346,50,21909,5,10,0:0:0:0:
346,50,22064,1,10,0:0:0:0:
339,252,22375,5,10,0:0:0:0:
339,252,22531,1,10,0:0:0:0:
172,160,22842,5,10,0:0:0:0:
172,160,22997,1,10,0:0:0:0:
256,192,23075,12,0,24396,0:0:0:0:
110,41,24707,6,0,P|94:79|107:132,1,71.9999978027344,2|0,0:0|0:0,0:0:0:0:
168,184,25018,2,0,P|179:224|168:267,1,71.9999978027344,2|0,0:0|0:0,0:0:0:0:
88,284,25329,2,0,P|77:324|88:367,1,71.9999978027344,2|0,0:0|0:0,0:0:0:0:
236,327,25639,6,0,L|316:318,1,71.9999978027344,2|0,0:0|0:0,0:0:0:0:
404,285,25950,1,2,0:0:0:0:
413,184,26106,2,0,P|374:173|332:195,1,71.9999978027344,0|2,0:0|0:0,0:0:0:0:
250,225,26417,1,8,0:0:0:0:
186,85,26572,1,8,0:0:0:0:
145,177,26728,1,8,0:0:0:0:
294,94,26883,6,0,P|332:77|381:91,1,71.9999978027344,10|0,0:0|0:0,0:0:0:0:
489,147,27194,2,0,P|500:188|484:226,1,71.9999978027344,2|0,0:0|0:0,0:0:0:0:
411,353,27505,2,0,L|408:261,1,71.9999978027344,2|0,0:0|0:0,0:0:0:0:
345,182,27816,2,0,L|265:178,1,71.9999978027344,2|0,0:0|0:0,0:0:0:0:
112,171,28127,5,2,0:0:0:0:
147,75,28282,1,2,0:0:0:0:
180,245,28437,1,2,0:0:0:0:
240,89,28593,2,0,P|276:89|316:104,1,71.9999978027344,2|0,0:0|0:0,0:0:0:0:
424,180,28904,1,8,0:0:0:0:
307,253,29059,1,8,0:0:0:0:
309,101,29215,1,8,0:0:0:0:
478,280,29370,6,0,P|436:288|387:265,1,71.9999978027344,2|0,0:0|0:0,0:0:0:0:
307,253,29681,2,0,P|273:243|221:263,1,71.9999978027344,2|0,0:0|0:0,0:0:0:0:
156,330,29992,2,0,P|126:334|75:314,1,71.9999978027344,2|0,0:0|0:0,0:0:0:0:
40,229,30303,2,0,L|54:145,1,71.9999978027344,2|0,0:0|0:0,0:0:0:0:
96,39,30614,6,0,B|135:35|135:35|182:45,1,71.9999978027344,2|2,0:0|0:0,0:0:0:0:
269,93,30924,1,2,0:0:0:0:
359,46,31080,2,0,P|393:37|427:47,1,71.9999978027344,2|0,0:0|0:0,0:0:0:0:
512,132,31391,1,8,0:0:0:0:
478,264,31546,1,8,0:0:0:0:
393,135,31702,1,8,0:0:0:0:
354,270,31857,6,0,P|319:279|284:270,1,71.9999978027344,0|0,0:0|0:0,0:0:0:0:
194,201,32168,2,0,P|157:195|110:220,1,71.9999978027344,2|0,0:0|0:0,0:0:0:0:
24,297,32479,2,0,L|29:209,1,71.9999978027344,2|0,0:0|0:0,0:0:0:0:
32,101,32790,2,0,P|69:83|114:88,1,71.9999978027344,2|2,0:0|0:0,0:0:0:0:
221,135,33101,5,8,0:0:0:0:
297,35,33256,1,8,0:0:0:0:
315,185,33412,1,8,0:0:0:0:
297,35,33567,1,8,0:0:0:0:
297,35,33878,1,2,0:0:0:0:
297,35,34033,2,0,P|345:19|405:43,1,107.999996704102,2|0,0:0|0:0,0:0:0:0:
430,14,34344,6,0,L|428:100,1,71.9999978027344,10|0,0:0|0:0,0:0:0:0:
316,257,34655,2,0,L|315:167,1,71.9999978027344,2|0,0:0|0:0,0:0:0:0:
210,137,34966,2,0,P|161:135|119:169,1,71.9999978027344,2|0,0:0|0:0,0:0:0:0:
39,310,35277,2,0,L|48:217,1,71.9999978027344,2|2,0:0|0:0,0:0:0:0:
59,133,35588,5,10,0:0:0:0:
186,227,35743,1,0,0:0:0:0:
188,66,35899,1,8,0:0:0:0:
298,165,36054,1,10,0:0:0:0:
298,165,36365,1,8,0:0:0:0:
298,165,36520,1,8,0:0:0:0:
367,77,36676,6,0,P|369:42|403:5,2,71.9999978027344,2|0|2,0:0|0:0|0:0,0:0:0:0:
424,163,37142,2,0,L|430:261,1,71.9999978027344,10|0,0:0|0:0,0:0:0:0:
402,348,37453,2,0,P|368:362|312:337,1,71.9999978027344,2|2,0:0|0:0,0:0:0:0:
249,291,37764,2,0,P|209:283|152:310,1,71.9999978027344,10|0,0:0|0:0,0:0:0:0:
63,323,38075,5,10,0:0:0:0:
124,230,38230,1,10,0:0:0:0:
152,370,38386,1,10,0:0:0:0:
33,244,38541,1,10,0:0:0:0:
33,244,38852,1,8,0:0:0:0:
33,244,39007,2,0,P|23:210|36:177,1,71.9999978027344,8|2,0:0|0:0,0:0:0:0:
152,117,39317,5,10,0:0:0:0:
248,187,39473,1,2,0:0:0:0:
121,301,39629,2,0,L|129:212,1,71.9999978027344,2|0,0:0|0:0,0:0:0:0:
244,115,39940,2,0,L|248:196,1,71.9999978027344,2|0,0:0|0:0,0:0:0:0:
256,314,40251,2,0,P|293:321|333:302,1,71.9999978027344,10|2,0:0|0:0,0:0:0:0:
409,243,40562,5,2,0:0:0:0:
317,182,40717,1,2,0:0:0:0:
324,309,40873,1,8,0:0:0:0:
409,243,41028,1,8,0:0:0:0:
409,243,41339,1,8,0:0:0:0:
409,243,41494,2,0,P|422:205|396:153,1,71.9999978027344,8|2,0:0|0:0,0:0:0:0:
339,94,41805,6,0,L|257:80,1,71.9999978027344,10|0,0:0|0:0,0:0:0:0:
198,148,42116,2,0,L|118:150,1,71.9999978027344,2|0,0:0|0:0,0:0:0:0:
24,158,42427,1,2,0:0:0:0:
122,226,42582,1,8,0:0:0:0:
126,149,42738,1,8,0:0:0:0:
33,257,42893,1,8,0:0:0:0:
33,257,43204,5,8,0:0:0:0:
217,325,43360,1,8,0:0:0:0:
126,149,43515,1,8,0:0:0:0:
112,350,43671,1,8,0:0:0:0:
266,205,43981,2,0,B|326:184|315:234|395:187,1,107.999996704102,4|0,0:0|0:0,0:0:0:0:
394,194,44292,6,0,P|403:149|379:99,2,95.9999970703126,2|0|2,0:0|0:0|0:0,0:0:0:0:
379,270,45070,1,2,0:0:0:0:
326,325,45225,1,10,0:0:0:0:
247,333,45380,6,0,L|242:388,2,47.9999985351563,2|0|0,0:0|0:0|0:0,0:0:0:0:
220,260,45847,2,0,P|192:256|155:265,1,47.9999985351563,2|0,0:0|0:0,0:0:0:0:
125,319,46158,2,0,P|99:318|74:308,1,47.9999985351563,2|0,0:0|0:0,0:0:0:0:
24,235,46469,2,0,L|36:145,1,71.9999978027344,2|0,0:0|0:0,0:0:0:0:
36,125,46779,6,0,L|106:125,1,47.9999985351563,10|0,0:0|0:0,0:0:0:0:
146,170,47090,2,0,L|203:163,1,47.9999985351563,2|0,0:0|0:0,0:0:0:0:
258,122,47401,2,0,L|264:63,2,47.9999985351563,2|2|2,0:0|0:0|0:0,0:0:0:0:
313,179,47867,2,2,L|372:171,2,47.9999985351563,2|10|2,0:0|0:0|0:0,0:0:0:0:
239,242,48334,6,0,L|242:312,1,47.9999985351563,2|0,0:0|0:0,0:0:0:0:
116,331,48645,2,0,L|126:263,1,47.9999985351563,2|0,0:0|0:0,0:0:0:0:
146,170,48956,1,10,0:0:0:0:
146,170,49111,1,8,0:0:0:0:
313,179,49266,6,0,P|317:147|286:108,1,71.9999978027344,10|0,0:0|0:0,0:0:0:0:
220,20,49577,1,2,0:0:0:0:
137,98,49733,2,0,P|130:136|147:170,1,71.9999978027344,2|0,0:0|0:0,0:0:0:0:
213,244,50044,1,8,0:0:0:0:
249,337,50199,1,8,0:0:0:0:
106,281,50355,1,10,0:0:0:0:
213,244,50510,5,8,0:0:0:0:
161,356,50665,1,10,0:0:0:0:
143,165,50821,1,8,0:0:0:0:
213,244,50976,1,10,0:0:0:0:
24,204,51132,1,8,0:0:0:0:
137,98,51287,1,10,0:0:0:0:
106,281,51443,1,10,0:0:0:0:
39,95,51598,1,10,0:0:0:0:
221,160,51753,6,0,P|261:170|314:146,1,71.9999978027344,8|0,0:0|0:0,0:0:0:0:
406,106,52064,1,2,0:0:0:0:
270,49,52220,1,2,0:0:0:0:
264,206,52375,1,0,0:0:0:0:
330,109,52531,1,8,0:0:0:0:
155,107,52686,1,8,0:0:0:0:
191,247,52842,1,10,0:0:0:0:
241,120,52997,5,8,0:0:0:0:
109,195,53152,1,10,0:0:0:0:
266,269,53308,1,10,0:0:0:0:
324,126,53463,1,10,0:0:0:0:
255,198,53619,1,8,0:0:0:0:
389,207,53774,1,10,0:0:0:0:
283,67,53930,1,10,0:0:0:0:
147,253,54241,5,0,0:0:0:0:
147,253,54396,1,0,0:0:0:0:
236,302,54551,2,0,L|320:294,1,71.9999978027344,10|0,0:0|0:0,0:0:0:0:
180,153,54862,5,0,0:0:0:0:
180,153,55017,1,0,0:0:0:0:
80,187,55173,2,0,L|8:172,1,71.9999978027344,10|0,0:0|0:0,0:0:0:0:
269,206,55484,5,0,0:0:0:0:
269,206,55639,1,0,0:0:0:0:
365,243,55794,2,0,L|447:224,1,71.9999978027344,10|0,0:0|0:0,0:0:0:0:
492,148,56106,1,2,0:0:0:0:
378,156,56261,1,2,0:0:0:0:
440,307,56417,1,2,0:0:0:0:
492,148,56572,6,0,P|493:109|475:72,1,71.9999978027344,10|0,0:0|0:0,0:0:0:0:
354,35,56883,1,2,0:0:0:0:
255,111,57038,2,0,P|220:117|170:100,1,71.9999978027344,2|0,0:0|0:0,0:0:0:0:
18,53,57349,2,0,L|11:136,1,71.9999978027344,8|8,0:0|0:0,0:0:0:0:
1,243,57660,1,8,0:0:0:0:
134,358,57816,1,8,0:0:0:0:
155,172,57971,6,0,P|162:137|195:100,1,71.9999978027344,8|0,0:0|0:0,0:0:0:0:
215,91,58204,1,0,0:0:0:0:
244,77,58282,2,0,P|261:75|284:85,1,35.9999989013672,8|0,0:0|0:0,0:0:0:0:
360,135,58437,1,8,0:0:0:0:
367,166,58515,1,8,0:0:0:0:
363,198,58593,2,0,P|358:218|345:235,1,35.9999989013672,8|8,0:0|0:0,0:0:0:0:
238,249,58748,1,8,0:0:0:0:
205,233,58825,1,8,0:0:0:0:
170,233,58903,1,8,0:0:0:0:
137,247,58981,1,8,0:0:0:0:
104,260,59058,1,8,0:0:0:0:
68,258,59136,1,8,0:0:0:0:
36,243,59215,6,0,L|41:160,1,71.9999978027344,10|0,0:0|0:0,0:0:0:0:
120,92,59525,2,0,L|126:146,1,47.9999985351563,10|0,0:0|0:0,0:0:0:0:
205,233,59836,2,0,L|212:152,1,71.9999978027344,10|0,0:0|0:0,0:0:0:0:
214,132,60147,1,2,0:0:0:0:
300,194,60303,1,2,0:0:0:0:
300,194,60614,5,8,0:0:0:0:
325,65,60769,2,0,P|386:43|451:82,1,120,2|0,0:0|0:0,0:0:0:0:
466,0,61080,2,0,L|464:87,1,80,2|0,0:0|0:0,0:0:0:0:
389,232,61391,2,0,L|382:153,1,80,2|0,0:0|0:0,0:0:0:0:
242,87,61702,6,0,P|202:70|160:80,1,88.000002685547,2|0,0:0|0:0,0:0:0:0:
89,181,62013,2,0,L|91:269,1,88.000002685547,8|0,0:0|0:0,0:0:0:0:
109,384,62323,1,2,0:0:0:0:
5,294,62479,1,0,0:0:0:0:
185,272,62634,2,0,L|297:288,1,88.000002685547,8|0,0:0|0:0,0:0:0:0:
292,139,62945,6,0,L|273:44,1,88.000002685547,2|0,0:0|0:0,0:0:0:0:
139,117,63256,2,0,L|130:211,1,88.000002685547,10|0,0:0|0:0,0:0:0:0:
272,284,63567,2,0,P|313:295|373:267,1,88.000002685547,2|0,0:0|0:0,0:0:0:0:
460,202,63878,1,8,0:0:0:0:
321,176,64033,1,2,0:0:0:0:
235,333,64189,6,0,L|241:231,1,88.000002685547,8|0,0:0|0:0,0:0:0:0:
251,112,64500,2,0,P|259:69|287:36,1,88.000002685547,8|0,0:0|0:0,0:0:0:0:
400,37,64810,1,2,0:0:0:0:
399,168,64966,1,2,0:0:0:0:
251,112,65121,2,0,P|210:97|149:130,1,88.000002685547
63,227,65432,6,0,P|109:232|149:197,1,88.000002685547,2|0,0:0|0:0,0:0:0:0:
22,58,65743,2,0,L|34:154,1,88.000002685547,10|0,0:0|0:0,0:0:0:0:
60,318,66054,2,0,L|170:305,1,88.000002685547,10|0,0:0|0:0,0:0:0:0:
270,254,66365,2,0,L|369:266,1,88.000002685547,10|0,0:0|0:0,0:0:0:0:
493,296,66676,5,8,0:0:0:0:
386,184,66831,1,8,0:0:0:0:
357,264,66987,1,8,0:0:0:0:
403,101,67142,1,8,0:0:0:0:
403,101,67453,1,8,0:0:0:0:
204,141,67608,1,12,0:0:0:0:
204,141,67919,5,8,0:0:0:0:
346,200,68074,1,8,0:0:0:0:
282,256,68230,1,8,0:0:0:0:
406,157,68385,1,8,0:0:0:0:
406,157,68696,1,8,0:0:0:0:
451,353,68851,1,12,0:0:0:0:
285,353,69163,6,0,P|240:356|190:319,1,88.000002685547,10|2,0:0|0:0,0:0:0:0:
142,281,69474,2,0,P|101:270|45:290,1,88.000002685547,8|2,0:0|0:0,0:0:0:0:
0,177,69785,2,0,P|-3:134|24:88,1,88.000002685547,10|0,0:0|0:0,0:0:0:0:
137,33,70095,1,8,0:0:0:0:
200,184,70251,6,0,P|265:207|344:162,1,132.00000402832,10|0,0:0|0:0,0:0:0:0:
353,106,70562,2,0,L|355:193,1,88.000002685547,8|8,0:0|0:0,0:0:0:0:
356,341,70873,1,0,0:0:0:0:
204,322,71028,1,0,0:0:0:0:
179,301,71105,1,0,0:0:0:0:
166,272,71183,1,0,0:0:0:0:
170,241,71261,1,0,0:0:0:0:
186,213,71338,1,0,0:0:0:0:
200,184,71416,1,0,0:0:0:0:
202,153,71494,1,0,0:0:0:0:
191,123,71572,1,0,0:0:0:0:
169,100,71650,6,0,P|113:72|38:99,1,132.00000402832,10|0,0:0|0:0,0:0:0:0:
23,113,71961,1,10,0:0:0:0:
108,184,72116,1,2,0:0:0:0:
250,51,72272,2,0,P|292:57|335:109,1,88.000002685547,2|0,0:0|0:0,0:0:0:0:
380,239,72582,2,0,P|313:267|230:230,1,132.00000402832,8|0,0:0|0:0,0:0:0:0:
216,173,72893,6,0,L|225:275,1,88.000002685547,2|0,0:0|0:0,0:0:0:0:
131,363,73204,2,0,P|116:322|124:264,1,88.000002685547,10|0,0:0|0:0,0:0:0:0:
216,173,73515,2,0,L|320:164,1,88.000002685547,10|0,0:0|0:0,0:0:0:0:
426,157,73826,1,10,0:0:0:0:
390,260,73981,1,8,0:0:0:0:
216,173,74137,6,0,P|176:197|169:254,1,88.000002685547,8|0,0:0|0:0,0:0:0:0:
215,363,74448,2,0,L|317:351,1,88.000002685547,8|0,0:0|0:0,0:0:0:0:
390,260,74759,2,0,L|479:269,1,88.000002685547,10|0,0:0|0:0,0:0:0:0:
426,157,75070,2,0,P|374:149|326:181,1,88.000002685547,10|0,0:0|0:0,0:0:0:0:
253,248,75380,6,0,L|150:231,1,88.000002685547,10|0,0:0|0:0,0:0:0:0:
14,209,75691,2,0,P|-4:171|17:104,1,88.000002685547,10|0,0:0|0:0,0:0:0:0:
139,83,76002,2,0,P|195:71|254:101,1,88.000002685547,10|0,0:0|0:0,0:0:0:0:
343,163,76313,2,0,P|353:205|341:247,1,88.000002685547,10|0,0:0|0:0,0:0:0:0:
78,245,76624,6,0,L|178:232,1,88.000002685547,8|8,0:0|0:0,0:0:0:0:
343,163,76935,1,8,0:0:0:0:
288,342,77090,2,0,P|233:339|200:315,1,88.000002685547,2|0,0:0|0:0,0:0:0:0:
165,200,77401,1,8,0:0:0:0:
340,247,77557,1,12,0:0:0:0:
340,247,77867,6,0,L|240:234,1,88.000002685547,2|2,0:0|0:0,0:0:0:0:
75,165,78178,1,2,0:0:0:0:
124,342,78333,2,0,P|179:339|212:315,1,88.000002685547,8|0,0:0|0:0,0:0:0:0:
256,200,78644,1,2,0:0:0:0:
78,249,78800,1,6,0:0:0:0:
78,249,79111,6,0,L|76:160,1,88.000002685547,2|2,0:0|0:0,0:0:0:0:
80,0,79422,2,0,P|123:-8|177:8,1,88.000002685547,8|2,0:0|0:0,0:0:0:0:
277,127,79733,2,0,P|323:137|369:115,1,88.000002685547,8|2,0:0|0:0,0:0:0:0:
460,28,80044,1,8,0:0:0:0:
485,205,80199,6,0,L|482:310,1,88.000002685547,4|0,0:0|0:0,0:0:0:0:
399,379,80510,1,8,0:0:0:0:
272,269,80665,2,0,P|224:245|177:264,1,88.000002685547,2|0,0:0|0:0,0:0:0:0:
69,336,80976,2,0,L|79:227,1,88.000002685547,2|0,0:0|0:0,0:0:0:0:
106,104,81287,1,2,0:0:0:0:
287,146,81443,6,0,B|308:216|256:208|273:273,1,128,10|0,0:0|0:0,0:0:0:0:
195,175,81909,1,8,0:0:0:0:
369,252,82064,1,8,0:0:0:0:
181,322,82220,2,0,P|139:333|88:307,1,96,8|0,0:0|0:0,0:0:0:0:
51,372,82531,2,0,L|58:281,1,64,8|0,0:0|0:0,0:0:0:0:
106,104,82842,6,0,P|151:88|200:100,1,96,8|0,0:0|0:0,0:0:0:0:
221,113,83152,1,8,0:0:0:0:
158,199,83308,1,8,0:0:0:0:
150,46,83463,1,0,0:0:0:0:
172,23,83540,1,0,0:0:0:0:
201,12,83618,1,0,0:0:0:0:
233,15,83696,1,0,0:0:0:0:
260,32,83773,1,8,0:0:0:0:
277,60,83852,1,0,0:0:0:0:
292,88,83930,6,0,P|301:136|288:177,1,64,8|0,0:0|0:0,0:0:0:0:
260,256,84241,1,0,0:0:0:0:
158,199,84396,2,0,L|84:193,1,64,2|0,0:0|0:0,0:0:0:0:
17,288,84707,2,0,L|86:298,1,64,2|0,0:0|0:0,0:0:0:0:
192,358,85018,2,0,L|273:338,1,64,2|0,0:0|0:0,0:0:0:0:
341,202,85329,6,0,P|354:241|344:278,1,64,2|0,0:0|0:0,0:0:0:0:
224,185,85639,2,0,P|221:152|238:104,1,64,10|0,0:0|0:0,0:0:0:0:
299,71,85950,1,0,0:0:0:0:
381,82,86106,1,0,0:0:0:0:
446,132,86261,2,0,L|445:217,1,64,8|0,0:0|0:0,0:0:0:0:
430,368,86572,6,0,L|355:358,1,64,2|0,0:0|0:0,0:0:0:0:
279,268,86883,2,0,P|246:261|206:273,1,64,10|0,0:0|0:0,0:0:0:0:
149,361,87194,2,0,P|116:367|79:349,1,64,10|0,0:0|0:0,0:0:0:0:
15,264,87505,2,0,L|22:191,1,64,10|0,0:0|0:0,0:0:0:0:
66,34,87816,5,2,0:0:0:0:
113,126,87971,1,2,0:0:0:0:
176,9,88127,2,0,P|203:1|253:16,1,64,10|2,0:0|0:0,0:0:0:0:
304,57,88437,1,0,0:0:0:0:
319,139,88593,1,0,0:0:0:0:
283,222,88748,2,0,L|203:229,1,64,8|0,0:0|0:0,0:0:0:0:
149,361,89059,6,0,L|226:366,1,64,2|0,0:0|0:0,0:0:0:0:
412,358,89370,2,0,B|417:325|417:325|400:280,1,64,2|0,0:0|0:0,0:0:0:0:
381,184,89681,2,0,P|378:149|389:113,1,64,2|0,0:0|0:0,0:0:0:0:
399,0,89992,2,0,L|295:8,1,96,10|0,0:0|0:0,0:0:0:0:
206,63,90303,6,0,P|234:78|271:76,1,64,2|0,0:0|0:0,0:0:0:0:
193,179,90614,2,0,P|162:198|126:190,1,64,8|0,0:0|0:0,0:0:0:0:
52,192,90924,1,2,0:0:0:0:
20,269,91080,1,2,0:0:0:0:
68,342,91235,2,0,P|119:359|183:331,1,96,10|0,0:0|0:0,0:0:0:0:
188,275,91546,6,0,L|192:346,1,64,2|0,0:0|0:0,0:0:0:0:
288,316,91857,2,0,L|298:245,1,64,8|0,0:0|0:0,0:0:0:0:
267,149,92168,2,0,L|262:69,1,64,10|0,0:0|0:0,0:0:0:0:
381,184,92479,2,0,P|393:220|383:262,1,64,8|0,0:0|0:0,0:0:0:0:
341,350,92790,5,2,0:0:0:0:
296,252,92945,1,2,0:0:0:0:
191,338,93101,1,2,0:0:0:0:
43,195,93256,1,0,0:0:0:0:
62,169,93333,1,0,0:0:0:0:
87,150,93411,1,0,0:0:0:0:
118,143,93489,1,0,0:0:0:0:
150,149,93566,1,0,0:0:0:0:
180,159,93644,1,0,0:0:0:0:
211,169,93722,1,0,0:0:0:0:
242,168,93800,1,0,0:0:0:0:
267,149,93877,1,4,0:0:0:0:
256,192,93956,12,0,98852,0:0:0:0:
