osu file format v14

[General]
AudioFilename: audio.mp3
AudioLeadIn: 0
PreviewTime: 61080
Countdown: 1
SampleSet: Soft
StackLeniency: 0.4
Mode: 0
LetterboxInBreaks: 0
WidescreenStoryboard: 1

[Editor]
Bookmarks: 41339,86184
DistanceSpacing: 1
BeatDivisor: 4
GridSize: 32
TimelineZoom: 1.8

[Metadata]
Title:Waku-Waku Week
TitleUnicode:Waku-Waku Week
Artist:Aqours
ArtistUnicode:Aqours
Creator:b00
Version:Hard
Source:Love Live Sunshine
Tags:
BeatmapID:1456791
BeatmapSetID:687778

[Difficulty]
HPDrainRate:5
CircleSize:3.6
OverallDifficulty:7
ApproachRate:8
SliderMultiplier:1.2
SliderTickRate:1

[Events]
//Background and Video events
0,0,"Love.Live!.Sunshine!!.full.1992793.jpg",0,0
//Break Periods
//Storyboard Layer 0 (Background)
//Storyboard Layer 1 (Fail)
//Storyboard Layer 2 (Pass)
//Storyboard Layer 3 (Foreground)
//Storyboard Sound Samples

[TimingPoints]
-474,310.880829015544,4,2,0,100,1,0
0,-111.111111111111,4,2,3,50,0,0
4500,-111.111111111111,4,2,3,50,0,0
14292,-125,4,2,3,50,0,0
24707,-111.111111111111,4,2,3,50,0,0
44292,-125,4,2,3,50,0,0
49266,-111.111111111111,4,2,3,50,0,0
61702,-111.111111111111,4,2,3,50,0,1
81443,-111.111111111111,4,2,3,50,0,0

[Colours]
Combo1 : 255,104,32
Combo2 : 255,81,81
Combo3 : 0,64,128

[HitObjects]
256,192,924,12,0,4344,0:0:0:0:
110,131,4500,6,0,P|134:122|181:131,1,53.9999983520508,8|0,0:0|0:0,0:0:0:0:
256,154,4810,2,0,P|289:160|330:149,1,53.9999983520508,2|0,0:0|0:0,0:0:0:0:
417,121,5121,2,0,L|416:196,1,53.9999983520508,2|0,0:0|0:0,0:0:0:0:
417,258,5355,1,0,0:0:0:0:
417,258,5432,2,0,P|382:273|330:254,1,80.9999975280763,2|0,0:0|0:0,0:0:0:0:
303,317,5743,6,2,L|307:239,1,53.9999983520508
190,208,6054,2,2,L|191:273,1,53.9999983520508
212,359,6365,2,2,P|180:370|147:369,2,53.9999983520508
303,317,6831,1,2,0:0:0:0:
243,211,6987,6,2,L|177:207,1,53.9999983520508,8|0,0:0|0:0,0:0:0:0:
52,277,7298,2,0,L|112:265,1,53.9999983520508,2|0,0:0|0:0,0:0:0:0:
98,171,7608,2,0,L|109:108,1,53.9999983520508,2|0,0:0|0:0,0:0:0:0:
136,42,7842,1,0,0:0:0:0:
136,42,7919,2,0,P|170:29|227:53,1,80.9999975280763,10|0,0:0|0:0,0:0:0:0:
245,105,8230,6,2,L|241:51,1,53.9999983520508
349,56,8541,2,2,L|344:121,1,53.9999983520508
285,189,8852,2,0,P|262:201|225:194,2,53.9999983520508,0|0|10,0:0|0:0|0:0,0:0:0:0:
435,127,9474,6,0,L|427:193,1,53.9999983520508,8|0,0:0|0:0,0:0:0:0:
344,295,9785,2,0,L|344:217,1,53.9999983520508,2|0,0:0|0:0,0:0:0:0:
344,109,10095,2,0,L|282:116,1,53.9999983520508,2|0,0:0|0:0,0:0:0:0:
213,141,10329,1,0,0:0:0:0:
213,141,10406,2,0,P|175:148|128:125,1,80.9999975280763,2|0,0:0|0:0,0:0:0:0:
97,67,10717,6,2,L|98:132,1,53.9999983520508
128,274,11028,2,2,P|142:246|143:203,1,53.9999983520508
213,141,11339,2,2,L|215:85,2,53.9999983520508
218,292,11961,6,0,P|254:293|286:280,1,53.9999983520508,8|0,0:0|0:0,0:0:0:0:
325,197,12272,2,0,P|352:194|380:203,1,53.9999983520508,2|0,0:0|0:0,0:0:0:0:
409,296,12582,2,0,P|443:300|471:280,1,53.9999983520508,2|0,0:0|0:0,0:0:0:0:
509,230,12816,1,0,0:0:0:0:
509,230,12893,2,0,L|495:154,1,53.9999983520508,10|0,0:0|0:0,0:0:0:0:
458,86,13204,5,10,0:0:0:0:
458,86,13360,1,10,0:0:0:0:
354,74,13515,1,10,0:0:0:0:
354,74,13671,1,10,0:0:0:0:
257,184,13981,6,2,P|221:188|192:179,1,53.9999983520508
187,68,14292,6,0,P|282:32|363:88,1,192,8|0,0:0|0:0,0:0:0:0:
449,176,15069,2,0,P|416:190|344:170,1,96,8|0,0:0|0:0,0:0:0:0:
187,68,15535,6,8,P|155:175|176:212,1,144
272,325,16313,2,8,P|309:294|310:231,1,96,0|0,0:0|0:0,0:0:0:0:
157,163,16779,6,0,P|64:148|60:232,1,192,8|0,0:0|0:0,0:0:0:0:
317,249,17557,2,0,P|332:185|309:140,1,96,8|0,0:0|0:0,0:0:0:0:
185,50,18023,6,0,L|244:52,1,48,8|0,0:0|0:0,0:0:0:0:
321,75,18334,1,8,0:0:0:0:
322,158,18489,1,8,0:0:0:0:
256,199,18645,2,0,P|226:187|203:159,2,48,8|0|0,0:0|0:0|0:0,0:0:0:0:
410,177,19111,2,0,P|424:224|411:266,1,72,8|0,0:0|0:0,0:0:0:0:
481,275,19422,6,0,L|394:285,1,72,8|0,0:0|0:0,0:0:0:0:
256,199,19733,2,0,L|325:206,1,48,8|0,0:0|0:0,0:0:0:0:
212,302,20044,2,0,L|148:312,1,48,8|0,0:0|0:0,0:0:0:0:
22,316,20355,2,8,B|13:262|13:262|31:207,1,96
98,147,20821,2,8,P|115:134|152:128,2,48
158,231,21287,2,8,P|178:266|176:293,2,48
234,161,21909,5,8,0:0:0:0:
234,161,22064,1,8,0:0:0:0:
309,234,22375,5,8,0:0:0:0:
309,234,22531,1,8,0:0:0:0:
325,136,22842,5,8,0:0:0:0:
325,136,22998,1,8,0:0:0:0:
256,192,23075,12,0,24396,0:0:0:0:
122,124,24707,6,0,L|198:122,1,53.9999983520508,2|0,0:0|0:0,0:0:0:0:
267,137,25018,2,0,L|339:126,1,53.9999983520508,2|0,0:0|0:0,0:0:0:0:
405,82,25329,2,0,L|423:156,1,53.9999983520508,2|0,0:0|0:0,0:0:0:0:
396,227,25639,6,2,P|413:262|414:301,2,53.9999983520508
303,204,26106,2,0,L|226:211,1,53.9999983520508,2|0,0:0|0:0,0:0:0:0:
184,286,26417,2,8,P|174:308|139:328,2,53.9999983520508
144,194,26883,6,0,L|147:120,1,53.9999983520508,10|0,0:0|0:0,0:0:0:0:
158,46,27194,2,2,P|196:38|230:54,1,53.9999983520508,2|0,0:0|0:0,0:0:0:0:
285,95,27505,2,0,P|325:102|358:89,1,53.9999983520508,2|0,0:0|0:0,0:0:0:0:
447,46,27816,2,0,L|440:115,1,53.9999983520508,2|0,0:0|0:0,0:0:0:0:
437,220,28127,5,2,0:0:0:0:
388,315,28282,1,2,0:0:0:0:
333,229,28437,1,2,0:0:0:0:
437,220,28593,2,0,P|476:223|510:241,1,53.9999983520508,2|0,0:0|0:0,0:0:0:0:
388,315,28904,2,8,P|406:343|407:368,2,53.9999983520508
253,292,29370,6,0,P|249:255|263:221,1,53.9999983520508,8|0,0:0|0:0,0:0:0:0:
245,140,29681,2,0,P|238:105|209:79,1,53.9999983520508,2|0,0:0|0:0,0:0:0:0:
144,136,29992,2,0,P|131:178|138:208,1,53.9999983520508,2|0,0:0|0:0,0:0:0:0:
245,140,30303,2,0,P|278:136|314:110,1,53.9999983520508,2|0,0:0|0:0,0:0:0:0:
346,32,30614,5,2,0:0:0:0:
398,131,30769,1,2,0:0:0:0:
296,126,30924,1,2,0:0:0:0:
346,32,31080,2,8,P|415:38|448:69,1,107.999996704102,0|0,0:0|0:0,0:0:0:0:
504,178,31546,2,0,B|473:189|473:189|435:183,1,53.9999983520508,4|8,0:0|0:0,0:0:0:0:
342,202,31857,6,0,P|330:239|344:273,1,53.9999983520508,8|0,0:0|0:0,0:0:0:0:
356,350,32168,2,0,L|287:343,1,53.9999983520508,2|0,0:0|0:0,0:0:0:0:
213,317,32479,2,0,L|141:323,1,53.9999983520508,2|0,0:0|0:0,0:0:0:0:
64,350,32790,2,0,P|32:346|1:316,1,53.9999983520508,2|0,0:0|0:0,0:0:0:0:
16,242,33101,6,2,P|9:213|20:177,2,53.9999983520508
105,157,33567,2,0,P|140:166|178:158,1,53.9999983520508,2|0,0:0|0:0,0:0:0:0:
207,75,33878,1,2,0:0:0:0:
274,147,34033,2,0,L|275:207,1,53.9999983520508,2|0,0:0|0:0,0:0:0:0:
266,349,34344,6,0,P|296:359|332:349,1,53.9999983520508,10|0,0:0|0:0,0:0:0:0:
424,348,34655,2,0,P|427:315|423:289,1,53.9999983520508,2|0,0:0|0:0,0:0:0:0:
412,191,34966,2,0,P|385:186|360:196,1,53.9999983520508,2|0,0:0|0:0,0:0:0:0:
266,349,35277,2,0,L|272:290,1,53.9999983520508,2|0,0:0|0:0,0:0:0:0:
275,199,35588,6,2,L|270:138,1,53.9999983520508
265,48,35899,1,10,0:0:0:0:
173,135,36054,2,0,P|223:159|279:140,1,107.999996704102,2|8,0:0|0:0,0:0:0:0:
354,90,36520,1,8,0:0:0:0:
425,155,36676,6,2,P|432:187|425:222,2,53.9999983520508
354,90,37142,2,0,P|345:60|358:26,1,53.9999983520508,10|0,0:0|0:0,0:0:0:0:
452,27,37453,2,0,P|474:52|481:78,1,53.9999983520508,2|0,0:0|0:0,0:0:0:0:
425,155,37764,2,0,L|360:169,1,53.9999983520508,10|0,0:0|0:0,0:0:0:0:
274,200,38075,6,2,P|274:227|254:257,2,53.9999983520508
183,197,38541,2,0,L|126:169,1,53.9999983520508,10|0,0:0|0:0,0:0:0:0:
205,77,38852,2,0,L|152:85,2,53.9999983520508,8|8|2,0:0|0:0|0:0,0:0:0:0:
311,51,39318,6,0,L|318:121,1,53.9999983520508,10|0,0:0|0:0,0:0:0:0:
282,187,39629,2,0,L|275:248,1,53.9999983520508,10|0,0:0|0:0,0:0:0:0:
237,313,39940,2,0,L|248:374,1,53.9999983520508,10|0,0:0|0:0,0:0:0:0:
338,353,40251,1,10,0:0:0:0:
379,269,40406,6,0,P|384:237|367:196,1,53.9999983520508,2|0,0:0|0:0,0:0:0:0:
313,159,40717,2,2,P|276:158|250:168,1,53.9999983520508,2|10,0:0|0:0,0:0:0:0:
198,238,41028,2,0,P|159:231|126:191,1,80.9999975280763,10|0,0:0|0:0,0:0:0:0:
107,159,41339,1,8,0:0:0:0:
116,313,41494,2,0,P|149:319|190:309,1,53.9999983520508,8|0,0:0|0:0,0:0:0:0:
281,307,41805,6,0,P|288:280|277:235,1,53.9999983520508,10|0,0:0|0:0,0:0:0:0:
260,162,42116,2,0,P|256:137|266:105,1,53.9999983520508,10|0,0:0|0:0,0:0:0:0:
339,62,42427,2,0,P|359:79|369:110,2,53.9999983520508,2|2|8,0:0|0:0|0:0,0:0:0:0:
220,30,42893,6,0,L|149:48,1,53.9999983520508,2|0,0:0|0:0,0:0:0:0:
106,122,43204,2,10,P|99:153|116:185,2,53.9999983520508
206,156,43671,2,0,L|280:164,1,53.9999983520508,10|0,0:0|0:0,0:0:0:0:
351,169,43981,2,0,P|364:194|361:231,1,53.9999983520508,8|0,0:0|0:0,0:0:0:0:
285,253,44292,6,0,P|239:265|194:251,1,96,2|0,0:0|0:0,0:0:0:0:
241,168,44759,1,2,0:0:0:0:
331,127,44914,2,2,P|350:162|351:187,2,48
228,71,45380,6,0,P|202:72|163:88,2,48,2|0|0,0:0|0:0|0:0,0:0:0:0:
326,35,45847,2,0,L|386:42,1,48,2|0,0:0|0:0,0:0:0:0:
492,107,46158,2,0,L|429:118,1,48,2|0,0:0|0:0,0:0:0:0:
351,169,46469,2,0,P|346:217|360:247,1,72,2|0,0:0|0:0,0:0:0:0:
455,280,46779,6,2,L|356:282,1,96
188,200,47401,2,0,P|185:175|190:146,2,48,2|2|8,0:0|0:0|0:0,0:0:0:0:
245,293,47867,6,2,P|221:304|179:304,2,48
317,226,48334,2,0,P|326:189|310:139,1,72,10|0,0:0|0:0,0:0:0:0:
258,114,48645,2,8,L|320:118,1,48
412,121,48956,2,0,P|414:152|403:175,1,48,2|0,0:0|0:0,0:0:0:0:
317,226,49266,6,0,P|264:234|215:213,1,107.999996704102,10|2,0:0|0:0,0:0:0:0:
137,143,49733,2,0,P|131:116|138:90,2,53.9999983520508,2|0|0,0:0|0:0|0:0,0:0:0:0:
128,243,50199,1,8,0:0:0:0:
258,114,50355,6,0,L|264:58,1,53.9999983520508,2|0,0:0|0:0,0:0:0:0:
379,49,50665,2,0,L|394:105,1,53.9999983520508,2|0,0:0|0:0,0:0:0:0:
356,235,50976,2,0,L|368:176,1,53.9999983520508,2|0,0:0|0:0,0:0:0:0:
460,172,51287,2,2,P|486:175|513:165,2,53.9999983520508
356,235,51753,6,0,P|318:256|263:236,1,80.9999975280763,10|0,0:0|0:0,0:0:0:0:
233,295,52064,2,2,L|233:241,1,53.9999983520508
256,133,52375,1,8,0:0:0:0:
355,181,52531,2,0,L|356:254,1,53.9999983520508,2|0,0:0|0:0,0:0:0:0:
342,351,52842,6,0,P|369:353|395:347,1,53.9999983520508,2|8,0:0|0:0,0:0:0:0:
467,289,53152,2,2,P|472:264|462:222,1,53.9999983520508
431,150,53463,2,0,L|437:85,1,53.9999983520508,10|0,0:0|0:0,0:0:0:0:
447,3,53774,1,2,0:0:0:0:
347,59,53930,2,0,P|306:69|255:47,1,80.9999975280763,10|0,0:0|0:0,0:0:0:0:
224,41,54241,5,8,0:0:0:0:
224,41,54396,1,8,0:0:0:0:
115,171,54551,2,0,P|156:183|212:162,1,80.9999975280763,8|0,0:0|0:0,0:0:0:0:
240,166,54862,1,8,0:0:0:0:
240,166,55018,1,8,0:0:0:0:
310,298,55173,2,0,P|274:311|220:294,1,80.9999975280763,10|0,0:0|0:0,0:0:0:0:
186,287,55484,5,8,0:0:0:0:
186,287,55639,1,8,0:0:0:0:
319,198,55795,2,0,L|314:128,1,53.9999983520508,10|0,0:0|0:0,0:0:0:0:
415,93,56106,2,2,P|407:73|381:50,2,53.9999983520508
434,211,56572,6,0,L|319:224,1,107.999996704102,10|0,0:0|0:0,0:0:0:0:
186,287,57038,2,0,P|178:248|193:206,1,80.9999975280763,2|0,0:0|0:0,0:0:0:0:
247,175,57349,2,0,B|226:169|226:169|193:170,1,53.9999983520508,2|0,0:0|0:0,0:0:0:0:
95,181,57660,1,8,0:0:0:0:
17,251,57816,1,8,0:0:0:0:
102,287,57971,5,12,0:0:0:0:
95,181,58127,2,8,L|96:137,2,26.9999991760254
186,287,58437,2,8,L|186:313,2,26.9999991760254
247,175,58748,2,8,L|246:148,4,26.9999991760254
287,300,59215,6,0,L|365:294,1,53.9999983520508,10|0,0:0|0:0,0:0:0:0:
430,219,59525,2,0,L|364:212,1,53.9999983520508,10|0,0:0|0:0,0:0:0:0:
246,148,59836,2,0,L|315:138,1,53.9999983520508,10|0,0:0|0:0,0:0:0:0:
398,120,60147,1,2,0:0:0:0:
347,35,60303,2,0,L|271:38,1,53.9999983520508,10|0,0:0|0:0,0:0:0:0:
178,45,60614,1,2,0:0:0:0:
88,113,60769,2,0,P|76:164|91:209,1,80.9999975280763,10|0,0:0|0:0,0:0:0:0:
36,230,61080,2,0,L|111:225,1,53.9999983520508,2|0,0:0|0:0,0:0:0:0:
150,298,61391,2,0,L|227:300,1,53.9999983520508,2|0,0:0|0:0,0:0:0:0:
312,322,61702,6,0,P|342:294|356:240,1,80.9999975280763,10|0,0:0|0:0,0:0:0:0:
349,208,62013,1,8,0:0:0:0:
249,176,62168,2,2,P|248:211|255:229,2,53.9999983520508,0|0|0,0:0|0:0|0:0,0:0:0:0:
318,101,62634,2,0,L|389:105,1,53.9999983520508,10|0,0:0|0:0,0:0:0:0:
478,195,62945,6,0,L|402:205,1,53.9999983520508,10|0,0:0|0:0,0:0:0:0:
302,183,63256,2,0,L|239:174,1,53.9999983520508,10|0,0:0|0:0,0:0:0:0:
182,258,63567,2,0,L|104:265,1,53.9999983520508,10|0,0:0|0:0,0:0:0:0:
16,280,63878,1,10,0:0:0:0:
33,174,64033,6,0,P|34:142|53:116,2,53.9999983520508,2|0|0,0:0|0:0|0:0,0:0:0:0:
126,169,64500,2,0,P|158:165|191:147,1,53.9999983520508,10|0,0:0|0:0,0:0:0:0:
241,95,64810,2,0,P|273:93|312:99,1,53.9999983520508,8|0,0:0|0:0,0:0:0:0:
389,187,65121,2,0,P|399:144|384:95,1,80.9999975280763,10|0,0:0|0:0,0:0:0:0:
456,66,65432,6,0,L|402:62,1,53.9999983520508,2|0,0:0|0:0,0:0:0:0:
303,44,65743,2,0,P|291:79|300:107,1,53.9999983520508,10|0,0:0|0:0,0:0:0:0:
295,185,66054,2,0,P|294:222|281:245,1,53.9999983520508,10|0,0:0|0:0,0:0:0:0:
261,326,66365,2,0,L|189:318,1,53.9999983520508,10|0,0:0|0:0,0:0:0:0:
102,317,66676,5,2,0:0:0:0:
149,230,66831,1,2,0:0:0:0:
207,320,66987,1,2,0:0:0:0:
102,317,67142,2,0,P|53:292|31:246,1,80.9999975280763,2|0,0:0|0:0,0:0:0:0:
40,236,67453,1,8,0:0:0:0:
40,236,67608,1,8,0:0:0:0:
196,143,67919,5,2,0:0:0:0:
149,230,68074,1,2,0:0:0:0:
91,140,68230,1,2,0:0:0:0:
196,143,68385,2,0,P|244:167|266:213,1,80.9999975280763,2|0,0:0|0:0,0:0:0:0:
258,224,68696,1,8,0:0:0:0:
258,224,68851,1,8,0:0:0:0:
388,333,69163,6,2,B|388:305|388:305|380:258,1,53.9999983520508
343,203,69474,2,0,P|345:174|355:140,1,53.9999983520508,10|2,2:0|2:0,2:0:0:0:
433,116,69785,2,2,P|434:91|423:62,1,53.9999983520508,10|2,0:0|0:0,0:0:0:0:
331,29,70095,1,8,0:0:0:0:
263,121,70251,6,0,P|226:132|167:109,1,80.9999975280763,10|0,0:0|0:0,0:0:0:0:
147,53,70562,2,0,L|142:122,1,53.9999983520508,10|0,0:0|0:0,0:0:0:0:
140,208,70873,1,8,0:0:0:0:
262,234,71028,1,8,0:0:0:0:
294,247,71106,1,8,0:0:0:0:
320,270,71184,1,8,0:0:0:0:
334,301,71261,1,8,0:0:0:0:
329,335,71339,1,8,0:0:0:0:
307,363,71417,2,8,P|287:372|260:364,2,26.9999991760254
247,372,71650,6,0,L|173:370,1,53.9999983520508,10|0,0:0|0:0,0:0:0:0:
149,288,71961,2,0,P|184:272|220:280,1,53.9999983520508,10|0,0:0|0:0,0:0:0:0:
320,270,72272,2,0,L|389:276,1,53.9999983520508,2|0,0:0|0:0,0:0:0:0:
464,316,72582,2,0,P|472:277|455:236,1,80.9999975280763,10|0,0:0|0:0,0:0:0:0:
512,194,72893,6,0,L|424:187,1,80.9999975280763,10|0,0:0|0:0,0:0:0:0:
262,158,73204,2,0,L|330:150,1,53.9999983520508,10|0,0:0|0:0,0:0:0:0:
452,82,73515,2,0,L|389:81,1,53.9999983520508,10|0,0:0|0:0,0:0:0:0:
279,63,73826,1,10,0:0:0:0:
173,132,73981,6,0,P|167:167|183:201,2,53.9999983520508,2|8|0,0:0|0:0|0:0,0:0:0:0:
136,40,74448,2,0,P|113:38|70:54,1,53.9999983520508,8|0,0:0|0:0,0:0:0:0:
24,138,74759,2,0,L|33:202,1,53.9999983520508,8|0,0:0|0:0,0:0:0:0:
74,281,75070,2,0,P|112:296|156:287,1,80.9999975280763,10|0,0:0|0:0,0:0:0:0:
185,352,75380,6,0,L|190:280,1,53.9999983520508,10|0,0:0|0:0,0:0:0:0:
280,183,75691,2,0,L|286:250,1,53.9999983520508,10|0,0:0|0:0,0:0:0:0:
313,356,76002,2,0,P|352:355|381:340,1,53.9999983520508,10|0,0:0|0:0,0:0:0:0:
442,232,76313,2,2,L|375:227,1,53.9999983520508,8|2,0:0|0:0,0:0:0:0:
217,216,76624,6,0,B|231:191|231:191|265:161,1,53.9999983520508,10|0,0:0|0:0,0:0:0:0:
348,129,76935,1,10,0:0:0:0:
265,81,77090,2,0,P|216:67|175:82,1,80.9999975280763,2|0,0:0|0:0,0:0:0:0:
155,87,77401,1,8,0:0:0:0:
155,87,77557,1,8,0:0:0:0:
217,216,77867,6,0,B|245:218|245:218|289:208,1,53.9999983520508
363,158,78178,1,0,0:0:0:0:
355,254,78333,2,0,P|340:305|302:327,1,80.9999975280763
289,339,78644,1,0,0:0:0:0:
289,339,78800,1,0,0:0:0:0:
100,255,79111,6,2,P|98:223|116:191,1,53.9999983520508,10|2,0:0|0:0,0:0:0:0:
215,163,79422,2,0,P|221:196|212:226,1,53.9999983520508,10|2,0:0|0:0,0:0:0:0:
209,330,79733,2,0,P|175:323|149:295,1,53.9999983520508,10|2,0:0|0:0,0:0:0:0:
216,215,80044,1,8,0:0:0:0:
216,215,80199,6,0,L|280:218,1,53.9999983520508,2|0,0:0|0:0,0:0:0:0:
432,227,80510,1,8,0:0:0:0:
463,127,80665,2,0,P|435:120|393:136,1,53.9999983520508,10|0,0:0|0:0,0:0:0:0:
321,89,80976,2,0,L|259:83,1,53.9999983520508,2|0,0:0|0:0,0:0:0:0:
173,132,81287,1,2,0:0:0:0:
173,132,81443,6,0,P|108:178|150:243,1,161.999995056153,10|8,0:0|0:0,0:0:0:0:
225,203,82064,1,8,0:0:0:0:
316,185,82220,2,0,P|349:187|371:199,1,53.9999983520508,8|0,0:0|0:0,0:0:0:0:
448,253,82531,2,0,P|433:275|411:290,1,53.9999983520508,8|0,0:0|0:0,0:0:0:0:
315,344,82842,6,0,B|274:350|274:350|220:334,1,80.9999975280763,8|0,0:0|0:0,0:0:0:0:
208,318,83152,1,8,0:0:0:0:
208,318,83308,1,8,0:0:0:0:
139,239,83463,2,8,L|141:203,5,26.9999991760254
135,283,83930,6,0,P|86:308|32:281,1,107.999996704102,8|0,0:0|0:0,0:0:0:0:
25,182,84396,2,0,L|38:115,1,53.9999983520508,10|0,0:0|0:0,0:0:0:0:
117,84,84707,2,0,L|112:25,1,53.9999983520508,2|0,0:0|0:0,0:0:0:0:
195,122,85018,2,0,P|220:126|270:110,1,53.9999983520508,10|0,0:0|0:0,0:0:0:0:
348,120,85329,6,2,L|352:55,1,53.9999983520508
444,117,85639,2,0,L|454:186,1,53.9999983520508,10|2,0:0|0:0,0:0:0:0:
466,271,85950,2,0,P|431:283|375:271,1,80.9999975280763,8|0,0:0|0:0,0:0:0:0:
345,227,86261,2,0,L|351:297,1,53.9999983520508,8|0,0:0|0:0,0:0:0:0:
352,374,86572,6,0,P|317:380|272:364,1,80.9999975280763,8|0,0:0|0:0,0:0:0:0:
234,384,86883,2,0,L|228:330,1,53.9999983520508,2|0,0:0|0:0,0:0:0:0:
151,216,87194,2,0,L|147:272,1,53.9999983520508,2|0,0:0|0:0,0:0:0:0:
37,376,87505,2,0,L|43:322,1,53.9999983520508,10|0,0:0|0:0,0:0:0:0:
27,144,87816,6,2,P|65:135|99:143,1,53.9999983520508
192,146,88127,1,10,0:0:0:0:
318,129,88282,2,0,P|321:107|306:66,1,53.9999983520508,10|0,0:0|0:0,0:0:0:0:
205,30,88593,1,2,0:0:0:0:
192,146,88748,2,0,P|220:181|243:192,1,53.9999983520508,8|0,0:0|0:0,0:0:0:0:
323,266,89059,6,0,L|252:272,1,53.9999983520508,2|0,0:0|0:0,0:0:0:0:
93,262,89370,2,0,L|166:270,1,53.9999983520508,10|0,0:0|0:0,0:0:0:0:
185,379,89681,2,0,P|201:363|203:322,1,53.9999983520508
227,185,89992,2,0,P|233:158|264:126,1,53.9999983520508
396,194,90303,6,2,L|330:181,1,53.9999983520508
317,84,90614,2,0,L|381:80,1,53.9999983520508,10|2,0:0|0:0,0:0:0:0:
462,128,90924,2,0,P|497:126|516:113,2,53.9999983520508,0|0|8,0:0|0:0|0:0,0:0:0:0:
210,133,91546,6,0,P|251:154|304:135,1,80.9999975280763,8|0,0:0|0:0,0:0:0:0:
317,84,91857,2,0,L|318:138,1,53.9999983520508,10|0,0:0|0:0,0:0:0:0:
402,247,92168,2,0,L|395:188,1,53.9999983520508,10|0,0:0|0:0,0:0:0:0:
298,231,92479,2,0,L|237:242,1,53.9999983520508,10|0,0:0|0:0,0:0:0:0:
141,253,92790,6,2,P|131:236|134:186,1,53.9999983520508,2|10,0:0|0:0,0:0:0:0:
187,93,93101,1,8,0:0:0:0:
63,76,93256,1,8,0:0:0:0:
48,98,93334,1,8,0:0:0:0:
44,125,93412,2,8,P|44:143|57:167,5,26.9999991760254
58,186,93878,6,0,P|113:202|187:179,1,134.999995880127,10|0,0:0|0:0,0:0:0:0:
256,192,94344,12,0,98977,0:0:0:0:
