osu file format v14

[General]
AudioFilename: Thrilling One Way.mp3
AudioLeadIn: 0
PreviewTime: 137807
Countdown: 0
SampleSet: Soft
StackLeniency: 0.7
Mode: 3
LetterboxInBreaks: 0
SpecialStyle: 0
WidescreenStoryboard: 0

[Editor]
DistanceSpacing: 1.5
BeatDivisor: 4
GridSize: 16
TimelineZoom: 2.900005

[Metadata]
Title:Thrilling One Way
TitleUnicode:スリリング・ワンウェイ
Artist:Aqours
ArtistUnicode:Aqours
Creator:Reyzra
Version:6K Maximum Live!
Source:ラブライブ!サンシャイン!!
Tags:Love Live! Sunshine!! Hata Aki 畑 亜貴 Fujii Ryouta 藤井亮太 Kodaka Koutarou 小高光太郎 Blue-Ray 6 BD Takami Chika 高海千歌 Inami Anju 伊波杏樹 Sakurauchi Riko 桜内梨子 Aida Rikako 逢田梨香子 Matsuura Kanan 松浦果南 Suwa Nanaka 諏訪ななか Kurosawa Dia 黒澤ダイヤ Komiya Arisa 小宮有紗 Watanabe You 渡辺 曜 Saito Shuka 斉藤朱夏 Tsushima Yoshiko 津島善子 Kobayashi Aika 小林愛香 Kunikida Hanamaru 国木田花丸 Takatsuki Kanako 高槻かなこ Ohara Mari 小原鞠莉 Suzuki Aina 鈴木愛奈 Kurosawa Ruby 黒澤ルビィ Furihata Ai 降幡 愛 marathon full ver. version Aqours Best Album: Aqours CHRONICLE track 23. 23 ラブライブ! スクールアイドルフェスティバル Love Live! School idol festival japanese j-pop jpop pop ラブライブ! スクールアイドルフェスティバル ALL STARS Love Live! School Idol Festival ALL STARS
BeatmapID:1336663
BeatmapSetID:599620

[Difficulty]
HPDrainRate:8.5
CircleSize:6
OverallDifficulty:8.5
ApproachRate:10
SliderMultiplier:1.4
SliderTickRate:1

[Events]
//Background and Video events
0,0,"BG.jpg",0,0
//Break Periods
//Storyboard Layer 0 (Background)
//Storyboard Layer 1 (Fail)
//Storyboard Layer 2 (Pass)
//Storyboard Layer 3 (Foreground)
//Storyboard Layer 4 (Overlay)
//Storyboard Sound Samples

[TimingPoints]
-500,307.692307692308,4,2,2,50,1,0
20576,-133.333333333333,4,2,2,50,0,0
20653,-79.9999999999999,4,2,2,50,0,0
20730,-133.333333333333,4,2,2,50,0,0
20807,-79.9999999999999,4,2,2,50,0,0
20884,-100,4,2,2,50,0,0
21192,-133.333333333333,4,2,2,50,0,0
21269,-79.9999999999999,4,2,2,50,0,0
21346,-133.333333333333,4,2,2,50,0,0
21423,-79.9999999999999,4,2,2,50,0,0
21500,-100,4,2,2,50,0,0
21807,-133.333333333333,4,2,2,50,0,0
21884,-79.9999999999999,4,2,2,50,0,0
21961,-133.333333333333,4,2,2,50,0,0
22038,-79.9999999999999,4,2,2,50,0,0
22115,-100,4,2,2,50,0,0
22423,-133.333333333333,4,2,2,50,0,0
22500,-79.9999999999999,4,2,2,50,0,0
22576,-133.333333333333,4,2,2,50,0,0
22653,-79.9999999999999,4,2,2,50,0,0
22730,-100,4,2,2,50,0,0
32884,-66.6666666666667,4,2,2,50,0,0
32923,-79.9999999999999,4,2,2,50,0,0
32961,-133.333333333333,4,2,2,50,0,0
33000,-285.714285714284,4,2,2,50,0,0
33038,-133.333333333333,4,2,2,50,0,0
33076,-100,4,2,2,50,0,0
33115,-79.9999999999999,4,2,2,50,0,0
33153,-66.6666666666667,4,2,2,50,0,0
33192,-100,4,2,2,50,0,0
33346,-66.6666666666667,4,2,2,50,0,0
33384,-79.9999999999999,4,2,2,50,0,0
33423,-133.333333333333,4,2,2,50,0,0
33461,-285.714285714284,4,2,2,50,0,0
33500,-133.333333333333,4,2,2,50,0,0
33538,-100,4,2,2,50,0,0
33576,-79.9999999999999,4,2,2,50,0,0
33615,-66.6666666666667,4,2,2,50,0,0
33653,-100,4,2,2,50,0,0
33807,-66.6666666666667,4,2,2,50,0,0
33846,-79.9999999999999,4,2,2,50,0,0
33884,-133.333333333333,4,2,2,50,0,0
33923,-285.714285714284,4,2,2,50,0,0
33961,-133.333333333333,4,2,2,50,0,0
34000,-100,4,2,2,50,0,0
34038,-79.9999999999999,4,2,2,50,0,0
34076,-66.6666666666667,4,2,2,50,0,0
34115,-100,4,2,2,50,0,0
34269,-66.6666666666667,4,2,2,50,0,0
34307,-79.9999999999999,4,2,2,50,0,0
34346,-133.333333333333,4,2,2,50,0,0
34384,-285.714285714284,4,2,2,50,0,0
34423,-133.333333333333,4,2,2,50,0,0
34461,-100,4,2,2,50,0,0
34500,-79.9999999999999,4,2,2,50,0,0
34538,-66.6666666666667,4,2,2,50,0,0
34576,-100,4,2,2,50,0,0
34730,-66.6666666666667,4,2,2,50,0,0
34769,-79.9999999999999,4,2,2,50,0,0
34807,-133.333333333333,4,2,2,50,0,0
34846,-285.714285714284,4,2,2,50,0,0
34884,-133.333333333333,4,2,2,50,0,0
34961,-100,4,2,2,50,0,0
35038,-79.9999999999999,4,2,2,50,0,0
35115,-66.6666666666667,4,2,2,50,0,0
35192,-100,4,2,2,50,0,0
42576,-79.9999999999999,4,2,2,50,0,0
42884,-200,4,2,2,50,0,0
43038,-79.9999999999999,4,2,2,50,0,0
43346,-200,4,2,2,50,0,0
43500,-79.9999999999999,4,2,2,50,0,0
43807,-200,4,2,2,50,0,0
43961,-79.9999999999999,4,2,2,50,0,0
44269,-200,4,2,2,50,0,0
44423,-100,4,2,2,50,0,0
54269,-79.9999999999999,4,2,2,50,0,0
54346,-133.333333333333,4,2,2,50,0,0
54423,-79.9999999999999,4,2,2,50,0,0
54500,-133.333333333333,4,2,2,50,0,0
54576,-100,4,2,2,50,0,0
54884,-50,4,2,2,50,0,0
54923,-149.253731343284,4,2,2,50,0,0
55038,-50,4,2,2,50,0,0
55076,-149.253731343284,4,2,2,50,0,0
55192,-100,4,2,2,50,0,0
61038,-50,4,2,2,50,0,0
61076,-100,4,2,2,50,0,0
62269,-50,4,2,2,50,0,0
62307,-100,4,2,2,50,0,0
62730,-50,4,2,2,50,0,0
62769,-100,4,2,2,50,0,0
63192,-50,4,2,2,50,0,0
63230,-100,4,2,2,50,0,0
63653,-50,4,2,2,50,0,0
63692,-100,4,2,2,50,0,0
64115,-66.6666666666667,4,2,2,50,0,0
64192,-200,4,2,2,50,0,0
64269,-100,4,2,2,50,0,0
64730,-79.9999999999999,4,2,2,50,0,0
64807,-133.333333333333,4,2,2,50,0,0
64884,-79.9999999999999,4,2,2,50,0,0
64961,-133.333333333333,4,2,2,50,0,0
65038,-79.9999999999999,4,2,2,50,0,0
65115,-133.333333333333,4,2,2,50,0,0
65191,-66.6666666666667,4,2,2,50,0,0
65268,-200,4,2,2,50,0,0
65345,-133.333333333333,4,2,2,50,0,0
65422,-66.6666666666667,4,2,2,50,0,0
65576,-200,4,2,2,50,0,0
65653,-133.333333333333,4,2,2,50,0,0
65730,-66.6666666666667,4,2,2,50,0,0
65884,-200,4,2,2,50,0,0
65961,-133.333333333333,4,2,2,50,0,0
66038,-66.6666666666667,4,2,2,50,0,0
66115,-79.9999999999999,4,2,2,50,0,0
66191,-133.333333333333,4,2,2,50,0,0
66268,-100,4,2,2,50,0,0
67038,-100,4,2,2,50,0,1
84423,-200,4,2,2,50,0,1
84653,-66.6666666666667,4,2,2,50,0,1
84730,-100,4,2,2,50,0,1
84884,-200,4,2,2,50,0,1
85038,-66.6666666666667,4,2,2,50,0,1
85192,-200,4,2,2,50,0,1
85346,-66.6666666666667,4,2,2,50,0,1
85500,-200,4,2,2,50,0,1
85807,-66.6666666666667,4,2,2,50,0,1
85961,-200,4,2,2,50,0,1
86115,-66.6666666666667,4,2,2,50,0,1
86269,-100,4,2,2,50,0,1
86730,-100,4,2,2,50,0,0
91653,-66.6666666666667,4,2,2,50,0,0
91730,-133.333333333333,4,2,2,50,0,0
91807,-200,4,2,2,50,0,0
91961,-100,4,2,2,50,0,0
92115,-79.9999999999999,4,2,2,50,0,0
92269,-66.6666666666667,4,2,2,50,0,0
92346,-133.333333333333,4,2,2,50,0,0
92423,-200,4,2,2,50,0,0
92576,-100,4,2,2,50,0,0
92730,-79.9999999999999,4,2,2,50,0,0
92884,-66.6666666666667,4,2,2,50,0,0
92961,-133.333333333333,4,2,2,50,0,0
93038,-200,4,2,2,50,0,0
93192,-100,4,2,2,50,0,0
93346,-79.9999999999999,4,2,2,50,0,0
93500,-66.6666666666667,4,2,2,50,0,0
93576,-133.333333333333,4,2,2,50,0,0
93653,-200,4,2,2,50,0,0
93807,-100,4,2,2,50,0,0
101961,-83.3333333333333,4,2,2,50,0,0
102038,-125,4,2,2,50,0,0
102115,-83.3333333333333,4,2,2,50,0,0
102192,-125,4,2,2,50,0,0
102269,-83.3333333333333,4,2,2,50,0,0
102346,-125,4,2,2,50,0,0
102423,-83.3333333333333,4,2,2,50,0,0
102500,-125,4,2,2,50,0,0
102576,-83.3333333333333,4,2,2,50,0,0
102653,-125,4,2,2,50,0,0
102730,-83.3333333333333,4,2,2,50,0,0
102807,-125,4,2,2,50,0,0
102884,-83.3333333333333,4,2,2,50,0,0
102961,-125,4,2,2,50,0,0
103038,-83.3333333333333,4,2,2,50,0,0
103115,-125,4,2,2,50,0,0
103192,-83.3333333333333,4,2,2,50,0,0
103269,-125,4,2,2,50,0,0
103346,-83.3333333333333,4,2,2,50,0,0
103423,-125,4,2,2,50,0,0
103500,-83.3333333333333,4,2,2,50,0,0
103576,-125,4,2,2,50,0,0
103653,-83.3333333333333,4,2,2,50,0,0
103730,-125,4,2,2,50,0,0
103807,-83.3333333333333,4,2,2,50,0,0
103884,-125,4,2,2,50,0,0
103961,-100,4,2,2,50,0,0
113961,-79.9999999999999,4,2,2,50,0,0
114269,-200,4,2,2,50,0,0
114423,-79.9999999999999,4,2,2,50,0,0
114730,-200,4,2,2,50,0,0
114884,-79.9999999999999,4,2,2,50,0,0
115192,-200,4,2,2,50,0,0
115346,-79.9999999999999,4,2,2,50,0,0
115653,-200,4,2,2,50,0,0
115807,-100,4,2,2,50,0,0
125269,-66.6666666666667,4,2,2,50,0,0
125346,-100,4,2,2,50,0,0
125576,-66.6666666666667,4,2,2,50,0,0
125653,-100,4,2,2,50,0,0
125884,-66.6666666666667,4,2,2,50,0,0
125961,-100,4,2,2,50,0,0
131346,-50,4,2,2,50,0,0
131653,-100,4,2,2,50,0,0
131807,-200,4,2,2,50,0,0
132269,-66.6666666666667,4,2,2,50,0,0
132423,-100,4,2,2,50,0,0
133653,-79.9999999999999,4,2,2,50,0,0
133807,-133.333333333333,4,2,2,50,0,0
133961,-79.9999999999999,4,2,2,50,0,0
134269,-133.333333333333,4,2,2,50,0,0
134423,-79.9999999999999,4,2,2,50,0,0
134730,-133.333333333333,4,2,2,50,0,0
134884,-79.9999999999999,4,2,2,50,0,0
135192,-133.333333333333,4,2,2,50,0,0
135346,-79.9999999999999,4,2,2,50,0,0
135500,-100,4,2,2,50,0,0
136115,-79.9999999999999,4,2,2,50,0,0
136192,-133.333333333333,4,2,2,50,0,0
136269,-79.9999999999999,4,2,2,50,0,0
136346,-133.333333333333,4,2,2,50,0,0
136423,-79.9999999999999,4,2,2,50,0,0
136500,-133.333333333333,4,2,2,50,0,0
136576,-66.6666666666667,4,2,2,50,0,0
136653,-200,4,2,2,50,0,0
136730,-133.333333333333,4,2,2,50,0,0
136807,-66.6666666666667,4,2,2,50,0,0
136961,-200,4,2,2,50,0,0
137038,-133.333333333333,4,2,2,50,0,0
137115,-66.6666666666667,4,2,2,50,0,0
137269,-200,4,2,2,50,0,0
137346,-133.333333333333,4,2,2,50,0,0
137423,-66.6666666666667,4,2,2,50,0,0
137500,-79.9999999999999,4,2,2,50,0,0
137576,-133.333333333333,4,2,2,50,0,0
137653,-100,4,2,2,50,0,0
138423,-100,4,2,2,50,0,1
155807,-66.6666666666667,4,2,2,50,0,1
155884,-200,4,2,2,50,0,1
155961,-133.333333333333,4,2,2,50,0,1
156038,-66.6666666666667,4,2,2,50,0,1
156115,-100,4,2,2,50,0,1
156192,-125,4,2,2,50,0,1
156269,-66.6666666666667,4,2,2,50,0,1
156346,-200,4,2,2,50,0,1
156423,-133.333333333333,4,2,2,50,0,1
156500,-66.6666666666667,4,2,2,50,0,1
156653,-200,4,2,2,50,0,1
156730,-133.333333333333,4,2,2,50,0,1
156807,-66.6666666666667,4,2,2,50,0,1
156961,-200,4,2,2,50,0,1
157038,-133.333333333333,4,2,2,50,0,1
157115,-100,4,2,2,50,0,1
157192,-79.9999999999999,4,2,2,50,0,1
157269,-66.6666666666667,4,2,2,50,0,1
157423,-200,4,2,2,50,0,1
157500,-133.333333333333,4,2,2,50,0,1
157576,-66.6666666666667,4,2,2,50,0,1
157730,-79.9999999999999,4,2,2,50,0,1
157807,-100,4,2,2,50,0,1
157884,-133.333333333333,4,2,2,50,0,1
157961,-200,4,2,2,50,0,1
158038,-133.333333333333,4,2,2,50,0,1
158115,-79.9999999999999,4,2,2,50,0,1
158192,-66.6666666666667,4,2,2,50,0,1
158269,-100,4,2,2,50,0,0
158653,-76.9230769230769,4,2,2,50,0,0
158730,-142.857142857143,4,2,2,50,0,0
158961,-76.9230769230769,4,2,2,50,0,0
159038,-142.857142857143,4,2,2,50,0,0
159269,-76.9230769230769,4,2,2,50,0,0
159346,-142.857142857143,4,2,2,50,0,0
159500,-100,4,2,2,50,0,0
161115,-76.9230769230769,4,2,2,50,0,0
161192,-142.857142857143,4,2,2,50,0,0
161423,-76.9230769230769,4,2,2,50,0,0
161500,-142.857142857143,4,2,2,50,0,0
161730,-76.9230769230769,4,2,2,50,0,0
161807,-142.857142857143,4,2,2,50,0,0
161961,-100,4,2,2,50,0,0
163576,-76.9230769230769,4,2,2,50,0,0
163653,-142.857142857143,4,2,2,50,0,0
163884,-76.9230769230769,4,2,2,50,0,0
163961,-142.857142857143,4,2,2,50,0,0
164192,-76.9230769230769,4,2,2,50,0,0
164269,-142.857142857143,4,2,2,50,0,0
164423,-100,4,2,2,50,0,0
165653,-76.9230769230769,4,2,2,50,0,0
165692,-100,4,2,2,50,0,0
165730,-133.333333333333,4,2,2,50,0,0
165769,-200,4,2,2,50,0,0
165807,-133.333333333333,4,2,2,50,0,0
165846,-111.111111111111,4,2,2,50,0,0
165884,-90.9090909090909,4,2,2,50,0,0
165923,-76.9230769230769,4,2,2,50,0,0
165961,-100,4,2,2,50,0,0
166115,-76.9230769230769,4,2,2,50,0,0
166153,-100,4,2,2,50,0,0
166192,-133.333333333333,4,2,2,50,0,0
166230,-200,4,2,2,50,0,0
166269,-133.333333333333,4,2,2,50,0,0
166307,-111.111111111111,4,2,2,50,0,0
166346,-90.9090909090909,4,2,2,50,0,0
166384,-76.9230769230769,4,2,2,50,0,0
166423,-100,4,2,2,50,0,0
166576,-76.9230769230769,4,2,2,50,0,0
166615,-100,4,2,2,50,0,0
166653,-133.333333333333,4,2,2,50,0,0
166692,-200,4,2,2,50,0,0
166730,-133.333333333333,4,2,2,50,0,0
166769,-111.111111111111,4,2,2,50,0,0
166807,-90.9090909090909,4,2,2,50,0,0
166846,-76.9230769230769,4,2,2,50,0,0
166884,-100,4,2,2,50,0,0
167038,-76.9230769230769,4,2,2,50,0,0
167076,-100,4,2,2,50,0,0
167115,-133.333333333333,4,2,2,50,0,0
167153,-200,4,2,2,50,0,0
167346,-100,4,2,2,50,0,0
167423,-76.9230769230769,4,2,2,50,0,0
167500,-100,4,2,2,50,0,0
167653,-200,4,2,2,50,0,0
167730,-133.333333333333,4,2,2,50,0,0
167807,-100,4,2,2,50,0,0
167884,-66.6666666666667,4,2,2,50,0,0
167961,-100,4,2,2,50,0,0
190269,-100,4,2,2,10,0,0
200115,-100,4,2,2,50,0,0
205346,-90.9090909090909,4,2,2,50,0,0
205423,-111.111111111111,4,2,2,50,0,0
205500,-90.9090909090909,4,2,2,50,0,0
205576,-111.111111111111,4,2,2,50,0,0
205653,-90.9090909090909,4,2,2,50,0,0
205730,-111.111111111111,4,2,2,50,0,0
205807,-90.9090909090909,4,2,2,50,0,0
205884,-111.111111111111,4,2,2,50,0,0
205961,-90.9090909090909,4,2,2,50,0,0
206038,-111.111111111111,4,2,2,50,0,0
206115,-90.9090909090909,4,2,2,50,0,0
206192,-111.111111111111,4,2,2,50,0,0
206269,-83.3333333333333,4,2,2,50,0,0
206346,-125,4,2,2,50,0,0
206423,-83.3333333333333,4,2,2,50,0,0
206500,-125,4,2,2,50,0,0
206576,-83.3333333333333,4,2,2,50,0,0
206653,-125,4,2,2,50,0,0
206730,-83.3333333333333,4,2,2,50,0,0
206807,-125,4,2,2,50,0,0
206884,-83.3333333333333,4,2,2,50,0,0
206961,-125,4,2,2,50,0,0
207038,-83.3333333333333,4,2,2,50,0,0
207115,-125,4,2,2,50,0,0
207192,-83.3333333333333,4,2,2,50,0,0
207269,-125,4,2,2,50,0,0
207346,-100,4,2,2,50,0,0
207423,-66.6666666666667,4,2,2,50,0,0
207653,-133.333333333333,4,2,2,50,0,0
207884,-66.6666666666667,4,2,2,50,0,0
208115,-133.333333333333,4,2,2,50,0,0
208346,-66.6666666666667,4,2,2,50,0,0
208576,-133.333333333333,4,2,2,50,0,0
208807,-66.6666666666667,4,2,2,50,0,0
209038,-133.333333333333,4,2,2,50,0,0
209269,-66.6666666666667,4,2,2,50,0,0
209346,-100,4,2,2,50,0,0
209961,-79.9999999999999,4,2,2,50,0,0
210038,-133.333333333333,4,2,2,50,0,0
210115,-79.9999999999999,4,2,2,50,0,0
210192,-133.333333333333,4,2,2,50,0,0
210269,-79.9999999999999,4,2,2,50,0,0
210346,-133.333333333333,4,2,2,50,0,0
210422,-66.6666666666667,4,2,2,50,0,0
210499,-200,4,2,2,50,0,0
210576,-133.333333333333,4,2,2,50,0,0
210653,-66.6666666666667,4,2,2,50,0,0
210807,-200,4,2,2,50,0,0
210884,-133.333333333333,4,2,2,50,0,0
210961,-66.6666666666667,4,2,2,50,0,0
211115,-200,4,2,2,50,0,0
211192,-133.333333333333,4,2,2,50,0,0
211269,-66.6666666666667,4,2,2,50,0,0
211346,-79.9999999999999,4,2,2,50,0,0
211422,-133.333333333333,4,2,2,50,0,0
211499,-100,4,2,2,50,0,0
212269,-166.666666666667,4,2,2,50,0,0
213423,-71.4285714285714,4,2,2,50,0,0
213653,-166.666666666667,4,2,2,50,0,0
214653,-71.4285714285714,4,2,2,50,0,0
214884,-166.666666666667,4,2,2,50,0,0
215807,-100,4,2,2,50,0,0
221653,-76.9230769230769,4,2,2,50,0,0
221730,-200,4,2,2,50,0,0
221807,-76.9230769230769,4,2,2,50,0,0
221884,-200,4,2,2,50,0,0
221961,-100,4,2,2,50,0,0
222115,-50,4,2,2,50,0,0
222192,-66.6666666666667,4,2,2,50,0,0
222269,-200,4,2,2,50,0,0
222423,-79.9999999999999,4,2,2,50,0,0
222500,-66.6666666666667,4,2,2,50,0,0
222653,-100,4,2,2,50,0,1
229576,-66.6666666666667,4,2,2,50,0,1
229730,-200,4,2,2,50,0,1
229807,-133.333333333333,4,2,2,50,0,1
229884,-66.6666666666667,4,2,2,50,0,1
229961,-100,4,2,2,50,0,1
230038,-133.333333333333,4,2,2,50,0,1
230115,-66.6666666666667,4,2,2,50,0,1
230192,-200,4,2,2,50,0,1
230269,-133.333333333333,4,2,2,50,0,1
230346,-66.6666666666667,4,2,2,50,0,1
230500,-200,4,2,2,50,0,1
230576,-133.333333333333,4,2,2,50,0,1
230653,-66.6666666666667,4,2,2,50,0,1
230807,-100,4,2,2,50,0,1
232576,-66.6666666666667,4,2,2,50,0,1
232653,-200,4,2,2,50,0,1
232730,-133.333333333333,4,2,2,50,0,1
232807,-66.6666666666667,4,2,2,50,0,1
232961,-200,4,2,2,50,0,1
233038,-133.333333333333,4,2,2,50,0,1
233115,-66.6666666666667,4,2,2,50,0,1
233269,-200,4,2,2,50,0,1
233346,-133.333333333333,4,2,2,50,0,1
233423,-66.6666666666667,4,2,2,50,0,1
233500,-100,4,2,2,50,0,1
233576,-133.333333333333,4,2,2,50,0,1
233653,-66.6666666666667,4,2,2,50,0,1
233692,-200,4,2,2,50,0,1
233730,-399.999999999997,4,2,2,50,0,1
233769,-200,4,2,2,50,0,1
233807,-133.333333333333,4,2,2,50,0,1
233846,-100,4,2,2,50,0,1
233884,-79.9999999999999,4,2,2,50,0,1
233923,-66.6666666666667,4,2,2,50,0,1
233961,-200,4,2,2,50,0,1
234115,-133.333333333333,4,2,2,50,0,1
234269,-100,4,2,2,50,0,1
234423,-79.9999999999999,4,2,2,50,0,1
234576,-100,4,2,2,50,0,0
254269,-100,4,2,2,50,0,1
256115,-66.6666666666667,4,2,2,50,0,1
256269,-200,4,2,2,50,0,1
256423,-66.6666666666667,4,2,2,50,0,1
256576,-200,4,2,2,50,0,1
256730,-100,4,2,2,50,0,1
261038,-66.6666666666667,4,2,2,50,0,1
261192,-200,4,2,2,50,0,1
261346,-66.6666666666667,4,2,2,50,0,1
261500,-200,4,2,2,50,0,1
261653,-100,4,2,2,50,0,1
262730,-100,4,2,2,50,0,0
263038,-100,4,2,2,20,0,0
263961,-100,4,2,2,50,0,0
264115,-100,4,2,2,5,0,0

[HitObjects]
42,192,730,128,0,884:0:0:0:0:
298,192,884,128,0,1038:0:0:0:0:
298,192,1192,128,0,1346:0:0:0:0:
42,192,1346,128,0,1500:0:0:0:0:
298,192,1500,128,0,1653:0:0:0:0:
128,192,1807,128,0,1961:0:0:0:0:
298,192,1961,128,0,2115:0:0:0:0:
469,192,2115,128,0,2269:0:0:0:0:
469,192,2423,128,0,2576:0:0:0:0:
298,192,2576,128,0,2730:0:0:0:0:
128,192,2730,128,0,2884:0:0:0:0:
384,192,3038,128,0,3192:0:0:0:0:
42,192,3192,128,2,3346:0:0:0:0:
213,192,3192,1,0,0:0:0:0:
384,192,3346,128,0,3500:0:0:0:0:
213,192,3500,1,2,0:0:0:0:
128,192,3653,1,2,0:0:0:0:
384,192,3653,128,0,3807:0:0:0:0:
42,192,3807,128,2,3961:0:0:0:0:
213,192,3807,1,0,0:0:0:0:
384,192,3961,128,0,4115:0:0:0:0:
213,192,4115,1,2,0:0:0:0:
469,192,4269,128,0,4423:0:0:0:0:
128,192,4423,128,2,4576:0:0:0:0:
213,192,4423,1,0,0:0:0:0:
42,192,4576,1,8,0:0:0:0:
384,192,4576,128,8,4730:1:0:0:0:
469,192,4576,1,0,0:0:0:0:
298,192,4730,1,2,0:0:0:0:
64,192,4884,1,0,0:0:0:0:
128,192,4961,1,0,0:0:0:0:
192,192,5038,1,0,0:0:0:0:
448,192,5115,1,0,0:0:0:0:
384,192,5192,1,2,0:0:0:0:
298,192,5269,1,0,0:0:0:0:
64,192,5346,1,8,0:0:0:0:
128,192,5346,1,8,1:0:0:0:
384,192,5423,1,8,0:0:0:0:
448,192,5423,1,8,1:0:0:0:
64,192,5500,1,8,0:0:0:0:
128,192,5500,1,8,1:0:0:0:
384,192,5576,1,8,0:0:0:0:
448,192,5576,1,8,1:0:0:0:
64,192,5653,1,4,1:0:0:0:
128,192,5653,1,4,0:0:0:0:
192,192,5653,1,0,0:0:0:0:
298,192,5653,1,0,0:0:0:0:
384,192,5807,1,0,0:0:0:0:
298,192,5961,1,2,0:0:0:0:
448,192,5961,1,0,0:0:0:0:
64,192,6115,1,0,0:0:0:0:
213,192,6115,1,0,0:0:0:0:
384,192,6115,1,0,0:0:0:0:
128,192,6269,1,2,0:0:0:0:
64,192,6423,1,0,0:0:0:0:
213,192,6423,1,0,0:0:0:0:
128,192,6576,1,2,0:0:0:0:
298,192,6576,1,0,0:0:0:0:
448,192,6576,1,0,0:0:0:0:
384,192,6730,1,0,0:0:0:0:
298,192,6884,1,2,0:0:0:0:
448,192,6884,1,0,0:0:0:0:
64,192,7038,1,0,0:0:0:0:
213,192,7038,1,0,0:0:0:0:
384,192,7038,1,0,0:0:0:0:
128,192,7192,1,2,0:0:0:0:
64,192,7346,1,0,0:0:0:0:
213,192,7346,1,0,0:0:0:0:
128,192,7500,1,2,0:0:0:0:
298,192,7500,1,0,0:0:0:0:
448,192,7500,1,0,0:0:0:0:
128,192,7807,1,2,0:0:0:0:
298,192,7807,1,0,0:0:0:0:
448,192,7807,1,0,0:0:0:0:
42,192,8115,1,2,0:0:0:0:
213,192,8115,1,4,0:0:0:0:
320,192,8115,1,0,0:0:0:0:
448,192,8115,1,0,0:0:0:0:
384,192,8269,1,0,0:0:0:0:
298,192,8423,1,2,0:0:0:0:
469,192,8423,1,0,0:0:0:0:
64,192,8576,1,0,0:0:0:0:
192,192,8576,1,0,0:0:0:0:
384,192,8576,1,0,0:0:0:0:
128,192,8730,1,2,0:0:0:0:
64,192,8884,1,0,0:0:0:0:
192,192,8884,1,0,0:0:0:0:
128,192,9038,1,2,0:0:0:0:
320,192,9038,1,0,0:0:0:0:
448,192,9038,1,0,0:0:0:0:
64,192,9192,1,8,0:0:0:0:
213,192,9192,1,8,1:0:0:0:
384,192,9192,1,0,0:0:0:0:
469,192,9346,1,0,0:0:0:0:
469,192,9500,1,0,0:0:0:0:
42,192,9653,1,8,0:0:0:0:
128,192,9653,1,4,0:0:0:0:
298,192,9653,1,0,0:0:0:0:
448,192,9653,1,0,0:0:0:0:
469,192,9807,1,0,0:0:0:0:
42,192,9961,1,8,3:0:0:0:
213,192,9961,1,0,0:0:0:0:
469,192,9961,1,0,0:0:0:0:
128,192,10115,1,8,0:0:0:0:
469,192,10115,1,0,0:0:0:0:
213,192,10192,1,8,0:0:0:0:
320,192,10269,1,8,0:0:0:0:
384,192,10269,1,8,1:0:0:0:
64,192,10346,1,8,0:0:0:0:
128,192,10346,1,8,1:0:0:0:
320,192,10423,1,8,0:0:0:0:
384,192,10423,1,8,1:0:0:0:
64,192,10500,1,8,0:0:0:0:
128,192,10500,1,8,1:0:0:0:
213,192,10576,1,4,0:0:0:0:
320,192,10576,1,2,0:0:0:0:
384,192,10576,1,0,0:0:0:0:
469,192,10576,128,0,10730:0:0:0:0:
42,192,10730,1,0,0:0:0:0:
128,192,10884,128,8,11038:0:0:0:0:
213,192,10884,1,8,1:0:0:0:
448,192,10884,1,0,0:0:0:0:
298,192,11038,1,0,0:0:0:0:
384,192,11038,128,0,11192:0:0:0:0:
42,192,11192,1,2,0:0:0:0:
213,192,11346,128,0,11500:0:0:0:0:
320,192,11346,1,0,0:0:0:0:
128,192,11500,1,8,0:0:0:0:
384,192,11500,1,8,1:0:0:0:
469,192,11500,128,0,11653:0:0:0:0:
320,192,11653,1,0,0:0:0:0:
64,192,11807,128,2,11961:0:0:0:0:
192,192,11807,1,0,0:0:0:0:
298,192,11961,1,0,0:0:0:0:
384,192,11961,128,0,12115:0:0:0:0:
128,192,12115,1,8,1:0:0:0:
192,192,12115,1,8,0:0:0:0:
448,192,12115,1,0,0:0:0:0:
64,192,12269,128,0,12423:0:0:0:0:
320,192,12269,1,0,0:0:0:0:
128,192,12423,1,2,0:0:0:0:
448,192,12423,128,0,12576:0:0:0:0:
213,192,12500,1,8,1:0:0:0:
384,192,12500,1,8,0:0:0:0:
298,192,12576,1,0,0:0:0:0:
64,192,12730,1,8,0:0:0:0:
128,192,12730,1,8,1:0:0:0:
384,192,12730,1,0,0:0:0:0:
448,192,12730,128,0,12884:0:0:0:0:
192,192,12884,1,0,0:0:0:0:
64,192,13038,128,2,13192:0:0:0:0:
128,192,13038,1,0,0:0:0:0:
320,192,13038,1,0,0:0:0:0:
384,192,13192,1,0,0:0:0:0:
128,192,13346,1,8,0:0:0:0:
213,192,13346,1,8,1:0:0:0:
469,192,13346,128,0,13500:0:0:0:0:
64,192,13500,1,0,0:0:0:0:
298,192,13500,128,0,13653:0:0:0:0:
192,192,13653,1,2,0:0:0:0:
384,192,13730,1,8,0:0:0:0:
469,192,13730,1,8,1:0:0:0:
42,192,13807,128,0,13961:0:0:0:0:
128,192,13807,1,0,0:0:0:0:
213,192,13961,128,8,14115:0:0:0:0:
298,192,13961,1,8,1:0:0:0:
42,192,14115,1,8,0:0:0:0:
128,192,14115,1,8,1:0:0:0:
384,192,14115,1,0,0:0:0:0:
469,192,14115,128,0,14269:0:0:0:0:
64,192,14423,128,0,14576:0:0:0:0:
128,192,14576,128,0,14730:0:0:0:0:
213,192,14730,128,0,14884:0:0:0:0:
42,192,14884,128,8,15038:0:0:0:0:
384,192,14884,1,8,1:0:0:0:
448,192,14884,1,0,0:0:0:0:
128,192,15038,128,8,15192:0:0:0:0:
384,192,15038,1,8,1:0:0:0:
469,192,15038,1,0,0:0:0:0:
213,192,15192,128,0,15346:0:0:0:0:
64,192,15346,1,4,0:0:0:0:
298,192,15346,1,4,1:0:0:0:
384,192,15346,1,0,0:0:0:0:
448,192,15346,128,0,17038:0:0:0:0:
128,192,15653,1,2,0:0:0:0:
298,192,15653,1,0,0:0:0:0:
64,192,15807,1,8,0:0:0:0:
213,192,15807,1,8,1:0:0:0:
384,192,15807,1,0,0:0:0:0:
128,192,16115,1,2,0:0:0:0:
320,192,16115,1,0,0:0:0:0:
64,192,16269,1,2,0:0:0:0:
192,192,16269,1,0,0:0:0:0:
128,192,16423,1,8,0:0:0:0:
320,192,16423,1,8,1:0:0:0:
384,192,16423,1,0,0:0:0:0:
64,192,16576,1,4,0:0:0:0:
213,192,16576,1,2,0:0:0:0:
320,192,16576,1,0,0:0:0:0:
128,192,16884,1,2,0:0:0:0:
298,192,16884,1,0,0:0:0:0:
42,192,17038,128,8,17192:0:0:0:0:
213,192,17038,1,8,1:0:0:0:
384,192,17038,1,0,0:0:0:0:
128,192,17346,128,2,17500:0:0:0:0:
192,192,17346,1,0,0:0:0:0:
298,192,17346,1,0,0:0:0:0:
384,192,17500,128,2,17653:0:0:0:0:
448,192,17500,1,0,0:0:0:0:
42,192,17653,1,8,0:0:0:0:
192,192,17653,128,8,17807:1:0:0:0:
320,192,17653,1,0,0:0:0:0:
42,192,17807,1,4,0:0:0:0:
128,192,17807,1,2,0:0:0:0:
384,192,17807,1,0,0:0:0:0:
448,192,17807,128,0,18269:0:0:0:0:
128,192,18115,1,2,0:0:0:0:
192,192,18115,1,0,0:0:0:0:
64,192,18269,1,8,0:0:0:0:
320,192,18269,128,8,18423:1:0:0:0:
384,192,18269,1,0,0:0:0:0:
213,192,18423,128,0,18576:0:0:0:0:
128,192,18576,1,2,0:0:0:0:
448,192,18576,1,0,0:0:0:0:
64,192,18730,128,2,18884:0:0:0:0:
320,192,18730,1,0,0:0:0:0:
384,192,18730,1,0,0:0:0:0:
128,192,18884,1,8,0:0:0:0:
192,192,18884,1,8,1:0:0:0:
448,192,18884,1,0,0:0:0:0:
64,192,19038,1,2,0:0:0:0:
298,192,19038,1,4,0:0:0:0:
384,192,19038,128,0,19346:0:0:0:0:
448,192,19038,1,0,0:0:0:0:
128,192,19346,1,2,0:0:0:0:
192,192,19346,128,0,19500:0:0:0:0:
42,192,19500,1,8,0:0:0:0:
320,192,19500,1,8,1:0:0:0:
448,192,19500,128,0,19653:0:0:0:0:
128,192,19653,128,8,19807:0:0:0:0:
192,192,19653,1,0,0:0:0:0:
298,192,19730,1,8,0:0:0:0:
384,192,19807,128,8,19961:0:0:0:0:
448,192,19807,1,0,0:0:0:0:
213,192,19884,1,8,0:0:0:0:
64,192,19961,128,8,20115:0:0:0:0:
128,192,19961,1,0,0:0:0:0:
213,192,20038,1,8,0:0:0:0:
298,192,20115,128,8,20269:0:0:0:0:
384,192,20115,1,8,1:0:0:0:
128,192,20192,1,0,0:0:0:0:
64,192,20269,1,2,0:0:0:0:
213,192,20269,1,4,0:0:0:0:
384,192,20269,1,0,0:0:0:0:
469,192,20269,128,0,20730:0:0:0:0:
128,192,20576,1,2,0:0:0:0:
213,192,20576,1,0,0:0:0:0:
42,192,20730,1,8,0:0:0:0:
320,192,20730,1,8,1:0:0:0:
384,192,20730,1,0,0:0:0:0:
42,192,20884,128,2,21346:0:0:0:0:
128,192,20884,1,4,0:0:0:0:
192,192,20884,1,0,0:0:0:0:
469,192,20884,1,0,0:0:0:0:
213,192,21192,1,2,0:0:0:0:
320,192,21192,1,0,0:0:0:0:
128,192,21346,1,8,0:0:0:0:
384,192,21346,1,8,1:0:0:0:
448,192,21346,1,0,0:0:0:0:
42,192,21500,1,2,0:0:0:0:
213,192,21500,128,4,21961:0:0:0:0:
298,192,21500,1,0,0:0:0:0:
384,192,21500,1,0,0:0:0:0:
384,192,21807,1,2,0:0:0:0:
469,192,21807,1,0,0:0:0:0:
42,192,21961,1,8,0:0:0:0:
128,192,21961,1,8,1:0:0:0:
298,192,21961,1,0,0:0:0:0:
64,192,22115,1,2,0:0:0:0:
213,192,22115,1,4,0:0:0:0:
384,192,22115,128,0,22423:0:0:0:0:
469,192,22115,1,0,0:0:0:0:
128,192,22423,1,8,0:0:0:0:
298,192,22423,1,8,1:0:0:0:
469,192,22423,1,0,0:0:0:0:
64,192,22576,1,8,0:0:0:0:
192,192,22576,1,8,1:0:0:0:
384,192,22576,1,0,0:0:0:0:
64,192,22730,1,4,0:0:0:0:
128,192,22730,1,2,0:0:0:0:
320,192,22730,1,0,0:0:0:0:
448,192,22730,128,0,22961:0:0:0:0:
192,192,23038,1,8,3:0:0:0:
448,192,23038,128,0,23115:0:0:0:0:
64,192,23192,1,8,3:0:0:0:
448,192,23192,128,0,23269:0:0:0:0:
128,192,23346,1,8,3:0:0:0:
448,192,23346,128,0,23423:0:0:0:0:
298,192,23423,1,8,3:0:0:0:
42,192,23500,1,8,3:0:0:0:
213,192,23500,1,0,0:0:0:0:
448,192,23500,128,0,23576:0:0:0:0:
128,192,23653,1,8,3:0:0:0:
298,192,23653,1,0,0:0:0:0:
448,192,23653,128,0,23730:0:0:0:0:
213,192,23807,1,8,3:0:0:0:
384,192,23807,1,0,0:0:0:0:
448,192,23807,128,0,23884:0:0:0:0:
64,192,23961,1,8,0:0:0:0:
128,192,23961,1,8,1:0:0:0:
320,192,23961,1,0,0:0:0:0:
384,192,23961,1,0,0:0:0:0:
448,192,23961,1,0,0:0:0:0:
128,192,24269,128,0,24730:0:0:0:0:
298,192,24423,128,0,24884:0:0:0:0:
469,192,24576,128,0,25038:0:0:0:0:
42,192,24730,128,0,25192:0:0:0:0:
213,192,24884,128,0,25192:0:0:0:0:
384,192,25038,128,0,25192:0:0:0:0:
128,192,25192,1,8,0:0:0:0:
298,192,25192,1,4,0:0:0:0:
469,192,25192,128,0,27807:0:0:0:0:
64,192,25653,1,0,0:0:0:0:
64,192,26269,1,0,0:0:0:0:
64,192,26884,1,0,0:0:0:0:
213,192,27346,1,8,3:0:0:0:
128,192,27500,1,8,3:0:0:0:
298,192,27653,1,8,3:0:0:0:
64,192,27807,1,8,0:0:0:0:
128,192,27807,1,4,0:0:0:0:
213,192,27807,128,0,30269:0:0:0:0:
384,192,27807,1,0,0:0:0:0:
298,192,28115,1,0,0:0:0:0:
298,192,28730,1,0,0:0:0:0:
42,192,28884,1,8,3:0:0:0:
384,192,28961,1,8,3:0:0:0:
469,192,29038,1,8,3:0:0:0:
298,192,29346,1,8,3:0:0:0:
384,192,29423,1,8,3:0:0:0:
128,192,29500,1,8,3:0:0:0:
64,192,29807,1,8,3:0:0:0:
469,192,29961,1,8,3:0:0:0:
128,192,30115,1,8,3:0:0:0:
64,192,30269,128,8,32730:0:0:0:0:
320,192,30269,1,4,0:0:0:0:
384,192,30269,1,0,0:0:0:0:
469,192,30269,1,0,0:0:0:0:
384,192,30576,1,2,0:0:0:0:
448,192,30576,1,0,0:0:0:0:
384,192,30884,1,2,0:0:0:0:
448,192,30884,1,0,0:0:0:0:
384,192,31192,1,2,0:0:0:0:
448,192,31192,1,0,0:0:0:0:
384,192,31500,1,2,0:0:0:0:
448,192,31500,1,0,0:0:0:0:
384,192,31807,1,2,0:0:0:0:
448,192,31807,1,0,0:0:0:0:
384,192,32115,1,2,0:0:0:0:
448,192,32115,1,0,0:0:0:0:
384,192,32423,1,2,0:0:0:0:
448,192,32423,1,0,0:0:0:0:
128,192,32730,1,8,0:0:0:0:
192,192,32730,1,8,1:0:0:0:
320,192,32730,1,0,0:0:0:0:
192,192,32884,1,8,0:0:0:0:
320,192,32884,1,8,1:0:0:0:
384,192,32884,1,0,0:0:0:0:
64,192,33192,1,8,0:0:0:0:
128,192,33192,1,8,1:0:0:0:
298,192,33192,1,0,0:0:0:0:
213,192,33346,1,8,0:0:0:0:
384,192,33346,1,8,1:0:0:0:
448,192,33346,1,0,0:0:0:0:
42,192,33653,1,8,0:0:0:0:
213,192,33653,1,8,1:0:0:0:
384,192,33653,1,0,0:0:0:0:
128,192,33807,1,8,0:0:0:0:
320,192,33807,1,8,1:0:0:0:
469,192,33807,1,0,0:0:0:0:
64,192,34115,1,8,0:0:0:0:
128,192,34115,1,8,1:0:0:0:
213,192,34115,1,0,0:0:0:0:
298,192,34269,1,8,0:0:0:0:
384,192,34269,1,8,1:0:0:0:
469,192,34269,1,0,0:0:0:0:
64,192,34576,1,8,0:0:0:0:
128,192,34576,1,8,1:0:0:0:
384,192,34576,1,0,0:0:0:0:
448,192,34576,1,0,0:0:0:0:
64,192,34730,1,8,0:0:0:0:
128,192,34730,1,8,1:0:0:0:
384,192,34730,1,0,0:0:0:0:
448,192,34730,1,0,0:0:0:0:
64,192,35192,128,4,35346:0:0:0:0:
213,192,35192,1,4,1:0:0:0:
320,192,35192,1,0,0:0:0:0:
384,192,35192,1,0,0:0:0:0:
448,192,35346,128,0,35500:0:0:0:0:
128,192,35500,1,8,0:0:0:0:
192,192,35500,1,8,1:0:0:0:
320,192,35500,128,0,35653:0:0:0:0:
42,192,35653,128,0,35807:0:0:0:0:
384,192,35653,1,0,0:0:0:0:
128,192,35807,1,2,0:0:0:0:
448,192,35807,128,0,35961:0:0:0:0:
298,192,35961,128,0,36115:0:0:0:0:
384,192,35961,1,0,0:0:0:0:
42,192,36115,128,8,36269:0:0:0:0:
128,192,36115,1,8,1:0:0:0:
213,192,36115,1,0,0:0:0:0:
384,192,36269,1,2,0:0:0:0:
448,192,36269,128,0,36423:0:0:0:0:
213,192,36423,1,0,0:0:0:0:
320,192,36423,128,0,36576:0:0:0:0:
64,192,36576,128,2,36730:0:0:0:0:
384,192,36576,1,0,0:0:0:0:
128,192,36730,1,8,0:0:0:0:
213,192,36730,1,8,1:0:0:0:
448,192,36730,128,0,36884:0:0:0:0:
298,192,36884,128,0,37038:0:0:0:0:
384,192,36884,1,0,0:0:0:0:
64,192,37038,128,2,37192:0:0:0:0:
128,192,37038,1,0,0:0:0:0:
213,192,37115,1,8,0:0:0:0:
384,192,37192,1,2,0:0:0:0:
448,192,37192,128,0,37346:0:0:0:0:
128,192,37346,1,8,0:0:0:0:
213,192,37346,1,8,1:0:0:0:
320,192,37346,128,0,37500:0:0:0:0:
42,192,37500,128,0,37653:0:0:0:0:
448,192,37500,1,0,0:0:0:0:
128,192,37653,128,2,37807:0:0:0:0:
213,192,37653,1,0,0:0:0:0:
384,192,37653,1,0,0:0:0:0:
448,192,37807,128,0,37961:0:0:0:0:
128,192,37961,1,8,0:0:0:0:
213,192,37961,1,8,1:0:0:0:
320,192,37961,128,0,38115:0:0:0:0:
64,192,38115,128,0,38269:0:0:0:0:
384,192,38115,1,0,0:0:0:0:
128,192,38269,1,2,0:0:0:0:
448,192,38269,128,0,38423:0:0:0:0:
213,192,38346,1,8,0:0:0:0:
298,192,38423,128,2,38576:0:0:0:0:
384,192,38423,1,0,0:0:0:0:
64,192,38576,128,8,38730:0:0:0:0:
128,192,38576,1,8,1:0:0:0:
213,192,38576,1,0,0:0:0:0:
384,192,38730,1,2,0:0:0:0:
448,192,38730,128,0,38884:0:0:0:0:
128,192,38884,1,0,0:0:0:0:
320,192,38884,128,0,39038:0:0:0:0:
64,192,39038,128,2,39192:0:0:0:0:
384,192,39038,1,0,0:0:0:0:
448,192,39038,1,0,0:0:0:0:
128,192,39192,1,8,0:0:0:0:
213,192,39192,128,8,39346:1:0:0:0:
298,192,39192,1,0,0:0:0:0:
384,192,39346,1,0,0:0:0:0:
448,192,39346,128,0,39500:0:0:0:0:
64,192,39500,128,2,39653:0:0:0:0:
128,192,39500,1,0,0:0:0:0:
384,192,39576,1,8,0:0:0:0:
213,192,39653,128,2,39807:0:0:0:0:
298,192,39653,1,0,0:0:0:0:
42,192,39807,1,8,0:0:0:0:
384,192,39807,1,8,1:0:0:0:
448,192,39807,128,0,39961:0:0:0:0:
128,192,39961,1,8,0:0:0:0:
298,192,39961,1,8,1:0:0:0:
213,192,40038,1,8,0:0:0:0:
384,192,40038,1,8,1:0:0:0:
64,192,40115,128,2,40269:0:0:0:0:
128,192,40115,1,4,0:0:0:0:
298,192,40115,1,0,0:0:0:0:
469,192,40115,1,0,0:0:0:0:
384,192,40269,128,0,40423:0:0:0:0:
192,192,40423,128,8,40576:0:0:0:0:
298,192,40423,1,8,1:0:0:0:
64,192,40576,128,0,40730:0:0:0:0:
128,192,40576,1,0,0:0:0:0:
384,192,40730,1,2,0:0:0:0:
448,192,40730,128,0,40884:0:0:0:0:
192,192,40807,1,8,0:0:0:0:
128,192,40884,1,2,0:0:0:0:
298,192,40884,128,0,41038:0:0:0:0:
64,192,41038,128,8,41192:0:0:0:0:
192,192,41038,1,8,1:0:0:0:
384,192,41038,1,0,0:0:0:0:
320,192,41192,1,2,0:0:0:0:
448,192,41192,128,0,41346:0:0:0:0:
128,192,41346,1,0,0:0:0:0:
192,192,41346,128,0,41500:0:0:0:0:
64,192,41500,128,2,41653:0:0:0:0:
320,192,41500,1,0,0:0:0:0:
128,192,41653,1,8,0:0:0:0:
384,192,41653,1,8,1:0:0:0:
448,192,41653,128,0,41807:0:0:0:0:
213,192,41807,1,0,0:0:0:0:
320,192,41807,128,0,41961:0:0:0:0:
42,192,41961,128,2,42115:0:0:0:0:
128,192,41961,1,0,0:0:0:0:
384,192,42038,1,2,0:0:0:0:
213,192,42115,128,2,42269:0:0:0:0:
469,192,42115,1,0,0:0:0:0:
128,192,42269,1,8,0:0:0:0:
298,192,42269,1,8,1:0:0:0:
384,192,42269,128,0,42423:0:0:0:0:
64,192,42576,128,8,42730:0:0:0:0:
192,192,42576,128,4,42730:0:0:0:0:
384,192,42576,1,8,1:0:0:0:
448,192,42576,1,0,0:0:0:0:
64,192,43038,1,8,0:0:0:0:
128,192,43038,1,8,1:0:0:0:
298,192,43038,128,0,43192:0:0:0:0:
469,192,43038,128,0,43192:0:0:0:0:
64,192,43500,1,4,0:0:0:0:
213,192,43500,128,8,43653:0:0:0:0:
384,192,43500,128,8,43653:1:0:0:0:
469,192,43500,1,0,0:0:0:0:
64,192,43961,1,8,3:0:0:0:
128,192,43961,128,0,44115:0:0:0:0:
384,192,43961,128,0,44115:0:0:0:0:
469,192,43961,1,0,0:0:0:0:
64,192,44423,128,8,44500:0:0:0:0:
128,192,44423,1,8,1:0:0:0:
384,192,44423,1,0,0:0:0:0:
448,192,44423,128,0,44500:0:0:0:0:
64,192,44576,128,8,44961:0:0:0:0:
128,192,44576,1,8,1:0:0:0:
384,192,44576,1,0,0:0:0:0:
448,192,44576,128,0,44961:0:0:0:0:
64,192,45038,1,4,0:0:0:0:
192,192,45038,1,4,1:0:0:0:
320,192,45038,1,0,0:0:0:0:
448,192,45038,1,0,0:0:0:0:
128,192,45346,1,0,0:0:0:0:
192,192,45500,1,2,0:0:0:0:
298,192,45500,1,0,0:0:0:0:
42,192,45653,1,8,0:0:0:0:
384,192,45653,1,8,1:0:0:0:
448,192,45653,1,0,0:0:0:0:
213,192,45807,1,0,0:0:0:0:
128,192,45961,1,2,0:0:0:0:
320,192,45961,1,0,0:0:0:0:
213,192,46115,1,2,0:0:0:0:
384,192,46115,1,0,0:0:0:0:
298,192,46269,1,0,0:0:0:0:
42,192,46423,1,2,0:0:0:0:
448,192,46423,1,0,0:0:0:0:
213,192,46576,1,0,0:0:0:0:
128,192,46730,1,2,0:0:0:0:
384,192,46730,1,0,0:0:0:0:
42,192,46884,1,8,0:0:0:0:
298,192,46884,1,8,1:0:0:0:
448,192,46884,1,0,0:0:0:0:
128,192,47038,1,2,0:0:0:0:
384,192,47038,1,0,0:0:0:0:
213,192,47192,1,0,0:0:0:0:
298,192,47346,1,8,0:0:0:0:
128,192,47423,1,8,0:0:0:0:
64,192,47500,1,2,0:0:0:0:
384,192,47500,1,0,0:0:0:0:
128,192,47653,1,8,0:0:0:0:
192,192,47653,1,8,1:0:0:0:
469,192,47653,1,0,0:0:0:0:
320,192,47807,1,0,0:0:0:0:
128,192,47961,1,2,0:0:0:0:
384,192,47961,1,0,0:0:0:0:
64,192,48115,1,8,0:0:0:0:
213,192,48115,1,8,1:0:0:0:
448,192,48115,1,0,0:0:0:0:
298,192,48269,1,0,0:0:0:0:
128,192,48423,1,2,0:0:0:0:
384,192,48423,1,0,0:0:0:0:
192,192,48576,1,2,0:0:0:0:
448,192,48576,1,0,0:0:0:0:
320,192,48730,1,0,0:0:0:0:
384,192,48884,1,2,0:0:0:0:
128,192,49038,1,2,0:0:0:0:
448,192,49038,1,0,0:0:0:0:
213,192,49192,1,8,0:0:0:0:
64,192,49269,1,8,0:0:0:0:
298,192,49346,1,2,0:0:0:0:
128,192,49500,1,8,3:0:0:0:
448,192,49500,1,0,0:0:0:0:
213,192,49653,1,8,3:0:0:0:
384,192,49653,1,0,0:0:0:0:
298,192,49807,1,8,3:0:0:0:
448,192,49807,1,0,0:0:0:0:
64,192,49961,1,2,0:0:0:0:
128,192,49961,1,4,0:0:0:0:
384,192,49961,1,0,0:0:0:0:
298,192,50115,1,0,0:0:0:0:
213,192,50269,1,0,0:0:0:0:
128,192,50423,1,2,0:0:0:0:
384,192,50423,1,0,0:0:0:0:
64,192,50576,1,8,0:0:0:0:
320,192,50576,1,8,0:0:0:0:
448,192,50576,1,0,0:0:0:0:
192,192,50730,1,0,0:0:0:0:
64,192,50884,1,2,0:0:0:0:
384,192,50884,1,0,0:0:0:0:
128,192,51038,1,2,0:0:0:0:
298,192,51038,1,0,0:0:0:0:
213,192,51192,1,0,0:0:0:0:
64,192,51346,1,8,0:0:0:0:
384,192,51346,1,8,0:0:0:0:
469,192,51346,1,0,0:0:0:0:
128,192,51500,1,2,0:0:0:0:
192,192,51653,1,2,0:0:0:0:
384,192,51653,1,0,0:0:0:0:
64,192,51807,1,8,0:0:0:0:
320,192,51807,1,8,0:0:0:0:
448,192,51807,1,0,0:0:0:0:
128,192,51961,1,2,0:0:0:0:
384,192,51961,1,0,0:0:0:0:
320,192,52115,1,0,0:0:0:0:
42,192,52269,1,8,0:0:0:0:
213,192,52346,1,8,0:0:0:0:
384,192,52423,1,2,0:0:0:0:
469,192,52423,1,0,0:0:0:0:
64,192,52576,1,8,0:0:0:0:
128,192,52576,1,8,0:0:0:0:
298,192,52576,1,0,0:0:0:0:
213,192,52730,1,0,0:0:0:0:
298,192,52884,1,2,0:0:0:0:
448,192,52884,1,0,0:0:0:0:
64,192,53038,1,8,0:0:0:0:
192,192,53038,1,8,0:0:0:0:
384,192,53038,1,0,0:0:0:0:
128,192,53346,1,8,0:0:0:0:
298,192,53346,1,8,0:0:0:0:
448,192,53346,1,0,0:0:0:0:
42,192,53500,1,2,0:0:0:0:
213,192,53500,1,0,0:0:0:0:
128,192,53807,1,8,0:0:0:0:
384,192,53807,1,8,1:0:0:0:
448,192,53807,1,0,0:0:0:0:
298,192,53961,1,0,0:0:0:0:
64,192,54115,1,8,0:0:0:0:
213,192,54115,1,8,1:0:0:0:
128,192,54192,1,8,0:0:0:0:
298,192,54192,1,8,1:0:0:0:
213,192,54269,1,8,0:0:0:0:
384,192,54269,1,8,1:0:0:0:
469,192,54269,1,0,0:0:0:0:
42,192,54423,1,8,0:0:0:0:
128,192,54423,1,8,1:0:0:0:
298,192,54423,1,0,0:0:0:0:
213,192,54576,1,8,0:0:0:0:
384,192,54576,1,8,1:0:0:0:
469,192,54576,1,0,0:0:0:0:
128,192,54884,128,2,55038:0:0:0:0:
384,192,55038,128,2,55192:0:0:0:0:
64,192,55192,1,8,0:0:0:0:
192,192,55192,1,4,0:0:0:0:
298,192,55192,1,8,1:0:0:0:
448,192,55192,1,0,0:0:0:0:
128,192,55500,1,2,0:0:0:0:
298,192,55500,1,0,0:0:0:0:
213,192,55653,1,2,0:0:0:0:
384,192,55653,1,0,0:0:0:0:
42,192,55807,1,8,0:0:0:0:
298,192,55807,1,8,1:0:0:0:
469,192,55807,1,0,0:0:0:0:
128,192,56115,1,2,0:0:0:0:
384,192,56115,1,0,0:0:0:0:
64,192,56423,1,8,0:0:0:0:
213,192,56423,1,8,1:0:0:0:
448,192,56423,1,0,0:0:0:0:
128,192,56576,1,2,0:0:0:0:
298,192,56576,1,0,0:0:0:0:
192,192,56884,1,2,0:0:0:0:
384,192,56884,1,0,0:0:0:0:
42,192,57038,1,8,0:0:0:0:
298,192,57038,1,8,1:0:0:0:
448,192,57038,1,0,0:0:0:0:
128,192,57346,1,2,0:0:0:0:
384,192,57346,1,0,0:0:0:0:
64,192,57653,1,8,0:0:0:0:
213,192,57653,1,8,0:0:0:0:
320,192,57653,1,0,0:0:0:0:
320,192,57961,1,2,0:0:0:0:
448,192,57961,1,0,0:0:0:0:
192,192,58115,1,2,0:0:0:0:
384,192,58115,1,0,0:0:0:0:
128,192,58269,1,8,0:0:0:0:
298,192,58269,1,8,0:0:0:0:
448,192,58269,1,0,0:0:0:0:
64,192,58423,1,2,0:0:0:0:
213,192,58423,1,0,0:0:0:0:
384,192,58576,1,2,0:0:0:0:
128,192,58730,1,2,0:0:0:0:
298,192,58730,1,0,0:0:0:0:
64,192,58884,1,8,0:0:0:0:
192,192,58884,1,8,1:0:0:0:
448,192,58884,1,0,0:0:0:0:
128,192,59038,1,2,0:0:0:0:
213,192,59115,1,8,0:0:0:0:
384,192,59192,1,2,0:0:0:0:
448,192,59192,1,0,0:0:0:0:
213,192,59346,1,2,0:0:0:0:
320,192,59346,1,0,0:0:0:0:
42,192,59500,1,8,0:0:0:0:
128,192,59500,1,8,1:0:0:0:
384,192,59500,1,0,0:0:0:0:
213,192,59653,1,2,0:0:0:0:
64,192,59807,1,8,0:0:0:0:
320,192,59807,1,4,0:0:0:0:
384,192,59807,1,8,1:0:0:0:
448,192,59807,1,0,0:0:0:0:
128,192,60115,1,2,0:0:0:0:
192,192,60269,1,8,3:0:0:0:
448,192,60269,1,0,0:0:0:0:
320,192,60423,1,2,0:0:0:0:
64,192,60576,1,8,3:0:0:0:
384,192,60576,1,0,0:0:0:0:
128,192,60730,1,2,0:0:0:0:
213,192,60884,1,2,0:0:0:0:
469,192,60884,1,0,0:0:0:0:
128,192,60961,1,2,0:0:0:0:
298,192,60961,1,0,0:0:0:0:
64,192,61038,1,4,0:0:0:0:
213,192,61038,1,8,0:0:0:0:
384,192,61038,1,8,1:0:0:0:
448,192,61038,1,0,0:0:0:0:
128,192,61192,1,2,0:0:0:0:
298,192,61192,1,0,0:0:0:0:
64,192,61346,1,2,0:0:0:0:
213,192,61346,1,0,0:0:0:0:
298,192,61500,1,2,0:0:0:0:
128,192,61653,1,2,0:0:0:0:
384,192,61653,1,0,0:0:0:0:
213,192,61807,1,2,0:0:0:0:
469,192,61807,1,0,0:0:0:0:
298,192,61961,1,2,0:0:0:0:
42,192,62115,1,2,0:0:0:0:
384,192,62115,1,0,0:0:0:0:
128,192,62192,1,2,0:0:0:0:
298,192,62192,1,0,0:0:0:0:
64,192,62269,1,8,0:0:0:0:
213,192,62269,1,4,0:0:0:0:
384,192,62269,1,8,1:0:0:0:
448,192,62269,1,0,0:0:0:0:
128,192,62423,1,2,0:0:0:0:
320,192,62423,1,0,0:0:0:0:
213,192,62576,1,2,0:0:0:0:
384,192,62576,1,0,0:0:0:0:
42,192,62730,1,8,0:0:0:0:
298,192,62730,1,4,0:0:0:0:
448,192,62730,1,8,1:0:0:0:
213,192,62884,1,2,0:0:0:0:
384,192,62884,1,0,0:0:0:0:
128,192,63038,1,2,0:0:0:0:
298,192,63038,1,0,0:0:0:0:
64,192,63192,1,8,0:0:0:0:
213,192,63192,1,4,0:0:0:0:
384,192,63192,1,8,1:0:0:0:
469,192,63192,1,0,0:0:0:0:
128,192,63346,1,2,0:0:0:0:
298,192,63346,1,0,0:0:0:0:
213,192,63500,1,2,0:0:0:0:
384,192,63500,1,0,0:0:0:0:
42,192,63653,1,4,0:0:0:0:
298,192,63653,1,8,0:0:0:0:
448,192,63653,1,8,1:0:0:0:
213,192,63807,1,2,0:0:0:0:
384,192,63807,1,0,0:0:0:0:
128,192,63961,1,2,0:0:0:0:
298,192,63961,1,0,0:0:0:0:
64,192,64115,1,8,0:0:0:0:
192,192,64115,1,8,1:0:0:0:
384,192,64115,1,0,0:0:0:0:
448,192,64115,1,0,0:0:0:0:
64,192,64269,1,8,0:0:0:0:
128,192,64269,1,8,1:0:0:0:
298,192,64269,1,0,0:0:0:0:
448,192,64269,1,0,0:0:0:0:
128,192,64730,1,8,0:0:0:0:
384,192,64730,1,8,1:0:0:0:
469,192,64730,1,0,0:0:0:0:
42,192,64884,1,8,0:0:0:0:
213,192,64884,1,8,1:0:0:0:
298,192,64884,1,0,0:0:0:0:
128,192,65038,1,8,0:0:0:0:
384,192,65038,1,8,1:0:0:0:
469,192,65038,1,0,0:0:0:0:
64,192,65192,1,8,0:0:0:0:
213,192,65192,1,8,1:0:0:0:
298,192,65192,1,0,0:0:0:0:
128,192,65500,1,8,0:0:0:0:
298,192,65500,1,8,1:0:0:0:
384,192,65500,1,0,0:0:0:0:
469,192,65500,1,0,0:0:0:0:
42,192,65807,1,8,0:0:0:0:
128,192,65807,1,8,1:0:0:0:
192,192,65807,1,0,0:0:0:0:
384,192,65807,1,0,0:0:0:0:
64,192,66115,1,8,0:0:0:0:
192,192,66115,1,8,1:0:0:0:
298,192,66115,1,0,0:0:0:0:
448,192,66115,1,0,0:0:0:0:
64,192,66269,1,8,0:0:0:0:
192,192,66269,1,8,1:0:0:0:
320,192,66269,1,0,0:0:0:0:
448,192,66269,1,0,0:0:0:0:
128,192,66730,1,2,0:0:0:0:
384,192,66730,1,0,0:0:0:0:
213,192,66807,1,2,0:0:0:0:
320,192,66807,1,0,0:0:0:0:
64,192,66884,1,8,0:0:0:0:
128,192,66884,1,8,1:0:0:0:
384,192,66884,1,0,0:0:0:0:
448,192,66884,1,0,0:0:0:0:
64,192,67038,1,4,0:0:0:0:
213,192,67038,1,4,1:0:0:0:
320,192,67038,1,2,1:0:0:0:
448,192,67038,1,0,0:0:0:0:
128,192,67346,1,2,0:0:0:0:
320,192,67346,1,0,0:0:0:0:
384,192,67346,1,0,0:0:0:0:
64,192,67500,1,8,0:0:0:0:
213,192,67500,1,8,1:0:0:0:
448,192,67500,1,0,0:0:0:0:
213,192,67807,1,2,0:0:0:0:
384,192,67807,1,0,0:0:0:0:
128,192,67961,1,2,0:0:0:0:
320,192,67961,1,0,0:0:0:0:
64,192,68115,1,8,0:0:0:0:
192,192,68115,1,8,1:0:0:0:
448,192,68115,1,0,0:0:0:0:
128,192,68269,1,2,0:0:0:0:
320,192,68269,1,4,0:0:0:0:
384,192,68269,1,0,0:0:0:0:
448,192,68269,1,0,0:0:0:0:
64,192,68576,1,2,0:0:0:0:
192,192,68576,1,0,0:0:0:0:
298,192,68576,1,0,0:0:0:0:
128,192,68730,1,8,0:0:0:0:
384,192,68730,1,8,1:0:0:0:
448,192,68730,1,0,0:0:0:0:
64,192,69038,1,2,0:0:0:0:
320,192,69038,1,0,0:0:0:0:
128,192,69192,1,2,0:0:0:0:
384,192,69192,1,0,0:0:0:0:
64,192,69346,1,8,0:0:0:0:
213,192,69346,1,8,1:0:0:0:
469,192,69346,1,0,0:0:0:0:
64,192,69500,1,4,0:0:0:0:
128,192,69500,1,2,0:0:0:0:
298,192,69500,1,0,0:0:0:0:
384,192,69500,1,0,0:0:0:0:
213,192,69807,1,2,0:0:0:0:
320,192,69807,1,0,0:0:0:0:
469,192,69807,1,0,0:0:0:0:
64,192,69961,1,8,0:0:0:0:
128,192,69961,1,8,1:0:0:0:
384,192,69961,1,0,0:0:0:0:
213,192,70115,1,0,0:0:0:0:
64,192,70192,1,8,0:0:0:0:
298,192,70192,1,0,0:0:0:0:
128,192,70269,1,2,0:0:0:0:
384,192,70269,1,0,0:0:0:0:
213,192,70423,1,2,0:0:0:0:
469,192,70423,1,0,0:0:0:0:
42,192,70576,1,8,0:0:0:0:
128,192,70576,1,8,1:0:0:0:
384,192,70576,1,0,0:0:0:0:
64,192,70730,1,2,0:0:0:0:
213,192,70730,1,4,0:0:0:0:
298,192,70730,1,0,0:0:0:0:
448,192,70730,1,0,0:0:0:0:
128,192,71038,1,2,0:0:0:0:
320,192,71038,1,0,0:0:0:0:
64,192,71192,1,8,0:0:0:0:
213,192,71192,1,8,1:0:0:0:
448,192,71192,1,0,0:0:0:0:
128,192,71423,1,8,0:0:0:0:
384,192,71423,1,0,0:0:0:0:
213,192,71500,1,8,3:0:0:0:
469,192,71500,1,0,0:0:0:0:
42,192,71653,1,2,0:0:0:0:
298,192,71653,1,0,0:0:0:0:
128,192,71730,1,8,0:0:0:0:
384,192,71730,1,8,1:0:0:0:
469,192,71730,1,0,0:0:0:0:
42,192,71807,1,8,0:0:0:0:
213,192,71807,1,8,1:0:0:0:
298,192,71807,1,0,0:0:0:0:
128,192,71961,1,4,0:0:0:0:
213,192,71961,1,2,0:0:0:0:
384,192,71961,1,0,0:0:0:0:
448,192,71961,1,0,0:0:0:0:
64,192,72269,1,2,0:0:0:0:
128,192,72269,1,0,0:0:0:0:
384,192,72269,1,0,0:0:0:0:
213,192,72423,1,8,0:0:0:0:
320,192,72423,1,8,1:0:0:0:
448,192,72423,1,0,0:0:0:0:
42,192,72730,1,2,0:0:0:0:
213,192,72730,1,0,0:0:0:0:
128,192,72884,1,2,0:0:0:0:
298,192,72884,1,0,0:0:0:0:
213,192,73038,1,8,0:0:0:0:
384,192,73038,1,8,1:0:0:0:
448,192,73038,1,0,0:0:0:0:
64,192,73192,1,4,0:0:0:0:
128,192,73192,1,2,0:0:0:0:
320,192,73192,1,0,0:0:0:0:
448,192,73192,1,0,0:0:0:0:
42,192,73500,1,2,0:0:0:0:
384,192,73500,1,0,0:0:0:0:
469,192,73500,1,0,0:0:0:0:
128,192,73653,1,8,0:0:0:0:
192,192,73653,1,8,0:0:0:0:
320,192,73653,1,0,0:0:0:0:
64,192,73961,1,2,0:0:0:0:
384,192,73961,1,0,0:0:0:0:
128,192,74115,1,2,0:0:0:0:
320,192,74115,1,0,0:0:0:0:
64,192,74269,1,8,0:0:0:0:
213,192,74269,1,8,0:0:0:0:
448,192,74269,1,0,0:0:0:0:
64,192,74423,1,4,0:0:0:0:
128,192,74423,1,2,0:0:0:0:
384,192,74423,1,0,0:0:0:0:
448,192,74423,1,0,0:0:0:0:
192,192,74730,1,2,0:0:0:0:
320,192,74730,1,0,0:0:0:0:
64,192,74884,1,8,0:0:0:0:
384,192,74884,1,8,0:0:0:0:
448,192,74884,1,0,0:0:0:0:
128,192,75038,1,2,0:0:0:0:
213,192,75038,1,0,0:0:0:0:
298,192,75192,1,8,0:0:0:0:
384,192,75192,1,8,0:0:0:0:
469,192,75192,1,0,0:0:0:0:
42,192,75346,1,2,0:0:0:0:
128,192,75346,1,0,0:0:0:0:
213,192,75500,1,8,0:0:0:0:
298,192,75500,1,8,0:0:0:0:
384,192,75500,1,0,0:0:0:0:
64,192,75653,1,4,0:0:0:0:
128,192,75653,1,2,0:0:0:0:
298,192,75653,1,0,0:0:0:0:
448,192,75653,1,0,0:0:0:0:
213,192,75961,1,2,0:0:0:0:
128,192,76038,1,8,0:0:0:0:
384,192,76038,1,0,0:0:0:0:
64,192,76115,1,8,0:0:0:0:
469,192,76115,1,8,1:0:0:0:
42,192,76346,1,8,0:0:0:0:
128,192,76346,1,8,1:0:0:0:
213,192,76423,1,8,0:0:0:0:
298,192,76423,1,8,1:0:0:0:
42,192,76500,1,8,0:0:0:0:
128,192,76500,1,8,1:0:0:0:
298,192,76576,1,8,0:0:0:0:
384,192,76576,1,8,1:0:0:0:
128,192,76653,1,8,0:0:0:0:
213,192,76653,1,8,1:0:0:0:
384,192,76730,1,8,0:0:0:0:
469,192,76730,1,8,1:0:0:0:
213,192,76807,1,8,0:0:0:0:
298,192,76807,1,8,1:0:0:0:
42,192,76884,1,4,0:0:0:0:
128,192,76884,1,2,0:0:0:0:
384,192,76884,1,0,0:0:0:0:
448,192,76884,1,0,0:0:0:0:
192,192,77192,1,2,0:0:0:0:
320,192,77192,1,0,0:0:0:0:
64,192,77346,1,8,0:0:0:0:
128,192,77346,1,8,1:0:0:0:
448,192,77346,1,0,0:0:0:0:
298,192,77653,1,2,0:0:0:0:
384,192,77653,1,0,0:0:0:0:
128,192,77807,1,2,0:0:0:0:
213,192,77807,1,0,0:0:0:0:
42,192,77961,1,8,0:0:0:0:
320,192,77961,1,8,1:0:0:0:
384,192,77961,1,0,0:0:0:0:
128,192,78115,1,2,0:0:0:0:
213,192,78115,1,4,0:0:0:0:
384,192,78115,1,0,0:0:0:0:
469,192,78115,1,0,0:0:0:0:
42,192,78423,1,2,0:0:0:0:
128,192,78423,1,0,0:0:0:0:
192,192,78423,1,0,0:0:0:0:
320,192,78576,1,8,0:0:0:0:
384,192,78576,1,8,1:0:0:0:
448,192,78576,1,0,0:0:0:0:
213,192,78730,1,0,0:0:0:0:
42,192,78807,1,8,0:0:0:0:
128,192,78807,1,0,0:0:0:0:
298,192,78884,1,2,0:0:0:0:
384,192,78884,1,0,0:0:0:0:
42,192,79038,1,2,0:0:0:0:
213,192,79038,1,0,0:0:0:0:
128,192,79192,1,8,0:0:0:0:
384,192,79192,1,8,1:0:0:0:
448,192,79192,1,0,0:0:0:0:
64,192,79346,1,4,0:0:0:0:
213,192,79346,1,2,0:0:0:0:
320,192,79346,1,0,0:0:0:0:
469,192,79346,1,0,0:0:0:0:
128,192,79653,1,2,0:0:0:0:
298,192,79653,1,0,0:0:0:0:
469,192,79653,1,0,0:0:0:0:
64,192,79807,1,8,0:0:0:0:
213,192,79807,1,8,1:0:0:0:
384,192,79807,1,0,0:0:0:0:
298,192,79961,1,0,0:0:0:0:
384,192,80038,1,8,0:0:0:0:
469,192,80038,1,0,0:0:0:0:
128,192,80115,1,2,0:0:0:0:
213,192,80115,1,0,0:0:0:0:
42,192,80269,1,2,0:0:0:0:
128,192,80269,1,0,0:0:0:0:
298,192,80423,1,8,0:0:0:0:
384,192,80423,1,8,1:0:0:0:
448,192,80423,1,0,0:0:0:0:
64,192,80576,1,4,0:0:0:0:
128,192,80576,1,2,0:0:0:0:
192,192,80576,1,0,0:0:0:0:
469,192,80576,1,0,0:0:0:0:
384,192,80884,1,8,3:0:0:0:
448,192,80884,1,0,0:0:0:0:
42,192,81038,1,2,0:0:0:0:
298,192,81192,1,8,3:0:0:0:
384,192,81192,1,0,0:0:0:0:
42,192,81346,1,2,0:0:0:0:
213,192,81500,1,8,3:0:0:0:
298,192,81500,1,0,0:0:0:0:
42,192,81653,1,2,0:0:0:0:
128,192,81807,1,8,3:0:0:0:
213,192,81807,1,0,0:0:0:0:
64,192,81961,1,4,0:0:0:0:
298,192,81961,1,4,1:0:0:0:
384,192,81961,1,0,0:0:0:0:
448,192,81961,1,0,0:0:0:0:
128,192,82269,1,2,0:0:0:0:
384,192,82269,1,0,0:0:0:0:
192,192,82576,1,8,0:0:0:0:
320,192,82576,1,8,1:0:0:0:
448,192,82576,1,0,0:0:0:0:
64,192,82884,1,2,0:0:0:0:
384,192,82884,1,0,0:0:0:0:
192,192,83038,1,2,0:0:0:0:
320,192,83192,1,2,0:0:0:0:
64,192,83346,1,8,0:0:0:0:
384,192,83346,1,8,1:0:0:0:
448,192,83346,1,0,0:0:0:0:
128,192,83500,1,2,0:0:0:0:
320,192,83500,1,0,0:0:0:0:
192,192,83653,1,2,0:0:0:0:
64,192,83807,1,8,0:0:0:0:
384,192,83807,1,0,0:0:0:0:
448,192,83807,1,0,0:0:0:0:
128,192,83961,1,2,0:0:0:0:
213,192,83961,1,0,0:0:0:0:
298,192,84115,1,0,0:0:0:0:
64,192,84269,1,2,0:0:0:0:
384,192,84269,1,0,0:0:0:0:
128,192,84423,1,8,0:0:0:0:
192,192,84423,1,4,0:0:0:0:
320,192,84423,1,8,1:0:0:0:
448,192,84423,1,0,0:0:0:0:
42,192,84730,1,2,0:0:0:0:
128,192,84730,1,0,0:0:0:0:
192,192,84884,1,8,0:0:0:0:
320,192,84884,1,8,1:0:0:0:
384,192,84884,1,0,0:0:0:0:
42,192,85192,1,8,0:0:0:0:
128,192,85192,1,8,1:0:0:0:
448,192,85192,1,0,0:0:0:0:
128,192,85500,1,8,0:0:0:0:
192,192,85500,1,4,0:0:0:0:
320,192,85500,1,8,1:0:0:0:
384,192,85500,1,0,0:0:0:0:
64,192,85961,1,2,0:0:0:0:
128,192,85961,1,0,0:0:0:0:
384,192,85961,1,0,0:0:0:0:
448,192,85961,1,0,0:0:0:0:
64,192,86269,1,4,0:0:0:0:
213,192,86269,1,8,0:0:0:0:
298,192,86269,1,8,1:0:0:0:
448,192,86269,1,0,0:0:0:0:
128,192,86576,128,0,86730:0:0:0:0:
64,192,86730,1,4,1:0:0:0:
298,192,86730,1,2,0:0:0:0:
384,192,86730,128,0,88423:0:0:0:0:
448,192,86730,1,0,0:0:0:0:
128,192,87038,1,2,0:0:0:0:
192,192,87038,1,0,0:0:0:0:
64,192,87192,1,8,0:0:0:0:
298,192,87192,1,8,1:0:0:0:
469,192,87192,1,0,0:0:0:0:
128,192,87500,1,2,0:0:0:0:
298,192,87500,1,0,0:0:0:0:
42,192,87653,1,2,0:0:0:0:
192,192,87653,1,0,0:0:0:0:
128,192,87807,1,8,0:0:0:0:
298,192,87807,1,8,1:0:0:0:
469,192,87807,1,0,0:0:0:0:
64,192,87961,1,2,0:0:0:0:
213,192,87961,1,4,0:0:0:0:
448,192,87961,1,0,0:0:0:0:
128,192,88269,1,2,0:0:0:0:
298,192,88269,1,0,0:0:0:0:
64,192,88423,128,8,88576:0:0:0:0:
213,192,88423,1,8,1:0:0:0:
448,192,88423,1,0,0:0:0:0:
298,192,88576,1,0,0:0:0:0:
128,192,88653,1,8,0:0:0:0:
384,192,88653,1,0,0:0:0:0:
213,192,88730,128,2,88884:0:0:0:0:
469,192,88730,1,0,0:0:0:0:
42,192,88884,1,2,0:0:0:0:
384,192,88884,128,0,89038:0:0:0:0:
128,192,89038,128,8,89192:0:0:0:0:
213,192,89038,1,8,1:0:0:0:
469,192,89038,1,0,0:0:0:0:
42,192,89192,128,4,89653:0:0:0:0:
298,192,89192,1,2,0:0:0:0:
384,192,89192,1,0,0:0:0:0:
469,192,89192,1,0,0:0:0:0:
384,192,89500,1,2,0:0:0:0:
469,192,89500,1,0,0:0:0:0:
128,192,89653,1,8,0:0:0:0:
213,192,89653,1,0,0:0:0:0:
298,192,89653,128,0,89807:0:0:0:0:
128,192,89807,1,0,0:0:0:0:
384,192,89807,128,0,89961:0:0:0:0:
213,192,89884,1,8,0:0:0:0:
64,192,89961,1,2,0:0:0:0:
298,192,89961,1,0,0:0:0:0:
128,192,90115,1,2,0:0:0:0:
192,192,90115,1,0,0:0:0:0:
448,192,90115,128,0,90269:0:0:0:0:
64,192,90269,1,8,0:0:0:0:
298,192,90269,1,8,1:0:0:0:
384,192,90269,1,0,0:0:0:0:
64,192,90423,1,4,0:0:0:0:
128,192,90423,1,2,0:0:0:0:
192,192,90423,128,0,90730:0:0:0:0:
469,192,90423,1,0,0:0:0:0:
384,192,90730,1,2,0:0:0:0:
469,192,90730,128,0,90884:0:0:0:0:
298,192,90807,1,2,0:0:0:0:
64,192,90884,128,2,91038:0:0:0:0:
213,192,90884,1,0,0:0:0:0:
384,192,90961,1,2,0:0:0:0:
320,192,91038,1,8,0:0:0:0:
448,192,91038,128,0,91192:0:0:0:0:
213,192,91115,1,8,0:0:0:0:
128,192,91192,128,8,91346:0:0:0:0:
384,192,91192,1,8,1:0:0:0:
320,192,91269,1,0,0:0:0:0:
213,192,91346,1,8,0:0:0:0:
448,192,91346,128,8,91500:1:0:0:0:
42,192,91423,1,0,0:0:0:0:
213,192,91500,128,8,91653:0:0:0:0:
298,192,91500,1,8,1:0:0:0:
42,192,91653,128,4,92115:0:0:0:0:
128,192,91653,1,2,0:0:0:0:
384,192,91653,1,0,0:0:0:0:
448,192,91653,128,0,92115:0:0:0:0:
128,192,91961,1,2,0:0:0:0:
384,192,91961,1,0,0:0:0:0:
192,192,92115,1,8,0:0:0:0:
298,192,92115,1,8,1:0:0:0:
42,192,92269,1,4,0:0:0:0:
128,192,92269,128,2,92730:0:0:0:0:
384,192,92269,128,0,92730:0:0:0:0:
448,192,92269,1,0,0:0:0:0:
213,192,92576,1,2,0:0:0:0:
298,192,92576,1,0,0:0:0:0:
64,192,92730,1,8,0:0:0:0:
448,192,92730,1,8,1:0:0:0:
128,192,92884,1,2,0:0:0:0:
213,192,92884,128,4,93346:0:0:0:0:
298,192,92884,128,0,93346:0:0:0:0:
384,192,92884,1,0,0:0:0:0:
128,192,93192,1,2,0:0:0:0:
384,192,93192,1,0,0:0:0:0:
42,192,93346,1,8,0:0:0:0:
469,192,93346,1,8,1:0:0:0:
128,192,93500,128,4,93961:0:0:0:0:
213,192,93500,1,2,0:0:0:0:
298,192,93500,1,0,0:0:0:0:
384,192,93500,128,0,93961:0:0:0:0:
42,192,93807,1,8,0:0:0:0:
469,192,93807,1,8,1:0:0:0:
42,192,93961,1,8,0:0:0:0:
469,192,93961,1,8,1:0:0:0:
42,192,94115,128,2,94346:0:0:0:0:
128,192,94115,1,4,0:0:0:0:
384,192,94115,1,0,0:0:0:0:
448,192,94115,128,0,95346:0:0:0:0:
64,192,94423,128,8,94500:0:0:0:0:
320,192,94423,1,8,1:0:0:0:
64,192,94576,128,2,94653:0:0:0:0:
128,192,94576,1,0,0:0:0:0:
64,192,94730,128,8,94807:3:0:0:0:
298,192,94730,1,0,0:0:0:0:
213,192,94807,1,8,3:0:0:0:
64,192,94884,128,8,94961:3:0:0:0:
128,192,94884,1,0,0:0:0:0:
298,192,94884,1,0,0:0:0:0:
64,192,95038,128,8,95115:3:0:0:0:
213,192,95038,1,0,0:0:0:0:
384,192,95038,1,0,0:0:0:0:
64,192,95192,128,8,95269:3:0:0:0:
298,192,95192,1,0,0:0:0:0:
384,192,95192,1,0,0:0:0:0:
64,192,95346,1,8,0:0:0:0:
128,192,95346,1,8,1:0:0:0:
213,192,95346,1,0,0:0:0:0:
298,192,95346,1,0,0:0:0:0:
384,192,95653,128,0,96115:0:0:0:0:
213,192,95807,128,0,96269:0:0:0:0:
42,192,95961,128,0,96423:0:0:0:0:
469,192,96115,128,0,96576:0:0:0:0:
298,192,96269,128,0,96576:0:0:0:0:
128,192,96423,128,0,96576:0:0:0:0:
42,192,96576,128,4,99038:0:0:0:0:
213,192,96576,1,4,1:0:0:0:
384,192,96576,1,0,0:0:0:0:
448,192,96884,1,0,0:0:0:0:
128,192,97038,1,0,0:0:0:0:
384,192,97038,1,0,0:0:0:0:
298,192,97192,1,0,0:0:0:0:
213,192,97346,1,0,0:0:0:0:
384,192,97500,1,0,0:0:0:0:
128,192,97653,1,0,0:0:0:0:
469,192,97653,1,0,0:0:0:0:
213,192,97807,1,0,0:0:0:0:
384,192,97961,1,0,0:0:0:0:
298,192,98115,1,0,0:0:0:0:
128,192,98269,1,0,0:0:0:0:
469,192,98269,1,0,0:0:0:0:
213,192,98423,1,8,3:0:0:0:
384,192,98423,1,0,0:0:0:0:
128,192,98730,1,8,3:0:0:0:
298,192,98730,1,0,0:0:0:0:
213,192,98884,1,8,3:0:0:0:
128,192,99038,1,4,0:0:0:0:
384,192,99038,1,8,0:0:0:0:
469,192,99038,128,8,101653:1:0:0:0:
298,192,99192,1,0,0:0:0:0:
192,192,99346,1,0,0:0:0:0:
42,192,99500,1,0,0:0:0:0:
298,192,99500,1,0,0:0:0:0:
128,192,99653,1,0,0:0:0:0:
213,192,99807,1,0,0:0:0:0:
384,192,99961,1,0,0:0:0:0:
42,192,100115,1,0,0:0:0:0:
298,192,100115,1,0,0:0:0:0:
128,192,100269,1,0,0:0:0:0:
213,192,100423,1,0,0:0:0:0:
42,192,100576,1,8,0:0:0:0:
384,192,100576,1,8,1:0:0:0:
128,192,100653,1,8,0:0:0:0:
298,192,100653,1,8,1:0:0:0:
213,192,100884,1,8,3:0:0:0:
128,192,100961,1,8,3:0:0:0:
298,192,101038,1,8,3:0:0:0:
42,192,101192,1,8,3:0:0:0:
213,192,101346,1,8,3:0:0:0:
128,192,101500,1,8,3:0:0:0:
384,192,101500,1,0,0:0:0:0:
42,192,101653,1,8,0:0:0:0:
213,192,101653,1,4,0:0:0:0:
298,192,101653,1,8,1:0:0:0:
384,192,101961,1,2,0:0:0:0:
469,192,101961,1,0,0:0:0:0:
384,192,102115,1,2,0:0:0:0:
469,192,102115,1,0,0:0:0:0:
384,192,102269,1,2,0:0:0:0:
469,192,102269,1,0,0:0:0:0:
384,192,102423,1,2,0:0:0:0:
469,192,102423,1,0,0:0:0:0:
42,192,102576,1,8,1:0:0:0:
384,192,102576,1,2,0:0:0:0:
469,192,102576,1,8,0:0:0:0:
213,192,102730,1,8,1:0:0:0:
384,192,102730,1,2,0:0:0:0:
469,192,102730,1,8,0:0:0:0:
42,192,102884,1,2,0:0:0:0:
384,192,102884,1,8,1:0:0:0:
469,192,102884,1,8,0:0:0:0:
213,192,103038,1,8,1:0:0:0:
384,192,103038,1,2,0:0:0:0:
469,192,103038,1,8,0:0:0:0:
42,192,103192,1,8,1:0:0:0:
384,192,103192,1,2,0:0:0:0:
469,192,103192,1,8,0:0:0:0:
213,192,103346,1,8,1:0:0:0:
384,192,103346,1,2,0:0:0:0:
448,192,103346,1,8,0:0:0:0:
64,192,103500,1,2,0:0:0:0:
384,192,103500,1,8,1:0:0:0:
448,192,103500,1,8,0:0:0:0:
192,192,103653,1,8,1:0:0:0:
384,192,103653,1,2,0:0:0:0:
448,192,103653,1,8,0:0:0:0:
64,192,103807,1,2,0:0:0:0:
384,192,103807,1,8,1:0:0:0:
448,192,103807,1,8,0:0:0:0:
213,192,103961,1,2,0:0:0:0:
384,192,103961,1,0,0:0:0:0:
448,192,103961,1,0,0:0:0:0:
42,192,104038,1,2,0:0:0:0:
298,192,104038,1,0,0:0:0:0:
128,192,104115,128,8,104423:1:0:0:0:
384,192,104115,1,4,0:0:0:0:
448,192,104115,128,8,104423:0:0:0:0:
192,192,104269,1,2,0:0:0:0:
298,192,104423,1,2,0:0:0:0:
42,192,104576,128,8,104884:0:0:0:0:
128,192,104576,1,8,1:0:0:0:
384,192,104576,128,0,104884:0:0:0:0:
213,192,104730,1,2,0:0:0:0:
298,192,104884,1,2,0:0:0:0:
42,192,105038,1,8,0:0:0:0:
213,192,105038,128,4,105346:0:0:0:0:
384,192,105038,1,8,1:0:0:0:
469,192,105038,128,0,105346:0:0:0:0:
128,192,105192,1,2,0:0:0:0:
384,192,105346,1,2,0:0:0:0:
42,192,105500,128,8,105807:0:0:0:0:
128,192,105500,1,8,1:0:0:0:
320,192,105500,128,0,105807:0:0:0:0:
469,192,105500,1,0,0:0:0:0:
213,192,105653,1,2,0:0:0:0:
384,192,105807,1,2,0:0:0:0:
64,192,105961,128,8,106038:0:0:0:0:
213,192,105961,1,8,1:0:0:0:
298,192,105961,1,0,0:0:0:0:
448,192,105961,128,0,106038:0:0:0:0:
64,192,106115,128,8,106269:0:0:0:0:
213,192,106115,1,8,1:0:0:0:
298,192,106115,1,0,0:0:0:0:
448,192,106115,128,0,106269:0:0:0:0:
64,192,106576,1,4,0:0:0:0:
128,192,106576,1,4,1:0:0:0:
384,192,106576,1,0,0:0:0:0:
448,192,106576,1,0,0:0:0:0:
192,192,106730,1,0,0:0:0:0:
64,192,106884,1,8,0:0:0:0:
320,192,106884,1,8,1:0:0:0:
448,192,106884,1,0,0:0:0:0:
128,192,107038,1,0,0:0:0:0:
213,192,107192,1,2,0:0:0:0:
384,192,107192,1,0,0:0:0:0:
42,192,107346,1,0,0:0:0:0:
128,192,107500,1,8,1:0:0:0:
298,192,107500,1,8,0:0:0:0:
448,192,107500,1,0,0:0:0:0:
213,192,107653,1,2,0:0:0:0:
64,192,107807,1,0,0:0:0:0:
298,192,107807,1,0,0:0:0:0:
128,192,107961,1,2,0:0:0:0:
213,192,108115,1,8,0:0:0:0:
384,192,108115,1,8,1:0:0:0:
448,192,108115,1,0,0:0:0:0:
42,192,108269,1,0,0:0:0:0:
128,192,108423,1,2,0:0:0:0:
320,192,108423,1,0,0:0:0:0:
192,192,108500,1,8,0:0:0:0:
384,192,108500,1,0,0:0:0:0:
298,192,108576,1,2,0:0:0:0:
64,192,108730,1,8,0:0:0:0:
128,192,108730,1,8,1:0:0:0:
448,192,108730,1,0,0:0:0:0:
192,192,108884,1,0,0:0:0:0:
64,192,109038,1,2,0:0:0:0:
320,192,109038,1,0,0:0:0:0:
384,192,109038,1,0,0:0:0:0:
448,192,109038,1,0,0:0:0:0:
128,192,109346,1,8,0:0:0:0:
192,192,109346,1,8,1:0:0:0:
448,192,109346,1,0,0:0:0:0:
384,192,109500,1,0,0:0:0:0:
42,192,109653,1,2,0:0:0:0:
298,192,109653,1,0,0:0:0:0:
192,192,109807,1,2,0:0:0:0:
64,192,109961,1,8,0:0:0:0:
320,192,109961,1,8,1:0:0:0:
448,192,109961,1,0,0:0:0:0:
128,192,110115,1,2,0:0:0:0:
384,192,110115,1,0,0:0:0:0:
298,192,110269,1,0,0:0:0:0:
192,192,110423,1,2,0:0:0:0:
469,192,110423,1,0,0:0:0:0:
64,192,110576,1,8,0:0:0:0:
128,192,110576,1,8,1:0:0:0:
384,192,110576,1,0,0:0:0:0:
213,192,110807,1,0,0:0:0:0:
128,192,110884,1,2,0:0:0:0:
448,192,110884,1,0,0:0:0:0:
384,192,110961,1,8,0:0:0:0:
298,192,111038,1,2,0:0:0:0:
64,192,111192,1,8,0:0:0:0:
192,192,111192,1,8,1:0:0:0:
448,192,111192,1,0,0:0:0:0:
128,192,111346,1,8,1:0:0:0:
384,192,111346,1,8,0:0:0:0:
192,192,111423,1,8,1:0:0:0:
298,192,111423,1,8,0:0:0:0:
64,192,111500,1,2,0:0:0:0:
128,192,111500,1,4,0:0:0:0:
384,192,111500,1,0,0:0:0:0:
448,192,111500,1,0,0:0:0:0:
64,192,111807,1,8,0:0:0:0:
213,192,111807,1,8,1:0:0:0:
384,192,111807,1,0,0:0:0:0:
298,192,112038,1,2,0:0:0:0:
64,192,112115,1,2,0:0:0:0:
384,192,112115,1,0,0:0:0:0:
128,192,112192,1,8,0:0:0:0:
469,192,112192,1,0,0:0:0:0:
213,192,112269,1,2,0:0:0:0:
64,192,112423,1,8,0:0:0:0:
320,192,112423,1,8,1:0:0:0:
384,192,112423,1,0,0:0:0:0:
192,192,112576,1,2,0:0:0:0:
448,192,112576,1,0,0:0:0:0:
128,192,112730,1,0,0:0:0:0:
42,192,112884,1,2,0:0:0:0:
384,192,112884,1,0,0:0:0:0:
128,192,113038,1,8,0:0:0:0:
213,192,113038,1,8,1:0:0:0:
448,192,113038,1,0,0:0:0:0:
298,192,113192,1,0,0:0:0:0:
213,192,113269,1,2,0:0:0:0:
128,192,113346,1,2,0:0:0:0:
448,192,113346,1,0,0:0:0:0:
42,192,113423,1,2,0:0:0:0:
384,192,113423,1,0,0:0:0:0:
320,192,113500,1,2,0:0:0:0:
64,192,113653,1,8,0:0:0:0:
192,192,113653,1,8,1:0:0:0:
448,192,113653,1,0,0:0:0:0:
128,192,113807,1,2,0:0:0:0:
64,192,113961,1,4,0:0:0:0:
298,192,113961,128,8,114115:0:0:0:0:
384,192,113961,128,8,114115:1:0:0:0:
469,192,113961,1,0,0:0:0:0:
42,192,114423,1,8,0:0:0:0:
128,192,114423,128,4,114576:0:0:0:0:
192,192,114423,128,8,114576:1:0:0:0:
448,192,114423,1,0,0:0:0:0:
42,192,114884,1,8,0:0:0:0:
213,192,114884,128,4,115038:0:0:0:0:
298,192,114884,128,8,115038:1:0:0:0:
384,192,114884,1,0,0:0:0:0:
42,192,115346,1,8,3:0:0:0:
128,192,115346,128,0,115500:0:0:0:0:
384,192,115346,128,0,115500:0:0:0:0:
448,192,115346,1,0,0:0:0:0:
64,192,115807,128,8,115884:0:0:0:0:
213,192,115807,1,8,1:0:0:0:
298,192,115807,1,0,0:0:0:0:
448,192,115807,128,0,115884:0:0:0:0:
64,192,115961,128,8,116346:0:0:0:0:
128,192,115961,1,8,1:0:0:0:
384,192,115961,1,0,0:0:0:0:
448,192,115961,128,0,116346:0:0:0:0:
64,192,116423,1,4,1:0:0:0:
128,192,116423,1,4,0:0:0:0:
384,192,116423,128,0,117038:0:0:0:0:
448,192,116423,1,0,0:0:0:0:
192,192,116576,1,0,0:0:0:0:
298,192,116730,1,0,0:0:0:0:
42,192,116884,1,2,0:0:0:0:
448,192,116884,1,0,0:0:0:0:
128,192,117038,128,8,117653:0:0:0:0:
213,192,117038,1,8,1:0:0:0:
298,192,117038,1,0,0:0:0:0:
448,192,117192,1,0,0:0:0:0:
42,192,117346,1,2,0:0:0:0:
320,192,117346,1,0,0:0:0:0:
213,192,117500,1,2,0:0:0:0:
384,192,117500,1,0,0:0:0:0:
320,192,117653,1,0,0:0:0:0:
448,192,117653,128,0,118269:0:0:0:0:
64,192,117807,1,8,0:0:0:0:
213,192,117807,1,8,1:0:0:0:
384,192,117807,1,0,0:0:0:0:
320,192,117961,1,0,0:0:0:0:
128,192,118115,1,2,0:0:0:0:
384,192,118115,1,0,0:0:0:0:
64,192,118269,128,8,118884:0:0:0:0:
213,192,118269,1,8,1:0:0:0:
320,192,118269,1,0,0:0:0:0:
128,192,118423,1,2,0:0:0:0:
384,192,118423,1,0,0:0:0:0:
298,192,118576,1,0,0:0:0:0:
213,192,118730,1,8,0:0:0:0:
469,192,118730,1,0,0:0:0:0:
128,192,118807,1,8,0:0:0:0:
384,192,118807,1,0,0:0:0:0:
320,192,118884,128,2,119500:0:0:0:0:
469,192,118884,1,0,0:0:0:0:
64,192,119038,1,8,0:0:0:0:
213,192,119038,1,8,1:0:0:0:
384,192,119038,1,0,0:0:0:0:
128,192,119192,1,0,0:0:0:0:
384,192,119346,1,2,0:0:0:0:
42,192,119500,1,8,0:0:0:0:
192,192,119500,128,8,120115:1:0:0:0:
448,192,119500,1,0,0:0:0:0:
128,192,119807,1,2,0:0:0:0:
384,192,119807,1,0,0:0:0:0:
298,192,119961,1,2,0:0:0:0:
384,192,120115,1,0,0:0:0:0:
448,192,120115,128,0,120423:0:0:0:0:
128,192,120269,1,8,0:0:0:0:
298,192,120269,1,8,1:0:0:0:
42,192,120423,128,2,120730:0:0:0:0:
192,192,120423,1,0,0:0:0:0:
320,192,120576,1,2,0:0:0:0:
128,192,120730,128,8,121038:0:0:0:0:
384,192,120730,1,8,1:0:0:0:
469,192,120730,1,0,0:0:0:0:
213,192,120884,1,2,0:0:0:0:
384,192,121038,128,0,121346:0:0:0:0:
64,192,121192,1,8,0:0:0:0:
192,192,121192,1,8,1:0:0:0:
128,192,121346,1,2,0:0:0:0:
298,192,121346,1,4,0:0:0:0:
448,192,121346,128,0,122576:0:0:0:0:
192,192,121500,1,0,0:0:0:0:
42,192,121653,1,0,0:0:0:0:
128,192,121807,1,2,0:0:0:0:
384,192,121807,1,0,0:0:0:0:
42,192,121961,1,8,0:0:0:0:
213,192,121961,1,8,1:0:0:0:
320,192,121961,1,0,0:0:0:0:
384,192,122115,1,0,0:0:0:0:
128,192,122269,1,2,0:0:0:0:
192,192,122423,1,2,0:0:0:0:
384,192,122423,1,0,0:0:0:0:
64,192,122576,128,0,122884:0:0:0:0:
320,192,122576,1,0,0:0:0:0:
128,192,122730,1,8,0:0:0:0:
192,192,122730,1,8,1:0:0:0:
384,192,122730,1,0,0:0:0:0:
320,192,122884,128,2,123192:0:0:0:0:
469,192,122884,1,0,0:0:0:0:
213,192,123038,1,2,0:0:0:0:
64,192,123192,1,8,0:0:0:0:
128,192,123192,128,8,123500:1:0:0:0:
384,192,123192,1,0,0:0:0:0:
213,192,123346,1,2,0:0:0:0:
384,192,123500,128,0,123807:0:0:0:0:
469,192,123500,1,0,0:0:0:0:
42,192,123653,1,8,0:0:0:0:
128,192,123730,1,8,0:0:0:0:
64,192,123807,1,2,0:0:0:0:
213,192,123807,128,0,125038:0:0:0:0:
298,192,123961,1,8,0:0:0:0:
384,192,123961,1,8,1:0:0:0:
448,192,123961,1,0,0:0:0:0:
128,192,124115,1,0,0:0:0:0:
298,192,124269,1,2,0:0:0:0:
64,192,124423,1,8,0:0:0:0:
384,192,124423,1,8,1:0:0:0:
448,192,124423,1,0,0:0:0:0:
298,192,124730,1,2,0:0:0:0:
298,192,124884,1,2,0:0:0:0:
42,192,125038,1,8,1:0:0:0:
128,192,125038,128,4,125269:0:0:0:0:
384,192,125038,128,8,125269:0:0:0:0:
469,192,125038,1,0,0:0:0:0:
42,192,125346,1,8,1:0:0:0:
213,192,125346,128,4,125576:0:0:0:0:
320,192,125346,128,8,125576:0:0:0:0:
448,192,125346,1,0,0:0:0:0:
64,192,125653,1,4,0:0:0:0:
128,192,125653,128,8,125884:1:0:0:0:
384,192,125653,128,8,125884:0:0:0:0:
469,192,125653,1,0,0:0:0:0:
64,192,125961,128,8,126192:1:0:0:0:
192,192,125961,1,4,0:0:0:0:
298,192,125961,1,8,0:0:0:0:
448,192,125961,128,0,126192:0:0:0:0:
128,192,126269,1,8,3:0:0:0:
384,192,126269,1,0,0:0:0:0:
213,192,126346,1,8,3:0:0:0:
42,192,126423,1,8,3:0:0:0:
298,192,126423,1,0,0:0:0:0:
128,192,126500,1,8,3:0:0:0:
213,192,126576,1,8,0:0:0:0:
298,192,126576,1,4,0:0:0:0:
384,192,126576,1,0,0:0:0:0:
469,192,126576,128,0,127500:0:0:0:0:
42,192,126884,1,2,0:0:0:0:
128,192,126884,1,0,0:0:0:0:
213,192,127038,1,2,0:0:0:0:
320,192,127038,1,0,0:0:0:0:
64,192,127192,1,8,0:0:0:0:
128,192,127192,1,8,1:0:0:0:
384,192,127192,1,0,0:0:0:0:
42,192,127500,128,2,128730:0:0:0:0:
192,192,127500,1,0,0:0:0:0:
298,192,127500,1,0,0:0:0:0:
320,192,127807,1,8,0:0:0:0:
384,192,127807,1,8,1:0:0:0:
469,192,127807,1,0,0:0:0:0:
128,192,127961,1,2,0:0:0:0:
213,192,127961,1,0,0:0:0:0:
128,192,128269,1,2,0:0:0:0:
213,192,128269,1,0,0:0:0:0:
320,192,128423,1,8,0:0:0:0:
384,192,128423,1,0,0:0:0:0:
448,192,128423,1,0,0:0:0:0:
192,192,128730,1,2,0:0:0:0:
298,192,128730,1,0,0:0:0:0:
384,192,128730,128,0,129961:0:0:0:0:
42,192,129038,1,8,0:0:0:0:
128,192,129038,1,8,1:0:0:0:
448,192,129038,1,0,0:0:0:0:
213,192,129346,1,2,0:0:0:0:
298,192,129346,1,0,0:0:0:0:
128,192,129500,1,2,0:0:0:0:
213,192,129500,1,0,0:0:0:0:
42,192,129653,1,8,0:0:0:0:
128,192,129653,1,8,1:0:0:0:
448,192,129653,1,0,0:0:0:0:
192,192,129807,1,2,0:0:0:0:
298,192,129807,1,0,0:0:0:0:
64,192,129961,1,8,0:0:0:0:
128,192,129961,1,8,1:0:0:0:
448,192,129961,1,0,0:0:0:0:
213,192,130269,1,2,0:0:0:0:
320,192,130269,1,0,0:0:0:0:
64,192,130423,1,8,0:0:0:0:
128,192,130423,1,4,0:0:0:0:
384,192,130423,1,8,1:0:0:0:
469,192,130423,1,0,0:0:0:0:
213,192,130730,1,8,3:0:0:0:
384,192,130884,1,8,3:0:0:0:
128,192,131038,1,8,3:0:0:0:
384,192,131115,1,2,0:0:0:0:
42,192,131192,1,2,0:0:0:0:
213,192,131192,1,4,0:0:0:0:
298,192,131192,1,0,0:0:0:0:
469,192,131192,1,0,0:0:0:0:
42,192,131346,1,2,0:0:0:0:
213,192,131346,1,4,0:0:0:0:
298,192,131346,1,0,0:0:0:0:
469,192,131346,1,0,0:0:0:0:
213,192,132115,128,0,132423:0:0:0:0:
298,192,132115,128,0,132423:0:0:0:0:
64,192,132423,1,2,0:0:0:0:
128,192,132423,1,4,0:0:0:0:
384,192,132423,1,0,0:0:0:0:
448,192,132423,1,0,0:0:0:0:
64,192,132576,1,2,0:0:0:0:
128,192,132576,1,4,0:0:0:0:
384,192,132576,1,0,0:0:0:0:
448,192,132576,1,0,0:0:0:0:
298,192,133192,1,8,3:0:0:0:
384,192,133269,1,8,3:0:0:0:
42,192,133346,1,8,3:0:0:0:
213,192,133346,1,0,0:0:0:0:
298,192,133423,1,2,0:0:0:0:
128,192,133500,1,2,0:0:0:0:
469,192,133500,1,0,0:0:0:0:
213,192,133576,1,2,0:0:0:0:
64,192,133653,128,4,133961:0:0:0:0:
128,192,133653,1,8,0:0:0:0:
320,192,133653,128,8,133961:1:0:0:0:
384,192,133653,1,0,0:0:0:0:
192,192,133961,1,2,0:0:0:0:
448,192,133961,1,0,0:0:0:0:
128,192,134115,128,8,134423:0:0:0:0:
298,192,134115,1,8,1:0:0:0:
384,192,134115,128,0,134423:0:0:0:0:
64,192,134423,1,2,0:0:0:0:
448,192,134423,1,0,0:0:0:0:
128,192,134576,1,8,0:0:0:0:
192,192,134576,128,4,134884:0:0:0:0:
298,192,134576,1,8,1:0:0:0:
448,192,134576,128,0,134884:0:0:0:0:
128,192,134884,1,2,0:0:0:0:
384,192,134884,1,0,0:0:0:0:
42,192,135038,128,8,135346:0:0:0:0:
213,192,135038,1,8,1:0:0:0:
298,192,135038,1,0,0:0:0:0:
448,192,135038,128,0,135346:0:0:0:0:
192,192,135346,1,2,0:0:0:0:
298,192,135346,1,0,0:0:0:0:
42,192,135500,1,8,0:0:0:0:
128,192,135500,128,8,135576:1:0:0:0:
384,192,135500,128,0,135576:0:0:0:0:
469,192,135500,1,0,0:0:0:0:
42,192,135653,1,8,0:0:0:0:
128,192,135653,128,8,135961:1:0:0:0:
384,192,135653,128,0,135961:0:0:0:0:
469,192,135653,1,0,0:0:0:0:
64,192,136115,1,8,1:0:0:0:
128,192,136115,1,8,0:0:0:0:
192,192,136115,1,0,0:0:0:0:
320,192,136269,1,8,1:0:0:0:
384,192,136269,1,8,0:0:0:0:
448,192,136269,1,0,0:0:0:0:
64,192,136423,1,8,1:0:0:0:
128,192,136423,1,8,0:0:0:0:
192,192,136423,1,0,0:0:0:0:
320,192,136576,1,8,1:0:0:0:
384,192,136576,1,8,0:0:0:0:
448,192,136576,1,0,0:0:0:0:
128,192,136884,1,8,1:0:0:0:
213,192,136884,1,8,0:0:0:0:
320,192,136884,1,0,0:0:0:0:
384,192,136884,1,0,0:0:0:0:
128,192,137192,1,8,1:0:0:0:
192,192,137192,1,8,0:0:0:0:
298,192,137192,1,0,0:0:0:0:
384,192,137192,1,0,0:0:0:0:
64,192,137500,1,8,1:0:0:0:
128,192,137500,1,8,0:0:0:0:
384,192,137500,1,0,0:0:0:0:
448,192,137500,1,0,0:0:0:0:
64,192,137653,1,8,0:0:0:0:
128,192,137653,1,8,1:0:0:0:
384,192,137653,1,0,0:0:0:0:
448,192,137653,1,0,0:0:0:0:
298,192,137961,128,0,138115:0:0:0:0:
213,192,138115,128,0,138269:0:0:0:0:
128,192,138269,128,0,138423:0:0:0:0:
64,192,138423,128,4,139653:0:0:0:0:
298,192,138423,1,4,1:0:0:0:
384,192,138423,1,2,1:0:0:0:
448,192,138423,1,0,0:0:0:0:
213,192,138730,1,2,0:0:0:0:
384,192,138730,1,0,0:0:0:0:
128,192,138884,1,8,0:0:0:0:
320,192,138884,1,8,1:0:0:0:
469,192,138884,1,0,0:0:0:0:
213,192,139192,128,2,139346:0:0:0:0:
469,192,139192,1,0,0:0:0:0:
128,192,139346,1,2,0:0:0:0:
298,192,139346,128,0,139500:0:0:0:0:
384,192,139500,128,8,139653:0:0:0:0:
448,192,139500,1,8,1:0:0:0:
128,192,139653,1,4,0:0:0:0:
298,192,139653,1,2,0:0:0:0:
469,192,139653,128,0,140884:0:0:0:0:
64,192,139961,1,2,0:0:0:0:
213,192,139961,1,0,0:0:0:0:
128,192,140115,1,8,0:0:0:0:
298,192,140115,1,8,1:0:0:0:
384,192,140115,1,0,0:0:0:0:
213,192,140346,1,8,0:0:0:0:
298,192,140423,1,2,0:0:0:0:
384,192,140423,128,0,140576:0:0:0:0:
42,192,140576,128,2,140730:0:0:0:0:
128,192,140576,1,0,0:0:0:0:
298,192,140730,1,8,0:0:0:0:
384,192,140730,128,8,140884:1:0:0:0:
64,192,140884,1,2,0:0:0:0:
128,192,140884,128,4,142115:0:0:0:0:
213,192,140884,1,0,0:0:0:0:
384,192,141192,1,2,0:0:0:0:
448,192,141192,1,0,0:0:0:0:
64,192,141346,1,8,0:0:0:0:
213,192,141346,1,8,1:0:0:0:
298,192,141346,1,0,0:0:0:0:
384,192,141576,1,8,0:0:0:0:
42,192,141653,128,2,141807:0:0:0:0:
298,192,141653,1,0,0:0:0:0:
213,192,141807,128,2,141961:0:0:0:0:
384,192,141807,1,0,0:0:0:0:
298,192,141961,128,8,142115:0:0:0:0:
469,192,141961,1,8,1:0:0:0:
64,192,142115,1,4,0:0:0:0:
384,192,142115,128,2,143346:0:0:0:0:
469,192,142115,1,0,0:0:0:0:
192,192,142423,1,2,0:0:0:0:
298,192,142423,1,0,0:0:0:0:
42,192,142576,1,8,0:0:0:0:
128,192,142576,1,0,0:0:0:0:
469,192,142576,1,0,0:0:0:0:
298,192,142730,1,0,0:0:0:0:
192,192,142807,1,8,0:0:0:0:
42,192,142884,1,8,0:0:0:0:
128,192,142961,1,8,0:0:0:0:
298,192,143038,1,8,0:0:0:0:
213,192,143115,1,8,0:0:0:0:
128,192,143192,1,8,0:0:0:0:
469,192,143192,1,8,1:0:0:0:
298,192,143269,1,0,0:0:0:0:
64,192,143346,128,2,144576:0:0:0:0:
192,192,143346,1,4,0:0:0:0:
469,192,143346,1,0,0:0:0:0:
128,192,143653,1,2,0:0:0:0:
298,192,143653,1,0,0:0:0:0:
192,192,143807,1,8,0:0:0:0:
384,192,143807,1,8,1:0:0:0:
448,192,143807,1,0,0:0:0:0:
128,192,144038,1,8,0:0:0:0:
298,192,144115,1,2,0:0:0:0:
469,192,144115,128,0,144269:0:0:0:0:
213,192,144269,1,2,0:0:0:0:
384,192,144269,128,0,144423:0:0:0:0:
128,192,144423,1,8,0:0:0:0:
298,192,144423,128,8,144576:1:0:0:0:
213,192,144576,128,2,145807:0:0:0:0:
384,192,144576,1,4,0:0:0:0:
448,192,144576,1,0,0:0:0:0:
64,192,144884,1,2,0:0:0:0:
384,192,144884,1,0,0:0:0:0:
128,192,145038,1,8,0:0:0:0:
320,192,145038,1,8,1:0:0:0:
448,192,145038,1,0,0:0:0:0:
384,192,145269,1,8,0:0:0:0:
42,192,145346,128,2,145500:0:0:0:0:
128,192,145346,1,0,0:0:0:0:
384,192,145500,128,2,145653:0:0:0:0:
469,192,145500,1,0,0:0:0:0:
42,192,145653,128,8,145807:0:0:0:0:
298,192,145653,1,8,1:0:0:0:
128,192,145807,1,2,0:0:0:0:
384,192,145807,1,4,0:0:0:0:
469,192,145807,128,0,147038:0:0:0:0:
42,192,146115,1,2,0:0:0:0:
320,192,146115,1,0,0:0:0:0:
128,192,146269,1,8,0:0:0:0:
213,192,146269,1,8,1:0:0:0:
384,192,146269,1,0,0:0:0:0:
64,192,146423,1,2,0:0:0:0:
298,192,146423,1,0,0:0:0:0:
128,192,146576,1,8,0:0:0:0:
192,192,146576,1,8,1:0:0:0:
384,192,146576,1,0,0:0:0:0:
64,192,146730,1,2,0:0:0:0:
320,192,146730,1,0,0:0:0:0:
128,192,146884,1,8,0:0:0:0:
213,192,146884,1,8,1:0:0:0:
384,192,146884,1,0,0:0:0:0:
64,192,147038,1,2,0:0:0:0:
128,192,147038,1,4,0:0:0:0:
320,192,147038,1,0,0:0:0:0:
384,192,147038,1,0,0:0:0:0:
213,192,147346,1,8,3:0:0:0:
469,192,147423,1,8,3:0:0:0:
128,192,147500,1,8,3:0:0:0:
384,192,147576,1,8,3:0:0:0:
42,192,147653,1,8,3:0:0:0:
298,192,147730,1,8,3:0:0:0:
128,192,147807,1,2,0:0:0:0:
384,192,147884,1,2,0:0:0:0:
192,192,147961,1,2,0:0:0:0:
469,192,148038,1,2,0:0:0:0:
64,192,148115,1,8,0:0:0:0:
128,192,148115,1,8,1:0:0:0:
298,192,148115,1,0,0:0:0:0:
42,192,148269,1,4,0:0:0:0:
213,192,148269,1,2,0:0:0:0:
384,192,148269,128,0,149500:0:0:0:0:
448,192,148269,1,0,0:0:0:0:
128,192,148576,1,2,0:0:0:0:
298,192,148576,1,0,0:0:0:0:
64,192,148730,1,8,0:0:0:0:
213,192,148730,1,8,1:0:0:0:
448,192,148730,1,0,0:0:0:0:
128,192,149038,1,2,0:0:0:0:
298,192,149038,128,0,149192:0:0:0:0:
42,192,149192,128,2,149346:0:0:0:0:
213,192,149192,1,0,0:0:0:0:
128,192,149346,128,8,149500:0:0:0:0:
298,192,149346,1,8,1:0:0:0:
64,192,149500,1,4,0:0:0:0:
213,192,149500,128,2,150730:0:0:0:0:
448,192,149500,1,0,0:0:0:0:
128,192,149807,1,2,0:0:0:0:
320,192,149807,1,0,0:0:0:0:
42,192,149961,1,8,0:0:0:0:
384,192,149961,1,0,0:0:0:0:
448,192,149961,1,0,0:0:0:0:
128,192,150115,1,0,0:0:0:0:
298,192,150192,1,8,0:0:0:0:
42,192,150269,128,2,150423:0:0:0:0:
128,192,150269,1,0,0:0:0:0:
384,192,150423,128,2,150576:0:0:0:0:
469,192,150423,1,0,0:0:0:0:
42,192,150576,128,8,150730:0:0:0:0:
128,192,150576,1,8,1:0:0:0:
320,192,150730,1,2,0:0:0:0:
384,192,150730,1,4,0:0:0:0:
448,192,150730,128,0,151961:0:0:0:0:
42,192,151038,1,2,0:0:0:0:
128,192,151038,1,0,0:0:0:0:
213,192,151192,1,8,0:0:0:0:
298,192,151192,1,8,1:0:0:0:
384,192,151192,1,0,0:0:0:0:
128,192,151346,1,0,0:0:0:0:
42,192,151423,1,8,0:0:0:0:
128,192,151500,1,2,0:0:0:0:
298,192,151500,128,0,151653:0:0:0:0:
42,192,151653,1,2,0:0:0:0:
213,192,151653,128,0,151807:0:0:0:0:
128,192,151807,128,8,151961:0:0:0:0:
384,192,151807,1,8,1:0:0:0:
64,192,151961,128,2,153346:0:0:0:0:
213,192,151961,1,4,0:0:0:0:
298,192,151961,1,0,0:0:0:0:
128,192,152269,1,8,3:0:0:0:
298,192,152269,1,0,0:0:0:0:
448,192,152269,1,0,0:0:0:0:
384,192,152423,1,2,0:0:0:0:
213,192,152576,1,8,3:0:0:0:
469,192,152576,1,0,0:0:0:0:
298,192,152730,1,2,0:0:0:0:
128,192,152884,1,8,3:0:0:0:
384,192,152884,1,0,0:0:0:0:
213,192,153038,1,2,0:0:0:0:
128,192,153192,1,8,3:0:0:0:
320,192,153192,1,0,0:0:0:0:
192,192,153346,128,2,154576:0:0:0:0:
384,192,153346,1,4,0:0:0:0:
448,192,153346,1,0,0:0:0:0:
128,192,153807,1,2,0:0:0:0:
320,192,153807,1,0,0:0:0:0:
64,192,153961,1,8,0:0:0:0:
384,192,153961,1,8,1:0:0:0:
448,192,153961,1,0,0:0:0:0:
320,192,154269,1,2,0:0:0:0:
42,192,154423,1,2,0:0:0:0:
128,192,154576,1,2,0:0:0:0:
469,192,154576,128,0,155807:0:0:0:0:
42,192,154730,1,8,0:0:0:0:
298,192,154730,1,8,1:0:0:0:
384,192,154730,1,0,0:0:0:0:
213,192,154884,1,2,0:0:0:0:
128,192,155038,1,2,0:0:0:0:
64,192,155192,1,8,0:0:0:0:
298,192,155192,1,8,1:0:0:0:
384,192,155192,1,0,0:0:0:0:
213,192,155346,1,2,0:0:0:0:
128,192,155500,1,0,0:0:0:0:
192,192,155653,1,8,0:0:0:0:
128,192,155730,1,8,0:0:0:0:
298,192,155730,1,0,0:0:0:0:
64,192,155807,1,4,0:0:0:0:
384,192,155807,1,2,0:0:0:0:
42,192,156115,1,8,0:0:0:0:
213,192,156115,1,8,1:0:0:0:
384,192,156115,1,0,0:0:0:0:
128,192,156269,1,2,0:0:0:0:
298,192,156269,1,0,0:0:0:0:
469,192,156269,1,0,0:0:0:0:
42,192,156576,1,2,0:0:0:0:
298,192,156576,1,0,0:0:0:0:
384,192,156576,1,0,0:0:0:0:
128,192,156884,1,4,0:0:0:0:
192,192,156884,1,8,0:0:0:0:
384,192,156884,1,8,1:0:0:0:
469,192,156884,1,0,0:0:0:0:
64,192,157346,128,8,157653:3:0:0:0:
128,192,157346,128,0,157653:0:0:0:0:
384,192,157653,128,8,158269:1:0:0:0:
448,192,157653,128,8,158269:0:0:0:0:
42,192,158269,1,2,0:0:0:0:
128,192,158269,128,4,158423:0:0:0:0:
320,192,158269,128,0,158423:0:0:0:0:
192,192,158423,128,2,158576:0:0:0:0:
384,192,158423,128,0,158576:0:0:0:0:
64,192,158730,1,8,1:0:0:0:
128,192,158730,1,8,0:0:0:0:
320,192,158730,128,0,158884:0:0:0:0:
448,192,158730,128,0,158884:0:0:0:0:
64,192,159038,1,8,1:0:0:0:
128,192,159038,1,8,0:0:0:0:
320,192,159038,128,0,159192:0:0:0:0:
448,192,159038,128,0,159192:0:0:0:0:
64,192,159346,1,8,1:0:0:0:
128,192,159346,1,8,0:0:0:0:
320,192,159346,128,0,159500:0:0:0:0:
448,192,159346,128,0,159500:0:0:0:0:
64,192,159653,1,8,0:0:0:0:
128,192,159653,1,0,0:0:0:0:
384,192,159653,1,0,0:0:0:0:
213,192,159807,1,2,0:0:0:0:
320,192,159961,1,2,0:0:0:0:
128,192,160115,1,8,0:0:0:0:
384,192,160115,1,8,1:0:0:0:
469,192,160115,1,0,0:0:0:0:
213,192,160269,1,2,0:0:0:0:
42,192,160423,1,2,0:0:0:0:
298,192,160423,1,0,0:0:0:0:
128,192,160576,1,8,0:0:0:0:
384,192,160576,1,0,0:0:0:0:
42,192,160653,1,8,0:0:0:0:
320,192,160653,1,0,0:0:0:0:
192,192,160730,128,2,160884:0:0:0:0:
384,192,160730,128,0,160884:0:0:0:0:
128,192,160884,128,2,161038:0:0:0:0:
320,192,160884,128,0,161038:0:0:0:0:
64,192,161192,128,8,161346:1:0:0:0:
192,192,161192,128,8,161346:0:0:0:0:
384,192,161192,1,0,0:0:0:0:
448,192,161192,1,0,0:0:0:0:
64,192,161500,128,8,161653:1:0:0:0:
192,192,161500,128,8,161653:0:0:0:0:
384,192,161500,1,0,0:0:0:0:
448,192,161500,1,0,0:0:0:0:
64,192,161807,128,8,161961:1:0:0:0:
192,192,161807,128,8,161961:0:0:0:0:
384,192,161807,1,0,0:0:0:0:
448,192,161807,1,0,0:0:0:0:
128,192,162115,1,8,0:0:0:0:
320,192,162115,1,0,0:0:0:0:
448,192,162115,1,0,0:0:0:0:
384,192,162269,1,2,0:0:0:0:
213,192,162423,1,2,0:0:0:0:
42,192,162576,1,8,0:0:0:0:
298,192,162576,1,8,1:0:0:0:
469,192,162576,1,0,0:0:0:0:
128,192,162730,1,2,0:0:0:0:
192,192,162884,1,2,0:0:0:0:
384,192,162884,1,0,0:0:0:0:
128,192,163038,1,2,0:0:0:0:
42,192,163192,1,2,0:0:0:0:
192,192,163192,128,4,163346:0:0:0:0:
320,192,163192,128,0,163346:0:0:0:0:
469,192,163192,1,0,0:0:0:0:
128,192,163346,128,2,163500:0:0:0:0:
384,192,163346,128,0,163500:0:0:0:0:
42,192,163653,128,8,163807:1:0:0:0:
213,192,163653,1,8,0:0:0:0:
298,192,163653,1,0,0:0:0:0:
469,192,163653,128,0,163807:0:0:0:0:
42,192,163961,128,8,164115:1:0:0:0:
213,192,163961,1,8,0:0:0:0:
298,192,163961,1,0,0:0:0:0:
469,192,163961,128,0,164115:0:0:0:0:
42,192,164269,128,8,164423:1:0:0:0:
213,192,164269,1,8,0:0:0:0:
298,192,164269,1,0,0:0:0:0:
469,192,164269,128,0,164423:0:0:0:0:
128,192,164576,1,8,0:0:0:0:
298,192,164576,1,0,0:0:0:0:
384,192,164576,1,0,0:0:0:0:
192,192,164730,1,2,0:0:0:0:
320,192,164884,1,2,0:0:0:0:
64,192,165038,1,8,0:0:0:0:
128,192,165038,1,8,1:0:0:0:
448,192,165038,1,0,0:0:0:0:
213,192,165192,1,2,0:0:0:0:
298,192,165346,1,0,0:0:0:0:
448,192,165346,1,0,0:0:0:0:
128,192,165500,1,8,0:0:0:0:
384,192,165500,1,0,0:0:0:0:
192,192,165576,1,8,0:0:0:0:
298,192,165576,1,0,0:0:0:0:
64,192,165653,128,4,166115:0:0:0:0:
128,192,165653,1,2,0:0:0:0:
384,192,165653,1,0,0:0:0:0:
448,192,165653,1,0,0:0:0:0:
320,192,165961,1,8,0:0:0:0:
384,192,165961,1,8,1:0:0:0:
128,192,166115,1,2,0:0:0:0:
192,192,166115,128,4,166576:0:0:0:0:
320,192,166115,1,0,0:0:0:0:
448,192,166115,1,0,0:0:0:0:
384,192,166423,1,8,0:0:0:0:
448,192,166423,1,8,1:0:0:0:
64,192,166576,1,2,0:0:0:0:
128,192,166576,1,4,0:0:0:0:
320,192,166576,128,0,167038:0:0:0:0:
448,192,166576,1,0,0:0:0:0:
128,192,166884,1,8,0:0:0:0:
192,192,166884,1,8,1:0:0:0:
64,192,167038,1,4,0:0:0:0:
192,192,167038,1,2,0:0:0:0:
384,192,167038,1,0,0:0:0:0:
448,192,167038,128,0,167500:0:0:0:0:
128,192,167500,1,8,0:0:0:0:
320,192,167500,1,8,1:0:0:0:
384,192,167500,1,0,0:0:0:0:
128,192,167653,1,8,0:0:0:0:
320,192,167653,1,8,1:0:0:0:
384,192,167653,1,0,0:0:0:0:
64,192,167961,128,2,168730:1:0:0:0:
192,192,167961,1,4,0:0:0:0:
320,192,167961,1,4,1:0:0:0:
448,192,167961,1,0,0:0:0:0:
298,192,168269,1,2,0:0:0:0:
384,192,168269,1,0,0:0:0:0:
128,192,168423,1,8,0:0:0:0:
192,192,168423,1,8,1:0:0:0:
448,192,168423,1,0,0:0:0:0:
298,192,168730,128,2,168884:0:0:0:0:
384,192,168730,1,0,0:0:0:0:
64,192,168884,1,2,0:0:0:0:
128,192,168884,128,0,169038:0:0:0:0:
384,192,169038,128,8,169192:0:0:0:0:
448,192,169038,1,8,1:0:0:0:
64,192,169192,1,2,0:0:0:0:
213,192,169192,128,4,169500:0:0:0:0:
298,192,169192,1,0,0:0:0:0:
42,192,169500,1,2,0:0:0:0:
469,192,169500,128,0,169576:0:0:0:0:
384,192,169576,128,0,169653:0:0:0:0:
128,192,169653,128,8,169807:0:0:0:0:
298,192,169653,1,8,1:0:0:0:
64,192,169807,128,2,169961:0:0:0:0:
192,192,169884,1,8,0:0:0:0:
320,192,169961,1,2,0:0:0:0:
384,192,169961,128,0,170115:0:0:0:0:
64,192,170115,1,2,0:0:0:0:
128,192,170115,128,0,170269:0:0:0:0:
320,192,170269,128,8,170423:0:0:0:0:
448,192,170269,1,8,1:0:0:0:
42,192,170423,128,0,170576:0:0:0:0:
384,192,170423,1,0,0:0:0:0:
128,192,170576,1,2,0:0:0:0:
213,192,170576,1,4,0:0:0:0:
469,192,170576,128,0,170884:0:0:0:0:
128,192,170884,1,8,0:0:0:0:
298,192,170884,128,8,171038:1:0:0:0:
42,192,171038,1,2,0:0:0:0:
213,192,171115,1,8,0:0:0:0:
64,192,171192,1,2,0:0:0:0:
384,192,171192,128,0,171269:0:0:0:0:
469,192,171269,128,0,171346:0:0:0:0:
128,192,171346,1,2,0:0:0:0:
298,192,171346,128,0,171500:0:0:0:0:
192,192,171500,128,8,171653:0:0:0:0:
384,192,171500,1,8,1:0:0:0:
42,192,171653,128,4,172423:0:0:0:0:
128,192,171653,1,2,0:0:0:0:
448,192,171653,1,0,0:0:0:0:
213,192,171961,1,2,0:0:0:0:
320,192,171961,1,0,0:0:0:0:
128,192,172115,1,8,0:0:0:0:
384,192,172115,1,8,1:0:0:0:
448,192,172115,1,0,0:0:0:0:
128,192,172423,1,2,0:0:0:0:
213,192,172423,128,0,172576:0:0:0:0:
298,192,172576,128,2,172730:0:0:0:0:
384,192,172576,1,0,0:0:0:0:
42,192,172730,1,8,0:0:0:0:
128,192,172730,128,8,172884:1:0:0:0:
213,192,172884,1,2,0:0:0:0:
384,192,172884,128,4,173192:0:0:0:0:
469,192,172884,1,0,0:0:0:0:
42,192,173192,128,2,173269:0:0:0:0:
298,192,173192,1,0,0:0:0:0:
128,192,173269,128,0,173346:0:0:0:0:
213,192,173346,128,8,173500:0:0:0:0:
469,192,173346,1,8,1:0:0:0:
384,192,173500,128,0,173653:0:0:0:0:
128,192,173653,128,2,173807:0:0:0:0:
192,192,173653,1,0,0:0:0:0:
384,192,173807,128,2,173961:0:0:0:0:
448,192,173807,1,0,0:0:0:0:
42,192,173961,128,8,174115:0:0:0:0:
213,192,173961,1,8,1:0:0:0:
128,192,174115,1,4,0:0:0:0:
320,192,174115,1,2,0:0:0:0:
448,192,174115,128,0,174423:0:0:0:0:
42,192,174423,1,2,0:0:0:0:
213,192,174423,128,0,174576:0:0:0:0:
320,192,174576,128,8,174730:0:0:0:0:
384,192,174576,1,8,1:0:0:0:
128,192,174730,1,2,0:0:0:0:
448,192,174730,128,0,174884:0:0:0:0:
213,192,174807,1,8,0:0:0:0:
320,192,174884,1,2,0:0:0:0:
64,192,175038,128,2,175192:0:0:0:0:
128,192,175038,1,0,0:0:0:0:
320,192,175192,128,8,175346:0:0:0:0:
384,192,175192,1,8,1:0:0:0:
64,192,175346,128,2,175500:0:0:0:0:
128,192,175346,1,0,0:0:0:0:
213,192,175500,1,8,0:0:0:0:
320,192,175500,128,4,175653:0:0:0:0:
469,192,175500,1,8,1:0:0:0:
384,192,175653,128,2,175730:0:0:0:0:
128,192,175730,128,0,175807:0:0:0:0:
42,192,175807,1,8,0:0:0:0:
384,192,175807,128,8,175961:1:0:0:0:
469,192,175807,1,0,0:0:0:0:
128,192,175961,128,2,176115:0:0:0:0:
213,192,176115,1,8,0:0:0:0:
320,192,176115,128,8,176269:1:0:0:0:
469,192,176115,1,0,0:0:0:0:
42,192,176269,128,2,176423:0:0:0:0:
384,192,176269,1,0,0:0:0:0:
213,192,176423,128,8,176576:0:0:0:0:
298,192,176423,1,8,1:0:0:0:
469,192,176423,1,0,0:0:0:0:
42,192,176576,128,2,177038:0:0:0:0:
128,192,176576,1,4,0:0:0:0:
384,192,176576,1,0,0:0:0:0:
469,192,176576,128,0,177038:0:0:0:0:
298,192,176884,1,8,0:0:0:0:
384,192,176884,1,8,1:0:0:0:
128,192,176961,1,8,0:0:0:0:
213,192,176961,1,8,1:0:0:0:
298,192,177038,1,8,0:0:0:0:
384,192,177038,1,8,1:0:0:0:
42,192,177192,1,8,0:0:0:0:
384,192,177192,1,8,1:0:0:0:
128,192,177269,1,8,0:0:0:0:
469,192,177269,1,8,1:0:0:0:
213,192,177346,1,8,3:0:0:0:
298,192,177346,128,0,177423:0:0:0:0:
42,192,177423,1,8,3:0:0:0:
384,192,177423,128,0,177500:0:0:0:0:
128,192,177500,1,8,3:0:0:0:
469,192,177500,128,0,177576:0:0:0:0:
42,192,177576,128,8,177653:3:0:0:0:
213,192,177576,1,0,0:0:0:0:
128,192,177653,128,2,177730:0:0:0:0:
298,192,177653,1,0,0:0:0:0:
213,192,177730,128,2,177807:0:0:0:0:
384,192,177730,1,0,0:0:0:0:
64,192,177807,1,2,0:0:0:0:
298,192,177807,128,4,178115:0:0:0:0:
469,192,177807,1,0,0:0:0:0:
42,192,178115,128,2,178269:0:0:0:0:
213,192,178115,1,0,0:0:0:0:
384,192,178115,1,0,0:0:0:0:
128,192,178269,128,8,178576:0:0:0:0:
298,192,178269,1,8,1:0:0:0:
448,192,178269,1,0,0:0:0:0:
213,192,178576,128,2,178884:0:0:0:0:
384,192,178576,1,0,0:0:0:0:
42,192,178730,1,2,0:0:0:0:
448,192,178730,1,0,0:0:0:0:
128,192,178884,1,8,0:0:0:0:
298,192,178884,128,8,178961:1:0:0:0:
384,192,178961,128,0,179038:0:0:0:0:
64,192,179038,1,2,0:0:0:0:
192,192,179038,1,4,0:0:0:0:
448,192,179038,128,0,179346:0:0:0:0:
128,192,179346,128,2,179500:0:0:0:0:
298,192,179346,1,0,0:0:0:0:
42,192,179500,1,8,0:0:0:0:
384,192,179500,128,8,179653:1:0:0:0:
448,192,179500,1,0,0:0:0:0:
128,192,179653,1,2,0:0:0:0:
192,192,179653,128,0,179807:0:0:0:0:
298,192,179730,1,8,0:0:0:0:
384,192,179807,1,2,0:0:0:0:
448,192,179807,128,0,179961:0:0:0:0:
64,192,179961,128,2,180115:0:0:0:0:
128,192,179961,1,0,0:0:0:0:
192,192,180115,1,8,0:0:0:0:
384,192,180115,128,8,180192:1:0:0:0:
320,192,180192,128,0,180269:0:0:0:0:
192,192,180269,128,0,180346:0:0:0:0:
128,192,180346,128,0,180423:0:0:0:0:
42,192,180423,128,4,180730:0:0:0:0:
320,192,180423,1,2,0:0:0:0:
469,192,180423,1,0,0:0:0:0:
320,192,180730,128,8,180884:0:0:0:0:
384,192,180730,1,8,1:0:0:0:
469,192,180730,1,0,0:0:0:0:
128,192,180884,128,0,181038:0:0:0:0:
64,192,181038,1,2,0:0:0:0:
213,192,181038,1,0,0:0:0:0:
384,192,181192,128,2,181346:0:0:0:0:
469,192,181192,1,0,0:0:0:0:
42,192,181346,1,8,0:0:0:0:
128,192,181346,1,8,1:0:0:0:
298,192,181346,1,0,0:0:0:0:
213,192,181500,1,4,0:0:0:0:
384,192,181500,1,2,0:0:0:0:
448,192,181500,128,0,181807:0:0:0:0:
42,192,181807,128,2,181858:0:0:0:0:
298,192,181807,1,0,0:0:0:0:
128,192,181858,128,0,181910:0:0:0:0:
213,192,181910,128,0,181961:0:0:0:0:
42,192,181961,1,8,3:0:0:0:
298,192,181961,128,0,182012:0:0:0:0:
469,192,182012,128,0,182115:0:0:0:0:
128,192,182115,1,2,0:0:0:0:
384,192,182115,128,0,182166:0:0:0:0:
298,192,182166,128,0,182269:0:0:0:0:
42,192,182269,1,8,3:0:0:0:
213,192,182269,128,0,182730:0:0:0:0:
469,192,182423,1,2,0:0:0:0:
384,192,182576,1,8,3:0:0:0:
128,192,182730,1,2,0:0:0:0:
42,192,182884,128,2,182987:0:0:0:0:
298,192,182884,1,4,0:0:0:0:
384,192,182884,1,0,0:0:0:0:
448,192,182884,1,0,0:0:0:0:
128,192,182987,128,0,183089:0:0:0:0:
213,192,183089,128,0,183141:0:0:0:0:
298,192,183141,128,0,183192:0:0:0:0:
42,192,183192,1,8,1:0:0:0:
384,192,183192,128,8,183346:0:0:0:0:
469,192,183192,1,0,0:0:0:0:
213,192,183346,128,2,183500:0:0:0:0:
42,192,183500,128,8,183576:1:0:0:0:
298,192,183500,1,8,0:0:0:0:
469,192,183500,1,0,0:0:0:0:
128,192,183576,128,0,183653:0:0:0:0:
384,192,183653,128,2,183730:0:0:0:0:
298,192,183730,128,0,183807:0:0:0:0:
42,192,183807,128,8,183884:1:0:0:0:
213,192,183807,1,8,0:0:0:0:
448,192,183807,1,0,0:0:0:0:
128,192,183884,128,0,183961:0:0:0:0:
384,192,183961,128,2,184038:0:0:0:0:
298,192,184038,128,0,184115:0:0:0:0:
64,192,184115,1,8,1:0:0:0:
128,192,184115,1,8,0:0:0:0:
213,192,184115,128,0,184217:0:0:0:0:
469,192,184115,1,0,0:0:0:0:
384,192,184217,128,0,184320:0:0:0:0:
298,192,184320,128,0,184371:0:0:0:0:
128,192,184371,128,0,184423:0:0:0:0:
64,192,184423,128,8,184576:1:0:0:0:
213,192,184423,1,8,0:0:0:0:
469,192,184423,1,0,0:0:0:0:
384,192,184576,128,2,184730:0:0:0:0:
42,192,184730,1,8,1:0:0:0:
128,192,184730,128,8,184807:0:0:0:0:
298,192,184730,1,0,0:0:0:0:
213,192,184807,128,0,184884:0:0:0:0:
469,192,184884,128,2,184961:0:0:0:0:
384,192,184961,128,0,185038:0:0:0:0:
42,192,185038,1,8,1:0:0:0:
128,192,185038,128,8,185115:0:0:0:0:
298,192,185038,1,0,0:0:0:0:
213,192,185115,128,0,185192:0:0:0:0:
42,192,185192,1,2,0:0:0:0:
469,192,185192,128,0,185269:0:0:0:0:
128,192,185269,1,2,0:0:0:0:
384,192,185269,128,0,185346:0:0:0:0:
64,192,185346,1,8,1:0:0:0:
192,192,185346,1,8,0:0:0:0:
298,192,185346,128,4,185807:0:0:0:0:
469,192,185500,1,2,0:0:0:0:
64,192,185653,1,8,1:0:0:0:
192,192,185653,1,8,0:0:0:0:
384,192,185653,1,0,0:0:0:0:
128,192,185807,1,2,0:0:0:0:
469,192,185807,128,0,186269:0:0:0:0:
42,192,185961,1,8,1:0:0:0:
213,192,185961,1,8,0:0:0:0:
384,192,185961,1,0,0:0:0:0:
298,192,186115,1,2,0:0:0:0:
64,192,186269,1,8,1:0:0:0:
128,192,186269,1,8,0:0:0:0:
384,192,186269,1,0,0:0:0:0:
192,192,186423,128,2,186576:0:0:0:0:
298,192,186423,1,0,0:0:0:0:
64,192,186576,1,8,1:0:0:0:
384,192,186576,128,8,186730:0:0:0:0:
469,192,186576,1,0,0:0:0:0:
128,192,186730,128,2,186884:0:0:0:0:
213,192,186730,1,0,0:0:0:0:
42,192,186884,1,8,1:0:0:0:
298,192,186884,128,8,187038:0:0:0:0:
384,192,186884,1,0,0:0:0:0:
469,192,186884,1,0,0:0:0:0:
213,192,187038,128,0,187192:0:0:0:0:
128,192,187192,1,8,3:0:0:0:
469,192,187192,128,0,187346:0:0:0:0:
42,192,187346,1,8,3:0:0:0:
320,192,187346,128,0,187500:0:0:0:0:
128,192,187500,128,8,187653:3:0:0:0:
384,192,187500,1,0,0:0:0:0:
42,192,187653,128,4,188423:0:0:0:0:
213,192,187653,1,4,1:0:0:0:
320,192,187653,1,0,0:0:0:0:
448,192,187653,1,0,0:0:0:0:
213,192,188115,128,0,188423:0:0:0:0:
384,192,188423,128,0,188884:0:0:0:0:
469,192,188884,128,0,190115:0:0:0:0:
64,192,190269,128,0,191500:0:0:0:0:
128,192,190269,1,0,0:0:0:0:
384,192,190269,1,0,0:0:0:0:
192,192,190423,1,0,0:0:0:0:
320,192,190576,1,0,0:0:0:0:
384,192,190730,1,0,0:0:0:0:
213,192,190884,1,0,0:0:0:0:
469,192,191038,1,0,0:0:0:0:
128,192,191192,1,0,0:0:0:0:
384,192,191346,1,0,0:0:0:0:
192,192,191500,128,0,192730:0:0:0:0:
320,192,191500,1,0,0:0:0:0:
469,192,191500,1,0,0:0:0:0:
128,192,191653,1,0,0:0:0:0:
320,192,191807,1,0,0:0:0:0:
64,192,191961,1,0,0:0:0:0:
320,192,192115,1,0,0:0:0:0:
448,192,192269,1,0,0:0:0:0:
128,192,192423,1,0,0:0:0:0:
298,192,192576,1,0,0:0:0:0:
42,192,192730,1,0,0:0:0:0:
384,192,192730,128,0,193961:0:0:0:0:
469,192,192730,1,0,0:0:0:0:
128,192,192884,1,0,0:0:0:0:
192,192,193038,1,0,0:0:0:0:
298,192,193192,1,0,0:0:0:0:
192,192,193346,1,0,0:0:0:0:
64,192,193500,1,0,0:0:0:0:
298,192,193653,1,0,0:0:0:0:
128,192,193807,1,0,0:0:0:0:
64,192,193961,1,0,0:0:0:0:
213,192,193961,1,0,0:0:0:0:
448,192,193961,128,0,194269:0:0:0:0:
298,192,194115,1,0,0:0:0:0:
42,192,194269,1,0,0:0:0:0:
128,192,194269,128,0,194576:0:0:0:0:
213,192,194423,1,0,0:0:0:0:
384,192,194576,128,0,194884:0:0:0:0:
469,192,194576,1,0,0:0:0:0:
298,192,194730,1,0,0:0:0:0:
64,192,194884,1,0,0:0:0:0:
213,192,194884,128,0,195192:0:0:0:0:
128,192,195038,1,0,0:0:0:0:
42,192,195192,1,0,0:0:0:0:
384,192,195192,1,0,0:0:0:0:
448,192,195192,128,0,196423:0:0:0:0:
298,192,195346,1,0,0:0:0:0:
128,192,195500,1,0,0:0:0:0:
192,192,195653,1,0,0:0:0:0:
64,192,195807,1,0,0:0:0:0:
128,192,195961,1,0,0:0:0:0:
298,192,196115,1,0,0:0:0:0:
213,192,196269,1,0,0:0:0:0:
42,192,196423,128,0,196884:0:0:0:0:
128,192,196423,1,0,0:0:0:0:
384,192,196423,1,0,0:0:0:0:
213,192,196576,1,0,0:0:0:0:
298,192,196730,1,0,0:0:0:0:
213,192,196884,1,0,0:0:0:0:
384,192,196884,128,0,197038:0:0:0:0:
128,192,197038,128,0,197346:0:0:0:0:
298,192,197038,1,0,0:0:0:0:
42,192,197192,1,0,0:0:0:0:
384,192,197346,1,0,0:0:0:0:
469,192,197346,128,0,197653:0:0:0:0:
213,192,197500,1,0,0:0:0:0:
42,192,197653,1,0,0:0:0:0:
128,192,197653,1,0,0:0:0:0:
320,192,197653,128,0,198884:0:0:0:0:
384,192,197807,1,0,0:0:0:0:
213,192,197961,1,0,0:0:0:0:
42,192,198115,1,0,0:0:0:0:
448,192,198269,1,0,0:0:0:0:
192,192,198423,1,0,0:0:0:0:
128,192,198576,1,0,0:0:0:0:
384,192,198730,1,0,0:0:0:0:
213,192,198807,1,0,0:0:0:0:
42,192,198884,128,0,199192:0:0:0:0:
128,192,198884,1,0,0:0:0:0:
469,192,198884,1,0,0:0:0:0:
213,192,199038,1,0,0:0:0:0:
384,192,199192,1,0,0:0:0:0:
469,192,199192,128,0,199500:0:0:0:0:
128,192,199346,1,0,0:0:0:0:
298,192,199346,1,0,0:0:0:0:
213,192,199500,1,0,0:0:0:0:
384,192,199500,128,0,199653:0:0:0:0:
128,192,199653,1,0,0:0:0:0:
298,192,199653,128,0,199807:0:0:0:0:
42,192,199807,1,0,0:0:0:0:
213,192,199807,128,0,199961:0:0:0:0:
469,192,199807,1,0,0:0:0:0:
128,192,199961,128,0,200115:0:0:0:0:
384,192,199961,1,0,0:0:0:0:
64,192,200115,128,2,201346:0:0:0:0:
298,192,200115,1,0,0:0:0:0:
469,192,200115,1,0,0:0:0:0:
320,192,200423,1,2,0:0:0:0:
448,192,200423,1,0,0:0:0:0:
320,192,200730,1,2,0:0:0:0:
448,192,200730,1,0,0:0:0:0:
320,192,201038,1,2,0:0:0:0:
448,192,201038,1,0,0:0:0:0:
128,192,201346,1,2,0:0:0:0:
192,192,201346,128,0,202576:0:0:0:0:
448,192,201346,1,0,0:0:0:0:
128,192,201653,1,2,0:0:0:0:
448,192,201653,1,0,0:0:0:0:
128,192,201961,1,2,0:0:0:0:
448,192,201961,1,0,0:0:0:0:
128,192,202269,1,2,0:0:0:0:
448,192,202269,1,0,0:0:0:0:
64,192,202576,1,2,0:0:0:0:
320,192,202576,128,0,203807:0:0:0:0:
448,192,202576,1,0,0:0:0:0:
64,192,202884,1,2,0:0:0:0:
192,192,202884,1,0,0:0:0:0:
64,192,203192,1,2,0:0:0:0:
192,192,203192,1,0,0:0:0:0:
64,192,203500,1,2,0:0:0:0:
192,192,203500,1,0,0:0:0:0:
64,192,203807,1,2,0:0:0:0:
192,192,203807,1,0,0:0:0:0:
448,192,203807,128,0,205038:0:0:0:0:
384,192,203961,1,8,3:0:0:0:
64,192,204115,1,2,0:0:0:0:
128,192,204115,1,0,0:0:0:0:
384,192,204269,1,8,3:0:0:0:
128,192,204423,1,2,0:0:0:0:
192,192,204423,1,0,0:0:0:0:
384,192,204576,1,8,3:0:0:0:
64,192,204730,128,2,205038:0:0:0:0:
192,192,204730,1,0,0:0:0:0:
298,192,204730,1,0,0:0:0:0:
128,192,205038,1,4,0:0:0:0:
213,192,205038,1,8,0:0:0:0:
298,192,205038,1,0,0:0:0:0:
384,192,205038,1,0,0:0:0:0:
128,192,205346,1,2,0:0:0:0:
298,192,205346,1,8,0:0:0:0:
213,192,205500,1,2,0:0:0:0:
384,192,205500,1,8,0:0:0:0:
320,192,205653,1,2,0:0:0:0:
448,192,205653,1,8,0:0:0:0:
192,192,205807,1,2,0:0:0:0:
384,192,205807,1,8,0:0:0:0:
128,192,205961,1,2,0:0:0:0:
320,192,205961,1,8,0:0:0:0:
64,192,206115,1,2,0:0:0:0:
192,192,206115,1,8,0:0:0:0:
42,192,206269,1,8,1:0:0:0:
128,192,206269,1,2,0:0:0:0:
384,192,206269,1,8,0:0:0:0:
448,192,206269,1,0,0:0:0:0:
128,192,206423,1,8,1:0:0:0:
298,192,206423,1,8,0:0:0:0:
384,192,206423,1,0,0:0:0:0:
213,192,206576,1,8,1:0:0:0:
298,192,206576,1,8,0:0:0:0:
448,192,206576,1,0,0:0:0:0:
128,192,206730,1,8,1:0:0:0:
192,192,206730,1,8,0:0:0:0:
384,192,206730,1,0,0:0:0:0:
64,192,206884,1,8,1:0:0:0:
128,192,206884,1,8,0:0:0:0:
298,192,206884,1,0,0:0:0:0:
64,192,207038,1,8,1:0:0:0:
213,192,207038,1,8,0:0:0:0:
384,192,207038,1,0,0:0:0:0:
128,192,207192,1,8,1:0:0:0:
298,192,207192,1,8,0:0:0:0:
448,192,207192,1,0,0:0:0:0:
42,192,207500,128,4,207807:0:0:0:0:
128,192,207500,1,8,0:0:0:0:
320,192,207500,128,8,207807:1:0:0:0:
384,192,207500,1,0,0:0:0:0:
213,192,207807,1,2,0:0:0:0:
448,192,207807,1,0,0:0:0:0:
42,192,207961,1,8,0:0:0:0:
128,192,207961,128,8,208269:1:0:0:0:
320,192,207961,1,0,0:0:0:0:
384,192,207961,128,0,208269:0:0:0:0:
298,192,208269,1,2,0:0:0:0:
469,192,208269,1,0,0:0:0:0:
64,192,208423,1,4,0:0:0:0:
213,192,208423,128,8,208730:0:0:0:0:
384,192,208423,1,8,1:0:0:0:
448,192,208423,128,0,208730:0:0:0:0:
64,192,208730,1,2,0:0:0:0:
298,192,208730,1,0,0:0:0:0:
128,192,208884,128,8,209192:0:0:0:0:
213,192,208884,1,8,0:0:0:0:
384,192,208884,128,0,209192:0:0:0:0:
448,192,208884,1,0,0:0:0:0:
298,192,209192,1,2,0:0:0:0:
64,192,209346,128,8,209423:3:0:0:0:
448,192,209346,128,0,209423:0:0:0:0:
64,192,209500,128,8,209653:3:0:0:0:
448,192,209500,128,0,209653:0:0:0:0:
128,192,209807,1,2,0:0:0:0:
384,192,209807,1,0,0:0:0:0:
213,192,209884,1,2,0:0:0:0:
320,192,209884,1,0,0:0:0:0:
64,192,209961,1,8,1:0:0:0:
128,192,209961,1,8,0:0:0:0:
384,192,209961,1,0,0:0:0:0:
448,192,209961,1,0,0:0:0:0:
42,192,210115,1,8,1:0:0:0:
320,192,210115,1,8,0:0:0:0:
448,192,210115,1,0,0:0:0:0:
128,192,210269,1,8,1:0:0:0:
213,192,210269,1,8,0:0:0:0:
384,192,210269,1,0,0:0:0:0:
42,192,210423,1,8,1:0:0:0:
298,192,210423,1,8,0:0:0:0:
448,192,210423,1,0,0:0:0:0:
42,192,210730,1,8,1:0:0:0:
128,192,210730,1,8,0:0:0:0:
384,192,210730,1,0,0:0:0:0:
448,192,210730,1,0,0:0:0:0:
64,192,211038,1,8,1:0:0:0:
128,192,211038,1,8,0:0:0:0:
384,192,211038,1,0,0:0:0:0:
469,192,211038,1,0,0:0:0:0:
128,192,211346,1,8,1:0:0:0:
192,192,211346,1,8,0:0:0:0:
320,192,211346,1,0,0:0:0:0:
384,192,211346,1,0,0:0:0:0:
128,192,211500,1,8,1:0:0:0:
192,192,211500,1,8,0:0:0:0:
320,192,211500,1,0,0:0:0:0:
384,192,211500,1,0,0:0:0:0:
42,192,211807,1,8,0:0:0:0:
298,192,211807,1,0,0:0:0:0:
128,192,211884,1,8,0:0:0:0:
384,192,211884,1,0,0:0:0:0:
213,192,211961,1,8,3:0:0:0:
469,192,211961,1,0,0:0:0:0:
42,192,212038,1,8,3:0:0:0:
298,192,212038,1,0,0:0:0:0:
128,192,212115,1,2,0:0:0:0:
384,192,212115,1,0,0:0:0:0:
213,192,212192,1,2,0:0:0:0:
469,192,212192,1,0,0:0:0:0:
64,192,212269,128,4,213500:1:0:0:0:
128,192,212269,1,4,0:0:0:0:
298,192,212269,1,0,0:0:0:0:
384,192,212269,1,0,0:0:0:0:
128,192,213500,1,4,1:0:0:0:
192,192,213500,128,4,214730:0:0:0:0:
320,192,213500,1,0,0:0:0:0:
448,192,213500,1,0,0:0:0:0:
64,192,214730,1,4,1:0:0:0:
128,192,214730,1,4,0:0:0:0:
384,192,214730,128,0,216115:0:0:0:0:
448,192,214730,1,0,0:0:0:0:
128,192,215961,1,8,3:0:0:0:
192,192,216038,1,8,3:0:0:0:
64,192,216115,1,8,3:0:0:0:
298,192,216115,1,0,0:0:0:0:
448,192,216115,128,0,217192:0:0:0:0:
128,192,216576,1,8,3:0:0:0:
192,192,216576,1,0,0:0:0:0:
192,192,216884,1,8,3:0:0:0:
298,192,216884,1,0,0:0:0:0:
64,192,217192,128,4,218423:1:0:0:0:
128,192,217192,1,4,0:0:0:0:
320,192,217192,1,0,0:0:0:0:
384,192,217192,1,0,0:0:0:0:
213,192,217653,1,2,0:0:0:0:
320,192,217653,1,0,0:0:0:0:
213,192,217961,1,2,0:0:0:0:
320,192,217961,1,0,0:0:0:0:
213,192,218269,1,2,0:0:0:0:
320,192,218269,1,0,0:0:0:0:
298,192,218423,1,4,0:0:0:0:
384,192,218423,128,8,219653:0:0:0:0:
448,192,218423,1,8,1:0:0:0:
128,192,218576,1,2,0:0:0:0:
192,192,218576,1,0,0:0:0:0:
128,192,218884,1,2,0:0:0:0:
192,192,218884,1,0,0:0:0:0:
128,192,219192,1,2,0:0:0:0:
192,192,219192,1,0,0:0:0:0:
128,192,219500,1,2,0:0:0:0:
192,192,219500,1,0,0:0:0:0:
64,192,219653,1,8,0:0:0:0:
128,192,219653,128,4,220884:0:0:0:0:
298,192,219653,1,8,1:0:0:0:
448,192,219653,1,0,0:0:0:0:
213,192,219961,1,2,0:0:0:0:
298,192,219961,1,0,0:0:0:0:
42,192,220115,1,8,0:0:0:0:
384,192,220115,1,8,1:0:0:0:
469,192,220115,1,0,0:0:0:0:
213,192,220269,1,2,0:0:0:0:
298,192,220269,1,0,0:0:0:0:
64,192,220423,1,8,0:0:0:0:
384,192,220423,1,8,1:0:0:0:
469,192,220423,1,0,0:0:0:0:
213,192,220576,1,2,0:0:0:0:
320,192,220576,1,0,0:0:0:0:
64,192,220730,1,8,0:0:0:0:
384,192,220730,1,8,1:0:0:0:
448,192,220730,1,0,0:0:0:0:
64,192,220884,1,4,0:0:0:0:
213,192,220884,1,2,0:0:0:0:
320,192,220884,1,0,0:0:0:0:
448,192,220884,128,0,221653:0:0:0:0:
384,192,221192,1,2,0:0:0:0:
320,192,221269,1,2,0:0:0:0:
64,192,221346,1,2,0:0:0:0:
128,192,221423,1,2,0:0:0:0:
298,192,221500,1,2,0:0:0:0:
213,192,221576,1,2,0:0:0:0:
64,192,221653,1,8,1:0:0:0:
128,192,221653,1,8,0:0:0:0:
384,192,221653,1,0,0:0:0:0:
64,192,221807,1,8,1:0:0:0:
128,192,221807,1,8,0:0:0:0:
384,192,221807,1,0,0:0:0:0:
64,192,221961,1,8,1:0:0:0:
128,192,221961,1,8,0:0:0:0:
384,192,221961,1,0,0:0:0:0:
213,192,222115,128,0,222576:0:0:0:0:
320,192,222115,128,0,222576:0:0:0:0:
64,192,222576,1,2,1:0:0:0:
128,192,222576,1,4,1:0:0:0:
384,192,222576,1,4,0:0:0:0:
469,192,222576,1,0,0:0:0:0:
128,192,222884,1,8,1:0:0:0:
213,192,222884,1,8,0:0:0:0:
298,192,222884,1,0,0:0:0:0:
384,192,223038,1,2,0:0:0:0:
469,192,223038,1,0,0:0:0:0:
42,192,223192,1,8,1:0:0:0:
128,192,223192,1,8,0:0:0:0:
213,192,223192,1,0,0:0:0:0:
298,192,223346,1,2,0:0:0:0:
384,192,223346,1,0,0:0:0:0:
42,192,223500,1,8,1:0:0:0:
128,192,223500,1,8,0:0:0:0:
469,192,223500,1,0,0:0:0:0:
213,192,223653,1,0,0:0:0:0:
298,192,223653,1,0,0:0:0:0:
64,192,223807,1,8,1:0:0:0:
384,192,223807,1,8,0:0:0:0:
469,192,223807,1,0,0:0:0:0:
128,192,223961,1,2,0:0:0:0:
192,192,223961,1,0,0:0:0:0:
298,192,224115,1,8,1:0:0:0:
384,192,224115,1,8,0:0:0:0:
469,192,224115,1,0,0:0:0:0:
42,192,224269,1,2,0:0:0:0:
128,192,224269,1,0,0:0:0:0:
213,192,224423,1,8,1:0:0:0:
298,192,224423,1,8,0:0:0:0:
384,192,224423,1,0,0:0:0:0:
42,192,224576,1,2,0:0:0:0:
128,192,224576,1,0,0:0:0:0:
298,192,224730,1,8,1:0:0:0:
384,192,224730,1,8,0:0:0:0:
469,192,224730,1,0,0:0:0:0:
128,192,224884,1,0,0:0:0:0:
213,192,224884,1,0,0:0:0:0:
42,192,225038,1,8,1:0:0:0:
384,192,225038,1,8,0:0:0:0:
469,192,225038,1,0,0:0:0:0:
213,192,225192,1,2,0:0:0:0:
298,192,225192,1,0,0:0:0:0:
64,192,225346,1,8,1:0:0:0:
128,192,225346,1,8,0:0:0:0:
448,192,225346,1,0,0:0:0:0:
320,192,225500,1,2,0:0:0:0:
384,192,225500,1,0,0:0:0:0:
42,192,225653,1,8,1:0:0:0:
128,192,225653,1,8,0:0:0:0:
213,192,225653,1,0,0:0:0:0:
42,192,225807,1,2,0:0:0:0:
298,192,225807,1,4,0:0:0:0:
384,192,225807,1,0,0:0:0:0:
448,192,225807,1,0,0:0:0:0:
128,192,226115,1,2,0:0:0:0:
192,192,226115,1,0,0:0:0:0:
64,192,226269,1,8,1:0:0:0:
320,192,226269,1,8,0:0:0:0:
384,192,226269,1,0,0:0:0:0:
213,192,226423,1,8,1:0:0:0:
469,192,226423,1,8,0:0:0:0:
128,192,226500,1,8,1:0:0:0:
384,192,226500,1,8,0:0:0:0:
64,192,226576,1,8,1:0:0:0:
298,192,226576,1,8,0:0:0:0:
128,192,226730,1,8,3:0:0:0:
384,192,226730,1,0,0:0:0:0:
192,192,226884,1,2,0:0:0:0:
469,192,226884,1,0,0:0:0:0:
128,192,227038,1,8,3:0:0:0:
384,192,227038,1,0,0:0:0:0:
64,192,227192,1,4,0:0:0:0:
192,192,227192,1,4,1:0:0:0:
298,192,227192,1,0,0:0:0:0:
448,192,227192,128,0,228423:0:0:0:0:
128,192,227653,1,2,0:0:0:0:
320,192,227653,1,0,0:0:0:0:
64,192,227807,1,8,0:0:0:0:
192,192,227807,1,8,1:0:0:0:
384,192,227807,1,0,0:0:0:0:
128,192,228115,1,2,0:0:0:0:
192,192,228269,1,2,0:0:0:0:
64,192,228423,128,0,229653:0:0:0:0:
320,192,228423,1,0,0:0:0:0:
128,192,228576,1,8,0:0:0:0:
384,192,228576,1,8,1:0:0:0:
213,192,228730,1,2,0:0:0:0:
320,192,228884,1,2,0:0:0:0:
128,192,229038,1,8,0:0:0:0:
448,192,229038,1,8,1:0:0:0:
213,192,229192,128,2,229653:0:0:0:0:
384,192,229192,128,0,229653:0:0:0:0:
128,192,229653,1,4,0:0:0:0:
298,192,229653,1,2,0:0:0:0:
448,192,229653,1,0,0:0:0:0:
64,192,229961,1,8,0:0:0:0:
192,192,229961,1,8,1:0:0:0:
384,192,229961,1,0,0:0:0:0:
128,192,230115,1,2,0:0:0:0:
320,192,230115,1,0,0:0:0:0:
448,192,230115,1,0,0:0:0:0:
213,192,230423,1,2,0:0:0:0:
384,192,230423,1,0,0:0:0:0:
448,192,230423,1,0,0:0:0:0:
64,192,230730,1,8,0:0:0:0:
128,192,230730,1,8,1:0:0:0:
298,192,230730,1,4,0:0:0:0:
469,192,230730,1,0,0:0:0:0:
192,192,231038,1,8,0:0:0:0:
384,192,231038,1,8,1:0:0:0:
42,192,231192,1,8,1:0:0:0:
298,192,231192,1,8,0:0:0:0:
448,192,231192,1,0,0:0:0:0:
128,192,231346,1,8,3:0:0:0:
384,192,231346,1,0,0:0:0:0:
64,192,231500,1,8,3:0:0:0:
192,192,231500,1,0,0:0:0:0:
298,192,231500,1,0,0:0:0:0:
384,192,231602,1,8,3:0:0:0:
469,192,231602,1,0,0:0:0:0:
128,192,231705,1,8,3:0:0:0:
213,192,231705,1,0,0:0:0:0:
298,192,231807,1,8,3:0:0:0:
384,192,231807,1,0,0:0:0:0:
42,192,231910,1,8,3:0:0:0:
128,192,231910,1,0,0:0:0:0:
192,192,232012,1,8,3:0:0:0:
298,192,232012,1,0,0:0:0:0:
64,192,232115,1,4,0:0:0:0:
128,192,232115,1,2,0:0:0:0:
384,192,232115,1,0,0:0:0:0:
448,192,232115,1,0,0:0:0:0:
192,192,232269,1,2,0:0:0:0:
320,192,232269,1,0,0:0:0:0:
64,192,232423,1,8,0:0:0:0:
128,192,232423,1,8,1:0:0:0:
384,192,232423,1,0,0:0:0:0:
213,192,232576,1,2,0:0:0:0:
320,192,232576,1,4,0:0:0:0:
448,192,232576,1,0,0:0:0:0:
128,192,232884,1,8,0:0:0:0:
213,192,232884,1,8,1:0:0:0:
384,192,232884,1,0,0:0:0:0:
64,192,233192,1,2,0:0:0:0:
128,192,233192,1,4,0:0:0:0:
320,192,233192,1,0,0:0:0:0:
469,192,233192,1,0,0:0:0:0:
64,192,233500,1,8,0:0:0:0:
320,192,233500,1,8,1:0:0:0:
448,192,233500,1,0,0:0:0:0:
128,192,233653,1,8,0:0:0:0:
213,192,233653,1,8,1:0:0:0:
384,192,233653,1,0,0:0:0:0:
64,192,233961,1,8,0:0:0:0:
213,192,233961,128,8,234576:1:0:0:0:
298,192,233961,128,0,234576:0:0:0:0:
384,192,233961,1,0,0:0:0:0:
469,192,233961,1,0,0:0:0:0:
64,192,234576,1,4,1:0:0:0:
128,192,234576,1,4,0:0:0:0:
384,192,234576,1,0,0:0:0:0:
448,192,234576,1,0,0:0:0:0:
213,192,234884,1,2,0:0:0:0:
298,192,234884,1,8,0:0:0:0:
213,192,235038,1,2,0:0:0:0:
298,192,235038,1,8,0:0:0:0:
213,192,235192,1,2,0:0:0:0:
298,192,235192,1,8,0:0:0:0:
213,192,235346,1,2,0:0:0:0:
298,192,235346,1,8,0:0:0:0:
213,192,235500,1,2,0:0:0:0:
298,192,235500,1,8,0:0:0:0:
213,192,235653,1,2,0:0:0:0:
298,192,235653,1,8,0:0:0:0:
128,192,235807,1,8,1:0:0:0:
384,192,235807,1,8,0:0:0:0:
469,192,235807,1,0,0:0:0:0:
213,192,235961,1,8,1:0:0:0:
384,192,235961,1,8,0:0:0:0:
469,192,235961,1,0,0:0:0:0:
42,192,236115,1,8,1:0:0:0:
128,192,236115,1,8,0:0:0:0:
320,192,236115,1,0,0:0:0:0:
42,192,236269,1,8,1:0:0:0:
128,192,236269,1,8,0:0:0:0:
384,192,236269,1,0,0:0:0:0:
213,192,236423,1,8,1:0:0:0:
298,192,236423,1,8,0:0:0:0:
448,192,236423,1,0,0:0:0:0:
64,192,236576,1,8,1:0:0:0:
213,192,236576,1,8,0:0:0:0:
298,192,236576,1,0,0:0:0:0:
128,192,236730,1,8,1:0:0:0:
384,192,236730,1,8,0:0:0:0:
448,192,236730,1,0,0:0:0:0:
213,192,236884,1,8,1:0:0:0:
384,192,236884,1,8,0:0:0:0:
469,192,236884,1,0,0:0:0:0:
42,192,237038,1,8,1:0:0:0:
128,192,237038,1,8,0:0:0:0:
298,192,237038,1,0,0:0:0:0:
64,192,237192,1,8,1:0:0:0:
128,192,237192,1,8,0:0:0:0:
384,192,237192,1,0,0:0:0:0:
192,192,237346,1,8,1:0:0:0:
298,192,237346,1,8,0:0:0:0:
448,192,237346,1,0,0:0:0:0:
42,192,237500,1,8,1:0:0:0:
128,192,237500,1,8,0:0:0:0:
384,192,237500,1,0,0:0:0:0:
64,192,237653,1,8,1:0:0:0:
128,192,237653,1,8,0:0:0:0:
298,192,237653,1,0,0:0:0:0:
213,192,237807,1,8,1:0:0:0:
384,192,237807,1,8,0:0:0:0:
469,192,237807,1,0,0:0:0:0:
128,192,237961,1,8,1:0:0:0:
384,192,237961,1,8,0:0:0:0:
469,192,237961,1,0,0:0:0:0:
64,192,238115,1,8,1:0:0:0:
213,192,238115,1,8,0:0:0:0:
298,192,238115,1,0,0:0:0:0:
213,192,238269,1,8,1:0:0:0:
298,192,238269,1,8,0:0:0:0:
469,192,238269,1,0,0:0:0:0:
42,192,238423,1,8,1:0:0:0:
128,192,238423,1,8,0:0:0:0:
384,192,238423,1,0,0:0:0:0:
64,192,238576,1,8,1:0:0:0:
128,192,238576,1,8,0:0:0:0:
298,192,238576,1,0,0:0:0:0:
192,192,238730,1,2,0:0:0:0:
384,192,238730,1,0,0:0:0:0:
42,192,238884,1,8,0:0:0:0:
128,192,238884,1,8,1:0:0:0:
320,192,238884,1,0,0:0:0:0:
448,192,238884,1,0,0:0:0:0:
384,192,239038,1,8,1:0:0:0:
469,192,239038,1,8,0:0:0:0:
42,192,239115,1,8,1:0:0:0:
128,192,239115,1,8,0:0:0:0:
384,192,239192,1,8,1:0:0:0:
469,192,239192,1,8,0:0:0:0:
128,192,239269,1,8,1:0:0:0:
213,192,239269,1,8,0:0:0:0:
384,192,239346,1,8,1:0:0:0:
469,192,239346,1,8,0:0:0:0:
213,192,239423,1,8,1:0:0:0:
298,192,239423,1,8,0:0:0:0:
42,192,239500,1,4,1:0:0:0:
128,192,239500,128,4,239653:0:0:0:0:
384,192,239500,128,0,239653:0:0:0:0:
320,192,239653,1,2,0:0:0:0:
64,192,239807,1,8,0:0:0:0:
213,192,239807,1,8,1:0:0:0:
384,192,239807,1,0,0:0:0:0:
320,192,239961,128,0,240115:0:0:0:0:
469,192,239961,128,0,240115:0:0:0:0:
64,192,240115,1,2,0:0:0:0:
128,192,240269,1,2,0:0:0:0:
298,192,240269,1,0,0:0:0:0:
42,192,240423,1,8,0:0:0:0:
213,192,240423,128,8,240576:1:0:0:0:
384,192,240423,128,0,240576:0:0:0:0:
469,192,240576,1,2,0:0:0:0:
42,192,240730,1,2,0:0:0:0:
213,192,240730,1,0,0:0:0:0:
128,192,240884,128,2,241038:0:0:0:0:
320,192,240884,128,0,241038:0:0:0:0:
42,192,241038,1,8,0:0:0:0:
448,192,241038,1,8,1:0:0:0:
384,192,241192,1,2,0:0:0:0:
298,192,241269,1,2,0:0:0:0:
469,192,241269,1,0,0:0:0:0:
42,192,241346,128,2,241500:0:0:0:0:
128,192,241346,1,0,0:0:0:0:
213,192,241346,128,0,241500:0:0:0:0:
298,192,241653,128,8,241807:0:0:0:0:
384,192,241653,1,8,1:0:0:0:
448,192,241653,128,0,241807:0:0:0:0:
128,192,241961,128,0,242115:0:0:0:0:
213,192,241961,1,0,0:0:0:0:
384,192,241961,128,0,242115:0:0:0:0:
298,192,242115,1,0,0:0:0:0:
42,192,242269,1,8,0:0:0:0:
448,192,242269,1,8,1:0:0:0:
192,192,242423,128,0,242576:0:0:0:0:
298,192,242423,128,0,242576:0:0:0:0:
42,192,242576,1,2,0:0:0:0:
128,192,242653,1,2,0:0:0:0:
469,192,242730,1,2,0:0:0:0:
384,192,242807,1,2,0:0:0:0:
128,192,242884,1,8,0:0:0:0:
213,192,242884,1,8,1:0:0:0:
298,192,242884,1,0,0:0:0:0:
42,192,243038,128,2,243192:0:0:0:0:
384,192,243038,1,0,0:0:0:0:
469,192,243038,128,0,243192:0:0:0:0:
128,192,243192,1,2,0:0:0:0:
213,192,243192,128,0,243269:0:0:0:0:
298,192,243346,128,2,243423:0:0:0:0:
384,192,243346,1,0,0:0:0:0:
64,192,243500,1,8,0:0:0:0:
128,192,243500,128,4,243576:0:0:0:0:
213,192,243500,1,8,1:0:0:0:
448,192,243500,1,0,0:0:0:0:
298,192,243653,1,0,0:0:0:0:
384,192,243653,128,0,243730:0:0:0:0:
128,192,243807,1,2,0:0:0:0:
213,192,243807,128,0,243884:0:0:0:0:
384,192,243961,1,2,0:0:0:0:
469,192,243961,128,0,244038:0:0:0:0:
64,192,244115,1,8,0:0:0:0:
128,192,244115,128,8,244192:1:0:0:0:
298,192,244115,1,0,0:0:0:0:
384,192,244269,128,2,244346:0:0:0:0:
469,192,244269,1,0,0:0:0:0:
64,192,244423,128,2,244576:0:0:0:0:
213,192,244423,1,4,0:0:0:0:
320,192,244423,128,0,244576:0:0:0:0:
448,192,244576,1,0,0:0:0:0:
128,192,244730,128,8,244884:0:0:0:0:
213,192,244730,1,8,1:0:0:0:
384,192,244730,1,0,0:0:0:0:
64,192,244884,128,0,245038:0:0:0:0:
298,192,244884,128,0,245038:0:0:0:0:
384,192,245038,1,2,0:0:0:0:
213,192,245192,128,2,245346:0:0:0:0:
469,192,245192,1,0,0:0:0:0:
42,192,245346,1,8,0:0:0:0:
128,192,245346,128,8,245500:1:0:0:0:
384,192,245346,128,0,245500:0:0:0:0:
469,192,245500,1,0,0:0:0:0:
42,192,245653,1,2,0:0:0:0:
320,192,245653,128,0,245807:0:0:0:0:
213,192,245807,128,2,245961:0:0:0:0:
448,192,245807,128,0,245961:0:0:0:0:
42,192,245961,1,8,0:0:0:0:
128,192,245961,1,8,1:0:0:0:
298,192,246115,1,2,0:0:0:0:
384,192,246115,128,0,246269:0:0:0:0:
42,192,246192,1,2,0:0:0:0:
128,192,246269,128,2,246423:0:0:0:0:
213,192,246269,1,0,0:0:0:0:
469,192,246269,128,0,246423:0:0:0:0:
42,192,246576,128,8,246730:0:0:0:0:
298,192,246576,1,8,1:0:0:0:
384,192,246576,128,0,246730:0:0:0:0:
128,192,246884,1,2,0:0:0:0:
213,192,246884,128,0,247038:0:0:0:0:
469,192,246884,128,0,247038:0:0:0:0:
384,192,247038,1,0,0:0:0:0:
128,192,247192,1,8,0:0:0:0:
213,192,247192,1,8,1:0:0:0:
298,192,247192,128,0,247346:0:0:0:0:
42,192,247346,128,0,247500:0:0:0:0:
448,192,247346,128,0,247500:0:0:0:0:
384,192,247500,1,2,0:0:0:0:
128,192,247653,1,0,0:0:0:0:
213,192,247653,128,0,247807:0:0:0:0:
42,192,247807,128,8,247961:0:0:0:0:
298,192,247807,1,8,1:0:0:0:
384,192,247807,128,0,247961:0:0:0:0:
128,192,247961,128,0,248115:0:0:0:0:
469,192,247961,128,0,248115:0:0:0:0:
213,192,248115,1,2,0:0:0:0:
298,192,248115,128,0,248192:0:0:0:0:
128,192,248269,1,2,0:0:0:0:
469,192,248269,128,0,248346:0:0:0:0:
42,192,248423,1,8,0:0:0:0:
213,192,248423,128,8,248500:1:0:0:0:
298,192,248423,1,0,0:0:0:0:
384,192,248576,128,2,248653:0:0:0:0:
469,192,248576,1,0,0:0:0:0:
42,192,248730,1,2,0:0:0:0:
128,192,248730,128,0,248807:0:0:0:0:
298,192,248884,128,2,248961:0:0:0:0:
469,192,248884,1,0,0:0:0:0:
384,192,248961,1,0,0:0:0:0:
64,192,249038,128,2,249115:0:0:0:0:
128,192,249038,1,0,0:0:0:0:
469,192,249115,1,2,0:0:0:0:
213,192,249192,128,8,249269:0:0:0:0:
384,192,249192,1,0,0:0:0:0:
298,192,249269,1,8,0:0:0:0:
64,192,249346,128,2,249500:0:0:0:0:
128,192,249346,1,4,0:0:0:0:
384,192,249346,1,0,0:0:0:0:
448,192,249346,128,0,249500:0:0:0:0:
128,192,249653,128,8,249807:0:0:0:0:
298,192,249653,1,8,1:0:0:0:
384,192,249653,128,0,249807:0:0:0:0:
64,192,249807,128,0,249961:0:0:0:0:
213,192,249807,1,0,0:0:0:0:
448,192,249807,128,0,249961:0:0:0:0:
298,192,249961,1,2,0:0:0:0:
42,192,250115,1,2,0:0:0:0:
192,192,250115,128,0,250269:0:0:0:0:
384,192,250115,128,0,250269:0:0:0:0:
128,192,250269,128,8,250423:0:0:0:0:
320,192,250269,128,8,250423:1:0:0:0:
469,192,250269,1,0,0:0:0:0:
384,192,250423,1,0,0:0:0:0:
42,192,250576,1,2,0:0:0:0:
128,192,250576,128,0,250730:0:0:0:0:
320,192,250576,128,0,250730:0:0:0:0:
192,192,250730,128,2,250884:0:0:0:0:
384,192,250730,128,0,250884:0:0:0:0:
469,192,250730,1,0,0:0:0:0:
64,192,250884,1,8,0:0:0:0:
320,192,250884,1,8,1:0:0:0:
128,192,251038,128,0,251192:0:0:0:0:
213,192,251038,1,0,0:0:0:0:
469,192,251038,128,0,251192:0:0:0:0:
42,192,251192,128,2,251346:0:0:0:0:
298,192,251192,1,0,0:0:0:0:
384,192,251192,128,0,251346:0:0:0:0:
213,192,251269,1,8,0:0:0:0:
128,192,251346,1,2,0:0:0:0:
213,192,251500,128,8,251653:0:0:0:0:
298,192,251500,128,8,251653:1:0:0:0:
469,192,251500,1,0,0:0:0:0:
42,192,251807,1,2,0:0:0:0:
128,192,251807,128,0,251961:0:0:0:0:
384,192,251807,128,0,251961:0:0:0:0:
469,192,251807,1,0,0:0:0:0:
298,192,251961,1,0,0:0:0:0:
64,192,252115,128,8,252269:0:0:0:0:
192,192,252115,128,8,252269:1:0:0:0:
384,192,252115,1,0,0:0:0:0:
128,192,252269,1,2,0:0:0:0:
320,192,252269,128,0,252423:0:0:0:0:
448,192,252269,128,0,252423:0:0:0:0:
213,192,252423,1,2,0:0:0:0:
128,192,252576,128,0,252730:0:0:0:0:
384,192,252576,128,0,252730:0:0:0:0:
469,192,252576,1,0,0:0:0:0:
213,192,252730,128,8,252884:0:0:0:0:
298,192,252730,128,8,252884:1:0:0:0:
42,192,252884,128,2,253038:0:0:0:0:
384,192,252884,1,4,0:0:0:0:
469,192,252884,128,0,253038:0:0:0:0:
128,192,253038,128,0,253115:0:0:0:0:
298,192,253038,1,0,0:0:0:0:
213,192,253192,128,2,253269:0:0:0:0:
384,192,253192,1,0,0:0:0:0:
298,192,253346,128,8,253423:0:0:0:0:
469,192,253346,1,8,1:0:0:0:
42,192,253500,1,2,0:0:0:0:
384,192,253500,128,0,253576:0:0:0:0:
128,192,253576,1,8,0:0:0:0:
213,192,253653,1,8,3:0:0:0:
469,192,253653,128,0,253730:0:0:0:0:
128,192,253807,128,8,253884:0:0:0:0:
298,192,253807,1,0,0:0:0:0:
384,192,253884,1,8,0:0:0:0:
213,192,253961,128,8,254038:0:0:0:0:
469,192,253961,1,0,0:0:0:0:
128,192,254038,1,8,0:0:0:0:
42,192,254115,1,8,0:0:0:0:
298,192,254115,128,0,254192:0:0:0:0:
384,192,254192,1,8,0:0:0:0:
64,192,254269,1,2,1:0:0:0:
128,192,254269,1,4,0:0:0:0:
213,192,254269,1,4,1:0:0:0:
448,192,254269,1,0,0:0:0:0:
213,192,254423,1,2,0:0:0:0:
320,192,254423,1,0,0:0:0:0:
64,192,254576,1,8,1:0:0:0:
128,192,254576,1,8,0:0:0:0:
384,192,254576,1,0,0:0:0:0:
448,192,254576,1,0,0:0:0:0:
213,192,254730,1,2,0:0:0:0:
298,192,254730,1,0,0:0:0:0:
42,192,254884,1,8,1:0:0:0:
128,192,254884,1,8,0:0:0:0:
384,192,254884,1,0,0:0:0:0:
469,192,254884,1,0,0:0:0:0:
192,192,255038,1,2,0:0:0:0:
298,192,255038,1,0,0:0:0:0:
64,192,255192,1,8,1:0:0:0:
128,192,255192,1,8,0:0:0:0:
384,192,255192,1,0,0:0:0:0:
448,192,255192,1,0,0:0:0:0:
192,192,255346,1,2,0:0:0:0:
320,192,255346,1,0,0:0:0:0:
64,192,255500,1,8,1:0:0:0:
128,192,255500,1,8,0:0:0:0:
384,192,255500,1,0,0:0:0:0:
448,192,255500,1,0,0:0:0:0:
213,192,255653,1,2,0:0:0:0:
320,192,255653,1,0,0:0:0:0:
42,192,255807,1,8,1:0:0:0:
128,192,255807,1,8,0:0:0:0:
384,192,255807,1,0,0:0:0:0:
469,192,255807,1,0,0:0:0:0:
213,192,255961,1,2,0:0:0:0:
298,192,255961,1,0,0:0:0:0:
64,192,256115,1,8,1:0:0:0:
128,192,256115,1,8,0:0:0:0:
384,192,256115,1,0,0:0:0:0:
469,192,256115,1,0,0:0:0:0:
128,192,256423,1,8,1:0:0:0:
192,192,256423,1,4,0:0:0:0:
320,192,256423,1,8,0:0:0:0:
384,192,256423,1,0,0:0:0:0:
213,192,256730,1,8,1:0:0:0:
298,192,256730,1,8,0:0:0:0:
384,192,256730,1,0,0:0:0:0:
448,192,256730,1,0,0:0:0:0:
64,192,256884,1,2,0:0:0:0:
128,192,256884,1,0,0:0:0:0:
192,192,257038,1,8,1:0:0:0:
320,192,257038,1,8,0:0:0:0:
384,192,257038,1,0,0:0:0:0:
448,192,257038,1,0,0:0:0:0:
64,192,257192,1,2,0:0:0:0:
128,192,257192,1,0,0:0:0:0:
213,192,257346,1,8,1:0:0:0:
320,192,257346,1,8,0:0:0:0:
384,192,257346,1,0,0:0:0:0:
448,192,257346,1,0,0:0:0:0:
42,192,257500,1,2,0:0:0:0:
128,192,257500,1,0,0:0:0:0:
192,192,257653,1,8,1:0:0:0:
298,192,257653,1,8,0:0:0:0:
384,192,257653,1,0,0:0:0:0:
448,192,257653,1,0,0:0:0:0:
64,192,257807,1,2,0:0:0:0:
128,192,257807,1,0,0:0:0:0:
192,192,257961,1,8,1:0:0:0:
320,192,257961,1,8,0:0:0:0:
384,192,257961,1,0,0:0:0:0:
448,192,257961,1,0,0:0:0:0:
42,192,258115,1,2,0:0:0:0:
128,192,258115,1,0,0:0:0:0:
213,192,258269,1,8,1:0:0:0:
298,192,258269,1,8,0:0:0:0:
384,192,258269,1,0,0:0:0:0:
469,192,258269,1,0,0:0:0:0:
42,192,258423,1,2,0:0:0:0:
128,192,258423,1,0,0:0:0:0:
192,192,258576,1,8,1:0:0:0:
298,192,258576,1,8,0:0:0:0:
384,192,258576,1,0,0:0:0:0:
469,192,258576,1,0,0:0:0:0:
42,192,258653,1,8,3:0:0:0:
128,192,258653,1,0,0:0:0:0:
213,192,258730,1,8,3:0:0:0:
298,192,258730,1,0,0:0:0:0:
384,192,258807,1,8,3:0:0:0:
469,192,258807,1,0,0:0:0:0:
42,192,258884,1,8,1:0:0:0:
128,192,258884,1,8,0:0:0:0:
213,192,258884,1,0,0:0:0:0:
298,192,258884,1,0,0:0:0:0:
384,192,258961,1,8,3:0:0:0:
469,192,258961,1,0,0:0:0:0:
213,192,259038,1,8,3:0:0:0:
298,192,259038,1,0,0:0:0:0:
42,192,259115,1,8,3:0:0:0:
128,192,259115,1,0,0:0:0:0:
213,192,259192,1,8,0:0:0:0:
298,192,259192,1,4,0:0:0:0:
384,192,259192,1,8,1:0:0:0:
469,192,259192,1,0,0:0:0:0:
64,192,259346,1,2,0:0:0:0:
469,192,259346,1,0,0:0:0:0:
128,192,259500,1,8,1:0:0:0:
213,192,259500,1,8,0:0:0:0:
320,192,259500,1,0,0:0:0:0:
384,192,259500,1,0,0:0:0:0:
42,192,259653,1,2,0:0:0:0:
448,192,259653,1,0,0:0:0:0:
128,192,259807,1,8,1:0:0:0:
192,192,259807,1,8,0:0:0:0:
320,192,259807,1,0,0:0:0:0:
384,192,259807,1,0,0:0:0:0:
64,192,259961,1,2,0:0:0:0:
448,192,259961,1,0,0:0:0:0:
128,192,260115,1,8,1:0:0:0:
192,192,260115,1,8,0:0:0:0:
320,192,260115,1,0,0:0:0:0:
384,192,260115,1,0,0:0:0:0:
42,192,260269,1,2,0:0:0:0:
469,192,260269,1,0,0:0:0:0:
128,192,260423,1,8,1:0:0:0:
192,192,260423,1,8,0:0:0:0:
298,192,260423,1,0,0:0:0:0:
384,192,260423,1,0,0:0:0:0:
42,192,260576,1,2,0:0:0:0:
469,192,260576,1,0,0:0:0:0:
128,192,260730,1,8,1:0:0:0:
213,192,260730,1,8,0:0:0:0:
320,192,260730,1,0,0:0:0:0:
384,192,260730,1,0,0:0:0:0:
42,192,260884,1,2,0:0:0:0:
448,192,260884,1,0,0:0:0:0:
128,192,261038,1,8,1:0:0:0:
192,192,261038,1,8,0:0:0:0:
320,192,261038,1,0,0:0:0:0:
384,192,261038,1,0,0:0:0:0:
42,192,261346,1,8,1:0:0:0:
128,192,261346,1,8,0:0:0:0:
384,192,261346,1,0,0:0:0:0:
448,192,261346,1,0,0:0:0:0:
64,192,261653,1,8,1:0:0:0:
128,192,261653,1,8,0:0:0:0:
213,192,261653,1,0,0:0:0:0:
320,192,261653,1,0,0:0:0:0:
384,192,261807,1,2,0:0:0:0:
469,192,261807,1,0,0:0:0:0:
64,192,261961,1,8,1:0:0:0:
128,192,261961,1,8,0:0:0:0:
192,192,261961,1,0,0:0:0:0:
298,192,261961,1,0,0:0:0:0:
384,192,262115,1,8,3:0:0:0:
469,192,262115,1,0,0:0:0:0:
298,192,262192,1,8,3:0:0:0:
42,192,262269,1,8,3:0:0:0:
213,192,262269,1,0,0:0:0:0:
128,192,262423,1,8,3:0:0:0:
320,192,262423,1,0,0:0:0:0:
192,192,262576,1,8,3:0:0:0:
384,192,262576,1,0,0:0:0:0:
64,192,262730,1,4,0:0:0:0:
128,192,262730,1,8,0:0:0:0:
320,192,262730,1,8,1:0:0:0:
384,192,262730,1,0,0:0:0:0:
448,192,262730,1,0,0:0:0:0:
192,192,263038,128,0,263500:0:0:0:0:
320,192,263192,128,0,263653:0:0:0:0:
128,192,263346,128,0,263961:0:0:0:0:
384,192,263500,128,0,263807:0:0:0:0:
192,192,263653,128,0,263961:0:0:0:0:
320,192,263807,128,0,263961:0:0:0:0:
64,192,263961,128,2,267346:0:0:0:0:
384,192,263961,128,4,268115:0:0:0:0:
448,192,263961,128,4,267500:1:0:0:0:
128,192,266423,128,0,268269:0:0:0:0:
213,192,266576,128,0,268192:0:0:0:0:
