osu file format v14

[General]
AudioFilename: Thrilling One Way.mp3
AudioLeadIn: 0
PreviewTime: 137807
Countdown: 0
SampleSet: Soft
StackLeniency: 0.7
Mode: 3
LetterboxInBreaks: 0
SpecialStyle: 0
WidescreenStoryboard: 0

[Editor]
DistanceSpacing: 1.5
BeatDivisor: 4
GridSize: 16
TimelineZoom: 1.9

[Metadata]
Title:Thrilling One Way
TitleUnicode:スリリング・ワンウェイ
Artist:Aqours
ArtistUnicode:Aqours
Creator:Reyzra
Version:6K EZ
Source:ラブライブ!サンシャイン!!
Tags:Love Live! Sunshine!! Hata Aki 畑 亜貴 Fujii Ryouta 藤井亮太 Kodaka Koutarou 小高光太郎 Blue-Ray 6 BD Takami Chika 高海千歌 Inami Anju 伊波杏樹 Sakurauchi Riko 桜内梨子 Aida Rikako 逢田梨香子 Matsuura Kanan 松浦果南 Suwa Nanaka 諏訪ななか Kurosawa Dia 黒澤ダイヤ Komiya Arisa 小宮有紗 Watanabe You 渡辺 曜 Saito Shuka 斉藤朱夏 Tsushima Yoshiko 津島善子 Kobayashi Aika 小林愛香 Kunikida Hanamaru 国木田花丸 Takatsuki Kanako 高槻かなこ Ohara Mari 小原鞠莉 Suzuki Aina 鈴木愛奈 Kurosawa Ruby 黒澤ルビィ Furihata Ai 降幡 愛 marathon full ver. version Aqours Best Album: Aqours CHRONICLE track 23. 23 ラブライブ! スクールアイドルフェスティバル Love Live! School idol festival japanese j-pop jpop pop ラブライブ! スクールアイドルフェスティバル ALL STARS Love Live! School Idol Festival ALL STARS
BeatmapID:1408600
BeatmapSetID:599620

[Difficulty]
HPDrainRate:7
CircleSize:6
OverallDifficulty:7
ApproachRate:10
SliderMultiplier:1.4
SliderTickRate:1

[Events]
//Background and Video events
0,0,"BG.jpg",0,0
//Break Periods
//Storyboard Layer 0 (Background)
//Storyboard Layer 1 (Fail)
//Storyboard Layer 2 (Pass)
//Storyboard Layer 3 (Foreground)
//Storyboard Layer 4 (Overlay)
//Storyboard Sound Samples

[TimingPoints]
-500,307.692307692308,4,2,1,50,1,0
67038,-100,4,2,1,50,0,1
86730,-100,4,2,1,50,0,0
138423,-100,4,2,1,50,0,1
158269,-100,4,2,1,50,0,0
190269,-100,4,2,1,10,0,0
200115,-100,4,2,1,50,0,0
222576,-100,4,2,1,50,0,1
234576,-100,4,2,1,50,0,0
254269,-100,4,2,1,50,0,1
262730,-100,4,2,1,50,0,0
263038,-100,4,2,1,20,0,0
263961,-100,4,2,1,50,0,0

[HitObjects]
128,192,3192,5,2,0:0:0:0:
213,192,3500,1,2,0:0:0:0:
298,192,3807,1,2,0:0:0:0:
384,192,4115,1,2,0:0:0:0:
469,192,4423,1,2,0:0:0:0:
42,192,4576,1,8,0:0:0:0:
192,192,4884,1,0,0:0:0:0:
298,192,5192,128,2,5653:0:0:0:0:
128,192,5653,1,4,1:0:0:0:
469,192,5653,1,4,0:0:0:0:
192,192,5961,1,2,0:0:0:0:
384,192,6115,1,0,0:0:0:0:
128,192,6423,1,0,0:0:0:0:
320,192,6576,1,2,0:0:0:0:
42,192,6884,1,2,0:0:0:0:
192,192,7038,1,0,0:0:0:0:
384,192,7346,1,0,0:0:0:0:
128,192,7500,1,2,0:0:0:0:
448,192,7807,1,2,0:0:0:0:
192,192,8115,1,2,0:0:0:0:
298,192,8115,1,4,0:0:0:0:
64,192,8423,1,2,0:0:0:0:
320,192,8576,1,0,0:0:0:0:
128,192,8884,1,0,0:0:0:0:
469,192,9038,1,2,0:0:0:0:
213,192,9192,1,8,0:0:0:0:
128,192,9653,1,8,0:0:0:0:
384,192,9653,1,4,0:0:0:0:
213,192,9961,128,8,10576:3:0:0:0:
64,192,10576,1,4,0:0:0:0:
448,192,10576,1,2,0:0:0:0:
298,192,10884,1,8,0:0:0:0:
384,192,11192,1,2,0:0:0:0:
128,192,11500,1,8,0:0:0:0:
320,192,11807,1,2,0:0:0:0:
42,192,12115,1,8,0:0:0:0:
448,192,12423,1,2,0:0:0:0:
448,192,12730,1,8,0:0:0:0:
128,192,13038,1,2,0:0:0:0:
320,192,13346,1,8,0:0:0:0:
192,192,13653,1,2,0:0:0:0:
384,192,13961,1,8,0:0:0:0:
64,192,14115,1,8,0:0:0:0:
320,192,14884,1,8,0:0:0:0:
320,192,15038,1,8,0:0:0:0:
128,192,15346,1,4,0:0:0:0:
448,192,15346,1,4,1:0:0:0:
213,192,15653,1,2,0:0:0:0:
384,192,15807,1,8,0:0:0:0:
42,192,16115,1,2,0:0:0:0:
128,192,16269,1,2,0:0:0:0:
298,192,16423,1,8,0:0:0:0:
469,192,16576,1,6,0:0:0:0:
384,192,16884,1,2,0:0:0:0:
213,192,17038,1,8,0:0:0:0:
128,192,17346,1,2,0:0:0:0:
298,192,17500,1,2,0:0:0:0:
448,192,17653,1,8,0:0:0:0:
192,192,17807,1,6,0:0:0:0:
42,192,18115,1,2,0:0:0:0:
384,192,18269,1,8,0:0:0:0:
298,192,18576,1,2,0:0:0:0:
128,192,18730,1,2,0:0:0:0:
213,192,18884,1,8,0:0:0:0:
469,192,19038,1,6,0:0:0:0:
128,192,19346,1,2,0:0:0:0:
384,192,19500,1,8,0:0:0:0:
320,192,19807,1,8,0:0:0:0:
192,192,20115,1,8,0:0:0:0:
128,192,20269,128,6,20730:0:0:0:0:
384,192,20730,1,8,0:0:0:0:
192,192,20884,128,6,21346:0:0:0:0:
448,192,21346,1,8,0:0:0:0:
320,192,21500,128,6,21961:0:0:0:0:
128,192,21961,1,8,0:0:0:0:
384,192,22115,128,6,22423:0:0:0:0:
42,192,22423,1,8,0:0:0:0:
213,192,22576,1,8,0:0:0:0:
469,192,22730,128,6,23961:0:0:0:0:
42,192,23961,1,8,0:0:0:0:
128,192,23961,1,0,0:0:0:0:
192,192,25192,1,8,0:0:0:0:
320,192,25192,1,4,0:0:0:0:
64,192,25653,1,0,0:0:0:0:
128,192,26269,1,0,0:0:0:0:
213,192,26884,1,0,0:0:0:0:
298,192,27346,128,8,27807:3:0:0:0:
64,192,27807,1,8,0:0:0:0:
469,192,27807,1,4,0:0:0:0:
384,192,28115,1,0,0:0:0:0:
298,192,28730,1,0,0:0:0:0:
128,192,29038,1,8,3:0:0:0:
213,192,29500,1,8,3:0:0:0:
42,192,29807,1,8,3:0:0:0:
128,192,29961,1,8,3:0:0:0:
320,192,30115,1,8,3:0:0:0:
384,192,30269,1,8,0:0:0:0:
448,192,30269,1,4,0:0:0:0:
42,192,30576,1,2,0:0:0:0:
298,192,30884,1,2,0:0:0:0:
128,192,31192,1,2,0:0:0:0:
384,192,31500,1,2,0:0:0:0:
213,192,31807,1,2,0:0:0:0:
469,192,32115,1,2,0:0:0:0:
128,192,32423,1,2,0:0:0:0:
64,192,32730,1,8,0:0:0:0:
298,192,32884,1,8,0:0:0:0:
128,192,33192,1,8,0:0:0:0:
384,192,33346,1,8,0:0:0:0:
213,192,33653,1,8,0:0:0:0:
469,192,33807,1,8,0:0:0:0:
384,192,34115,1,8,0:0:0:0:
128,192,34269,1,8,0:0:0:0:
298,192,34576,1,8,0:0:0:0:
42,192,34730,128,8,35192:0:0:0:0:
128,192,35192,1,4,0:0:0:0:
384,192,35192,1,4,1:0:0:0:
298,192,35500,1,8,0:0:0:0:
42,192,35807,1,2,0:0:0:0:
384,192,36115,1,8,0:0:0:0:
213,192,36423,1,0,0:0:0:0:
469,192,36730,1,8,0:0:0:0:
128,192,37038,1,2,0:0:0:0:
298,192,37346,1,8,0:0:0:0:
42,192,37653,1,2,0:0:0:0:
448,192,37653,1,0,0:0:0:0:
213,192,37961,1,8,0:0:0:0:
384,192,38269,1,2,0:0:0:0:
128,192,38576,1,8,0:0:0:0:
298,192,38730,1,2,0:0:0:0:
469,192,39038,1,2,0:0:0:0:
213,192,39192,1,8,0:0:0:0:
384,192,39500,1,2,0:0:0:0:
42,192,39807,1,8,0:0:0:0:
128,192,39961,1,8,0:0:0:0:
192,192,40115,1,2,0:0:0:0:
298,192,40115,1,4,0:0:0:0:
448,192,40423,1,8,0:0:0:0:
128,192,40730,1,2,0:0:0:0:
320,192,41038,1,8,0:0:0:0:
64,192,41192,1,2,0:0:0:0:
192,192,41500,1,2,0:0:0:0:
384,192,41653,1,8,0:0:0:0:
320,192,41961,1,2,0:0:0:0:
128,192,42269,1,8,0:0:0:0:
42,192,42576,1,8,0:0:0:0:
469,192,42576,1,4,0:0:0:0:
213,192,43038,1,8,0:0:0:0:
384,192,43038,1,0,0:0:0:0:
128,192,43500,1,4,0:0:0:0:
298,192,43500,1,8,0:0:0:0:
42,192,43961,1,8,3:0:0:0:
213,192,43961,1,0,0:0:0:0:
128,192,44423,1,8,0:0:0:0:
448,192,44576,128,8,45038:0:0:0:0:
42,192,45038,1,4,0:0:0:0:
192,192,45038,1,4,1:0:0:0:
320,192,45500,1,2,0:0:0:0:
128,192,45653,1,8,0:0:0:0:
192,192,45961,1,2,0:0:0:0:
320,192,46269,1,0,0:0:0:0:
448,192,46576,1,0,0:0:0:0:
384,192,46884,1,8,0:0:0:0:
128,192,47192,1,0,0:0:0:0:
64,192,47500,1,2,0:0:0:0:
213,192,47807,1,0,0:0:0:0:
298,192,48115,1,8,0:0:0:0:
448,192,48423,1,2,0:0:0:0:
384,192,48730,1,0,0:0:0:0:
128,192,49038,1,2,0:0:0:0:
192,192,49346,1,2,0:0:0:0:
320,192,49653,1,8,3:0:0:0:
64,192,49961,1,2,0:0:0:0:
448,192,49961,1,4,0:0:0:0:
128,192,50423,1,2,0:0:0:0:
384,192,50576,1,8,0:0:0:0:
213,192,50884,1,2,0:0:0:0:
469,192,51192,1,0,0:0:0:0:
298,192,51500,1,2,0:0:0:0:
192,192,51807,1,8,0:0:0:0:
128,192,52115,1,0,0:0:0:0:
42,192,52423,1,2,0:0:0:0:
192,192,52730,1,0,0:0:0:0:
298,192,53038,1,8,0:0:0:0:
384,192,53346,1,8,0:0:0:0:
213,192,53500,1,2,0:0:0:0:
469,192,53807,1,8,0:0:0:0:
298,192,54115,1,8,0:0:0:0:
128,192,54269,1,8,0:0:0:0:
384,192,54423,1,8,0:0:0:0:
128,192,54576,1,8,0:0:0:0:
298,192,54884,1,2,0:0:0:0:
213,192,55038,1,2,0:0:0:0:
64,192,55192,1,8,0:0:0:0:
448,192,55192,1,4,0:0:0:0:
128,192,55500,1,2,0:0:0:0:
298,192,55653,1,2,0:0:0:0:
384,192,55807,1,8,0:0:0:0:
213,192,56115,1,2,0:0:0:0:
469,192,56423,1,8,0:0:0:0:
298,192,56576,1,2,0:0:0:0:
64,192,56884,1,2,0:0:0:0:
213,192,57038,1,8,0:0:0:0:
384,192,57346,1,2,0:0:0:0:
128,192,57653,1,8,0:0:0:0:
64,192,57961,1,2,0:0:0:0:
192,192,58115,1,2,0:0:0:0:
448,192,58269,1,8,0:0:0:0:
384,192,58423,1,2,0:0:0:0:
128,192,58730,1,2,0:0:0:0:
448,192,58884,1,8,0:0:0:0:
213,192,59038,1,2,0:0:0:0:
298,192,59346,1,2,0:0:0:0:
42,192,59500,1,8,0:0:0:0:
128,192,59807,1,8,0:0:0:0:
384,192,59807,1,4,0:0:0:0:
192,192,60115,1,2,0:0:0:0:
320,192,60423,1,2,0:0:0:0:
192,192,60730,1,2,0:0:0:0:
64,192,61038,1,4,0:0:0:0:
448,192,61038,1,8,0:0:0:0:
128,192,61346,1,2,0:0:0:0:
192,192,61653,1,2,0:0:0:0:
298,192,61961,1,2,0:0:0:0:
42,192,62269,1,8,0:0:0:0:
448,192,62269,1,4,0:0:0:0:
128,192,62730,1,8,0:0:0:0:
384,192,62730,1,4,0:0:0:0:
192,192,63192,1,8,0:0:0:0:
298,192,63192,1,4,0:0:0:0:
128,192,63653,1,4,0:0:0:0:
384,192,63653,1,8,0:0:0:0:
42,192,64115,1,8,0:0:0:0:
469,192,64269,1,8,0:0:0:0:
213,192,64730,1,8,0:0:0:0:
298,192,64884,1,8,0:0:0:0:
128,192,65038,1,8,0:0:0:0:
384,192,65192,1,8,0:0:0:0:
192,192,65500,1,8,0:0:0:0:
320,192,65807,1,8,0:0:0:0:
64,192,66115,1,8,0:0:0:0:
448,192,66269,1,8,0:0:0:0:
192,192,66730,1,2,0:0:0:0:
320,192,66884,1,8,0:0:0:0:
64,192,67038,1,2,1:0:0:0:
448,192,67038,1,4,1:0:0:0:
128,192,67346,1,2,0:0:0:0:
384,192,67500,1,8,0:0:0:0:
213,192,67807,1,2,0:0:0:0:
298,192,67961,1,2,0:0:0:0:
469,192,68115,1,8,0:0:0:0:
128,192,68269,1,6,0:0:0:0:
64,192,68576,1,2,0:0:0:0:
320,192,68730,1,8,0:0:0:0:
384,192,69038,1,2,0:0:0:0:
213,192,69192,1,2,0:0:0:0:
42,192,69346,1,8,0:0:0:0:
298,192,69500,1,6,0:0:0:0:
448,192,69807,1,2,0:0:0:0:
128,192,69961,1,8,0:0:0:0:
213,192,70269,1,2,0:0:0:0:
384,192,70423,1,2,0:0:0:0:
448,192,70576,1,8,0:0:0:0:
128,192,70730,1,6,0:0:0:0:
42,192,71038,1,2,0:0:0:0:
298,192,71192,1,8,0:0:0:0:
469,192,71500,128,8,71807:3:0:0:0:
128,192,71807,1,8,0:0:0:0:
384,192,71961,1,6,0:0:0:0:
192,192,72269,1,2,0:0:0:0:
448,192,72423,1,8,0:0:0:0:
320,192,72730,1,2,0:0:0:0:
42,192,72884,1,2,0:0:0:0:
128,192,73038,1,8,0:0:0:0:
384,192,73192,1,6,0:0:0:0:
213,192,73500,1,2,0:0:0:0:
469,192,73653,1,8,0:0:0:0:
298,192,73961,1,2,0:0:0:0:
128,192,74115,1,2,0:0:0:0:
384,192,74269,1,8,0:0:0:0:
213,192,74423,1,6,0:0:0:0:
42,192,74730,1,2,0:0:0:0:
128,192,74884,1,8,0:0:0:0:
298,192,75192,1,8,0:0:0:0:
469,192,75500,1,8,0:0:0:0:
42,192,75653,1,6,0:0:0:0:
192,192,75961,1,2,0:0:0:0:
384,192,76115,1,8,0:0:0:0:
128,192,76423,128,8,76884:0:0:0:0:
298,192,76884,1,4,0:0:0:0:
448,192,76884,1,2,0:0:0:0:
42,192,77192,1,2,0:0:0:0:
384,192,77346,1,8,0:0:0:0:
192,192,77653,1,2,0:0:0:0:
298,192,77807,1,2,0:0:0:0:
448,192,77961,1,8,0:0:0:0:
64,192,78115,1,6,0:0:0:0:
213,192,78423,1,2,0:0:0:0:
384,192,78576,1,8,0:0:0:0:
192,192,78884,1,2,0:0:0:0:
128,192,79038,1,2,0:0:0:0:
384,192,79192,1,8,0:0:0:0:
64,192,79346,1,6,0:0:0:0:
320,192,79653,1,2,0:0:0:0:
469,192,79807,1,8,0:0:0:0:
128,192,80115,1,2,0:0:0:0:
213,192,80269,1,2,0:0:0:0:
298,192,80423,1,8,0:0:0:0:
42,192,80576,1,4,0:0:0:0:
448,192,80576,1,2,0:0:0:0:
128,192,80884,1,8,3:0:0:0:
384,192,81192,1,8,3:0:0:0:
298,192,81500,1,8,3:0:0:0:
128,192,81807,1,8,3:0:0:0:
213,192,81961,1,4,0:0:0:0:
448,192,81961,1,4,1:0:0:0:
42,192,82269,1,2,0:0:0:0:
298,192,82576,1,8,0:0:0:0:
128,192,82884,1,2,0:0:0:0:
384,192,83038,1,2,0:0:0:0:
213,192,83346,1,8,0:0:0:0:
42,192,83500,1,2,0:0:0:0:
298,192,83807,1,8,0:0:0:0:
469,192,83961,1,2,0:0:0:0:
128,192,84269,1,2,0:0:0:0:
42,192,84423,1,8,0:0:0:0:
384,192,84423,1,4,0:0:0:0:
298,192,84730,1,2,0:0:0:0:
128,192,84884,1,8,0:0:0:0:
192,192,85192,1,8,0:0:0:0:
384,192,85500,1,8,0:0:0:0:
448,192,85500,1,4,0:0:0:0:
42,192,85961,128,2,86269:0:0:0:0:
298,192,86269,1,4,0:0:0:0:
384,192,86269,128,8,86730:0:0:0:0:
128,192,86730,1,4,1:0:0:0:
192,192,86730,1,2,0:0:0:0:
320,192,87038,1,2,0:0:0:0:
64,192,87192,1,8,0:0:0:0:
384,192,87500,1,2,0:0:0:0:
128,192,87653,1,2,0:0:0:0:
192,192,87807,1,8,0:0:0:0:
448,192,87961,1,6,0:0:0:0:
42,192,88269,1,2,0:0:0:0:
298,192,88423,1,8,0:0:0:0:
384,192,88730,1,2,0:0:0:0:
128,192,88884,1,2,0:0:0:0:
213,192,89038,1,8,0:0:0:0:
469,192,89192,1,6,0:0:0:0:
298,192,89500,1,2,0:0:0:0:
42,192,89653,1,8,0:0:0:0:
128,192,89961,1,2,0:0:0:0:
213,192,90115,1,2,0:0:0:0:
469,192,90269,1,8,0:0:0:0:
298,192,90423,1,6,0:0:0:0:
128,192,90730,1,2,0:0:0:0:
384,192,90884,1,2,0:0:0:0:
192,192,91192,1,8,0:0:0:0:
469,192,91500,1,8,0:0:0:0:
384,192,91653,128,6,92115:0:0:0:0:
128,192,92115,1,8,0:0:0:0:
320,192,92269,128,6,92730:0:0:0:0:
64,192,92730,1,8,0:0:0:0:
192,192,92884,128,6,93346:0:0:0:0:
448,192,93346,1,8,0:0:0:0:
128,192,93500,128,6,93961:0:0:0:0:
320,192,93807,1,8,0:0:0:0:
384,192,93961,1,8,0:0:0:0:
42,192,94115,128,6,95346:0:0:0:0:
384,192,95346,1,8,0:0:0:0:
469,192,95346,1,0,0:0:0:0:
213,192,96576,1,4,0:0:0:0:
469,192,96576,128,4,99038:1:0:0:0:
64,192,99038,1,4,0:0:0:0:
128,192,99038,128,8,101653:0:0:0:0:
298,192,100576,1,8,0:0:0:0:
213,192,101653,1,8,0:0:0:0:
448,192,101653,1,4,0:0:0:0:
298,192,101961,1,2,0:0:0:0:
42,192,102269,1,2,0:0:0:0:
213,192,102576,1,10,0:0:0:0:
384,192,102884,1,10,0:0:0:0:
128,192,103192,1,10,0:0:0:0:
298,192,103500,1,10,0:0:0:0:
469,192,103807,1,10,0:0:0:0:
42,192,104115,1,8,0:0:0:0:
128,192,104115,128,4,104423:0:0:0:0:
384,192,104576,128,8,104884:0:0:0:0:
469,192,104576,1,0,0:0:0:0:
128,192,105038,1,8,0:0:0:0:
192,192,105038,128,4,105346:0:0:0:0:
384,192,105500,1,8,0:0:0:0:
469,192,105500,128,0,105807:0:0:0:0:
64,192,105961,1,8,0:0:0:0:
384,192,106115,1,8,0:0:0:0:
192,192,106576,1,4,0:0:0:0:
320,192,106576,1,4,1:0:0:0:
448,192,106884,1,8,0:0:0:0:
128,192,107192,1,2,0:0:0:0:
384,192,107500,1,8,0:0:0:0:
42,192,107807,1,0,0:0:0:0:
298,192,108115,1,8,0:0:0:0:
128,192,108423,1,2,0:0:0:0:
384,192,108730,1,8,0:0:0:0:
213,192,109038,1,2,0:0:0:0:
448,192,109038,1,0,0:0:0:0:
42,192,109346,1,8,0:0:0:0:
298,192,109653,1,2,0:0:0:0:
128,192,109961,1,8,0:0:0:0:
384,192,110115,1,2,0:0:0:0:
469,192,110423,1,2,0:0:0:0:
213,192,110576,1,8,0:0:0:0:
64,192,110884,1,2,0:0:0:0:
213,192,111192,1,8,0:0:0:0:
298,192,111346,1,8,0:0:0:0:
384,192,111500,1,2,0:0:0:0:
448,192,111500,1,4,0:0:0:0:
128,192,111807,1,8,0:0:0:0:
192,192,112115,1,2,0:0:0:0:
384,192,112423,1,8,0:0:0:0:
128,192,112576,1,2,0:0:0:0:
42,192,112884,1,2,0:0:0:0:
298,192,113038,1,8,0:0:0:0:
192,192,113346,1,2,0:0:0:0:
384,192,113653,1,8,0:0:0:0:
128,192,113961,1,4,0:0:0:0:
469,192,113961,1,8,0:0:0:0:
192,192,114423,1,8,0:0:0:0:
384,192,114423,1,4,0:0:0:0:
128,192,114884,1,8,0:0:0:0:
298,192,114884,1,4,0:0:0:0:
42,192,115346,1,8,3:0:0:0:
384,192,115346,1,0,0:0:0:0:
213,192,115807,1,8,0:0:0:0:
469,192,115807,1,0,0:0:0:0:
42,192,115961,128,8,116423:0:0:0:0:
298,192,116423,1,4,1:0:0:0:
384,192,116423,1,4,0:0:0:0:
128,192,116884,1,2,0:0:0:0:
448,192,117038,1,8,0:0:0:0:
384,192,117346,1,2,0:0:0:0:
192,192,117500,1,2,0:0:0:0:
298,192,117807,1,8,0:0:0:0:
42,192,118115,1,2,0:0:0:0:
384,192,118269,1,8,0:0:0:0:
213,192,118423,1,2,0:0:0:0:
469,192,118730,1,8,0:0:0:0:
298,192,118884,1,2,0:0:0:0:
64,192,119038,1,8,0:0:0:0:
384,192,119346,1,2,0:0:0:0:
128,192,119500,1,8,0:0:0:0:
320,192,119807,1,2,0:0:0:0:
213,192,119961,1,2,0:0:0:0:
384,192,120269,1,8,0:0:0:0:
128,192,120730,1,8,0:0:0:0:
298,192,120884,1,2,0:0:0:0:
213,192,121192,1,8,0:0:0:0:
64,192,121346,1,2,0:0:0:0:
384,192,121346,1,4,0:0:0:0:
128,192,121807,1,2,0:0:0:0:
448,192,121961,1,8,0:0:0:0:
213,192,122269,1,2,0:0:0:0:
384,192,122423,1,2,0:0:0:0:
320,192,122730,1,8,0:0:0:0:
128,192,122884,1,2,0:0:0:0:
213,192,123192,1,8,0:0:0:0:
384,192,123346,1,2,0:0:0:0:
64,192,123653,1,8,0:0:0:0:
128,192,123807,1,2,0:0:0:0:
298,192,123961,1,8,0:0:0:0:
469,192,124269,1,2,0:0:0:0:
192,192,124423,1,8,0:0:0:0:
128,192,124730,1,2,0:0:0:0:
298,192,124884,1,2,0:0:0:0:
384,192,125038,1,8,0:0:0:0:
448,192,125038,1,4,0:0:0:0:
64,192,125346,1,8,0:0:0:0:
128,192,125346,1,4,0:0:0:0:
192,192,125653,1,4,0:0:0:0:
298,192,125653,1,8,0:0:0:0:
384,192,125961,1,8,0:0:0:0:
469,192,125961,1,4,0:0:0:0:
128,192,126269,128,8,126576:3:0:0:0:
213,192,126576,1,8,0:0:0:0:
469,192,126576,1,4,0:0:0:0:
42,192,126884,1,2,0:0:0:0:
192,192,127038,1,2,0:0:0:0:
384,192,127192,1,8,0:0:0:0:
128,192,127500,1,2,0:0:0:0:
469,192,127807,1,8,0:0:0:0:
192,192,127961,1,2,0:0:0:0:
64,192,128269,1,2,0:0:0:0:
384,192,128423,1,8,0:0:0:0:
128,192,128730,1,2,0:0:0:0:
469,192,129038,1,8,0:0:0:0:
384,192,129346,1,2,0:0:0:0:
320,192,129500,1,2,0:0:0:0:
128,192,129653,1,8,0:0:0:0:
192,192,129807,1,2,0:0:0:0:
448,192,129961,1,8,0:0:0:0:
128,192,130269,1,2,0:0:0:0:
384,192,130423,1,12,0:0:0:0:
298,192,130730,1,8,3:0:0:0:
42,192,130884,1,8,3:0:0:0:
384,192,131038,1,8,3:0:0:0:
128,192,131192,1,6,0:0:0:0:
448,192,131346,1,6,0:0:0:0:
384,192,132423,1,6,0:0:0:0:
64,192,132576,1,6,0:0:0:0:
128,192,133192,128,8,133653:3:0:0:0:
213,192,133653,1,4,0:0:0:0:
469,192,133653,1,8,0:0:0:0:
42,192,134115,1,8,0:0:0:0:
320,192,134115,1,0,0:0:0:0:
128,192,134576,1,8,0:0:0:0:
384,192,134576,1,4,0:0:0:0:
192,192,135038,1,8,0:0:0:0:
448,192,135038,1,0,0:0:0:0:
64,192,135500,1,8,0:0:0:0:
320,192,135653,1,8,0:0:0:0:
128,192,136115,1,8,0:0:0:0:
384,192,136269,1,8,0:0:0:0:
128,192,136423,1,8,0:0:0:0:
384,192,136576,1,8,0:0:0:0:
192,192,136884,1,8,0:0:0:0:
298,192,137192,1,8,0:0:0:0:
42,192,137500,1,8,0:0:0:0:
469,192,137653,1,8,0:0:0:0:
42,192,138423,1,4,1:0:0:0:
384,192,138423,1,2,1:0:0:0:
213,192,138730,1,2,0:0:0:0:
469,192,138884,1,8,0:0:0:0:
298,192,139192,1,2,0:0:0:0:
42,192,139346,1,2,0:0:0:0:
213,192,139500,1,8,0:0:0:0:
384,192,139653,1,6,0:0:0:0:
448,192,139961,1,2,0:0:0:0:
192,192,140115,1,8,0:0:0:0:
298,192,140423,1,2,0:0:0:0:
384,192,140576,1,2,0:0:0:0:
213,192,140730,1,8,0:0:0:0:
42,192,140884,1,6,0:0:0:0:
213,192,141192,1,2,0:0:0:0:
469,192,141346,1,8,0:0:0:0:
128,192,141653,1,2,0:0:0:0:
384,192,141807,1,2,0:0:0:0:
213,192,141961,1,8,0:0:0:0:
448,192,142115,1,6,0:0:0:0:
298,192,142423,1,2,0:0:0:0:
64,192,142576,1,8,0:0:0:0:
192,192,142884,128,8,143192:0:0:0:0:
448,192,143192,1,8,0:0:0:0:
128,192,143346,1,6,0:0:0:0:
384,192,143653,1,2,0:0:0:0:
213,192,143807,1,8,0:0:0:0:
42,192,144115,1,2,0:0:0:0:
298,192,144269,1,2,0:0:0:0:
448,192,144423,1,8,0:0:0:0:
128,192,144576,1,6,0:0:0:0:
192,192,144884,1,2,0:0:0:0:
448,192,145038,1,8,0:0:0:0:
320,192,145346,1,2,0:0:0:0:
128,192,145500,1,2,0:0:0:0:
64,192,145653,1,8,0:0:0:0:
384,192,145807,1,6,0:0:0:0:
128,192,146115,1,2,0:0:0:0:
298,192,146269,1,8,0:0:0:0:
469,192,146576,1,8,0:0:0:0:
213,192,146884,1,8,0:0:0:0:
384,192,147038,1,6,0:0:0:0:
128,192,147346,128,8,147807:3:0:0:0:
384,192,147807,128,2,148269:0:0:0:0:
64,192,148269,1,4,0:0:0:0:
448,192,148269,1,2,0:0:0:0:
192,192,148576,1,2,0:0:0:0:
448,192,148730,1,8,0:0:0:0:
320,192,149038,1,2,0:0:0:0:
128,192,149192,1,2,0:0:0:0:
64,192,149346,1,8,0:0:0:0:
384,192,149500,1,6,0:0:0:0:
192,192,149807,1,2,0:0:0:0:
469,192,149961,1,8,0:0:0:0:
128,192,150269,1,2,0:0:0:0:
298,192,150423,1,2,0:0:0:0:
42,192,150576,1,8,0:0:0:0:
384,192,150730,1,6,0:0:0:0:
128,192,151038,1,2,0:0:0:0:
469,192,151192,1,8,0:0:0:0:
298,192,151500,1,2,0:0:0:0:
42,192,151653,1,2,0:0:0:0:
469,192,151807,1,8,0:0:0:0:
213,192,151961,1,6,0:0:0:0:
320,192,152269,1,8,3:0:0:0:
384,192,152576,1,8,3:0:0:0:
213,192,152730,1,2,0:0:0:0:
128,192,152884,1,8,3:0:0:0:
298,192,153038,1,2,0:0:0:0:
384,192,153192,1,8,3:0:0:0:
64,192,153346,1,6,0:0:0:0:
448,192,153346,1,4,1:0:0:0:
298,192,153653,1,2,0:0:0:0:
384,192,153807,1,2,0:0:0:0:
128,192,153961,1,8,0:0:0:0:
213,192,154269,1,2,0:0:0:0:
298,192,154423,1,2,0:0:0:0:
384,192,154730,1,8,0:0:0:0:
128,192,154884,1,2,0:0:0:0:
448,192,155192,1,8,0:0:0:0:
320,192,155346,1,2,0:0:0:0:
42,192,155653,1,8,0:0:0:0:
128,192,155807,1,4,0:0:0:0:
384,192,155807,1,2,0:0:0:0:
213,192,156115,1,8,0:0:0:0:
298,192,156269,1,2,0:0:0:0:
384,192,156576,1,2,0:0:0:0:
64,192,156884,1,4,0:0:0:0:
469,192,156884,1,8,0:0:0:0:
213,192,157192,1,8,3:0:0:0:
128,192,157346,1,8,3:0:0:0:
298,192,157500,1,8,3:0:0:0:
42,192,157653,128,8,158269:0:0:0:0:
384,192,157653,1,0,0:0:0:0:
213,192,158269,1,2,0:0:0:0:
469,192,158269,1,4,0:0:0:0:
384,192,158423,1,2,0:0:0:0:
128,192,158730,1,8,0:0:0:0:
320,192,159038,1,8,0:0:0:0:
448,192,159346,1,8,0:0:0:0:
64,192,159653,1,8,0:0:0:0:
384,192,159807,1,2,0:0:0:0:
128,192,159961,1,2,0:0:0:0:
469,192,160115,1,8,0:0:0:0:
213,192,160423,128,2,160730:0:0:0:0:
320,192,160730,1,2,0:0:0:0:
448,192,160884,1,2,0:0:0:0:
384,192,161192,1,8,0:0:0:0:
192,192,161500,1,8,0:0:0:0:
64,192,161807,1,8,0:0:0:0:
448,192,162115,1,8,0:0:0:0:
128,192,162269,1,2,0:0:0:0:
298,192,162423,1,2,0:0:0:0:
64,192,162576,1,8,0:0:0:0:
384,192,162884,128,2,163192:0:0:0:0:
128,192,163192,1,6,0:0:0:0:
298,192,163346,1,2,0:0:0:0:
42,192,163653,1,8,0:0:0:0:
448,192,163961,1,8,0:0:0:0:
213,192,164269,1,8,0:0:0:0:
128,192,164576,1,8,0:0:0:0:
298,192,164730,1,2,0:0:0:0:
384,192,164884,1,2,0:0:0:0:
469,192,165038,1,8,0:0:0:0:
298,192,165346,1,0,0:0:0:0:
213,192,165500,1,8,0:0:0:0:
128,192,165653,128,6,165961:0:0:0:0:
448,192,165961,1,8,0:0:0:0:
384,192,166115,128,6,166423:0:0:0:0:
213,192,166423,1,8,0:0:0:0:
42,192,166576,128,6,166884:0:0:0:0:
469,192,166884,1,8,0:0:0:0:
298,192,167038,128,6,167500:0:0:0:0:
128,192,167500,1,8,0:0:0:0:
128,192,167653,1,8,0:0:0:0:
64,192,167961,1,6,1:0:0:0:
469,192,167961,1,4,0:0:0:0:
213,192,168269,1,2,0:0:0:0:
384,192,168423,1,8,0:0:0:0:
128,192,168730,1,2,0:0:0:0:
213,192,168884,1,2,0:0:0:0:
384,192,169038,1,8,0:0:0:0:
42,192,169192,1,6,0:0:0:0:
128,192,169500,1,2,0:0:0:0:
384,192,169653,1,8,0:0:0:0:
213,192,169961,1,2,0:0:0:0:
42,192,170115,1,2,0:0:0:0:
384,192,170269,1,8,0:0:0:0:
128,192,170576,1,6,0:0:0:0:
192,192,170884,1,8,0:0:0:0:
384,192,171192,1,2,0:0:0:0:
298,192,171346,1,2,0:0:0:0:
42,192,171500,1,8,0:0:0:0:
384,192,171653,1,6,0:0:0:0:
192,192,171961,1,2,0:0:0:0:
448,192,172115,1,8,0:0:0:0:
64,192,172423,1,2,0:0:0:0:
128,192,172576,1,2,0:0:0:0:
384,192,172730,1,8,0:0:0:0:
298,192,172884,1,6,0:0:0:0:
213,192,173192,1,2,0:0:0:0:
448,192,173346,1,8,0:0:0:0:
384,192,173653,1,2,0:0:0:0:
128,192,173807,1,2,0:0:0:0:
320,192,173961,1,8,0:0:0:0:
64,192,174115,1,6,0:0:0:0:
448,192,174423,1,2,0:0:0:0:
192,192,174576,1,8,0:0:0:0:
384,192,174730,1,2,0:0:0:0:
128,192,175038,1,2,0:0:0:0:
298,192,175192,1,8,0:0:0:0:
213,192,175346,1,2,0:0:0:0:
384,192,175500,1,12,0:0:0:0:
320,192,175807,1,8,0:0:0:0:
213,192,176115,1,8,0:0:0:0:
128,192,176423,1,8,0:0:0:0:
384,192,176576,128,6,177038:0:0:0:0:
213,192,177038,128,8,177346:0:0:0:0:
64,192,177346,128,8,177807:3:0:0:0:
384,192,177807,1,2,0:0:0:0:
448,192,177807,1,4,0:0:0:0:
128,192,178115,1,2,0:0:0:0:
298,192,178269,1,8,0:0:0:0:
192,192,178576,1,2,0:0:0:0:
384,192,178730,1,2,0:0:0:0:
448,192,178884,1,8,0:0:0:0:
64,192,179038,1,6,0:0:0:0:
320,192,179346,1,2,0:0:0:0:
128,192,179500,1,8,0:0:0:0:
64,192,179807,1,2,0:0:0:0:
213,192,179961,1,2,0:0:0:0:
384,192,180115,1,8,0:0:0:0:
298,192,180423,1,4,0:0:0:0:
469,192,180423,1,2,0:0:0:0:
128,192,180730,1,8,0:0:0:0:
384,192,181038,1,2,0:0:0:0:
298,192,181192,1,2,0:0:0:0:
42,192,181346,1,8,0:0:0:0:
213,192,181500,1,6,0:0:0:0:
384,192,181807,1,2,0:0:0:0:
128,192,181961,1,8,3:0:0:0:
192,192,182269,1,8,3:0:0:0:
320,192,182576,1,8,3:0:0:0:
128,192,182884,1,2,0:0:0:0:
384,192,182884,1,4,0:0:0:0:
469,192,183192,1,8,0:0:0:0:
42,192,183500,1,8,0:0:0:0:
469,192,183807,1,8,0:0:0:0:
213,192,184115,1,8,0:0:0:0:
298,192,184115,1,0,0:0:0:0:
384,192,184423,1,8,0:0:0:0:
213,192,184730,1,8,0:0:0:0:
384,192,185038,1,8,0:0:0:0:
42,192,185346,1,8,0:0:0:0:
448,192,185346,1,4,0:0:0:0:
128,192,185653,1,8,0:0:0:0:
384,192,185961,1,8,0:0:0:0:
128,192,186269,1,8,0:0:0:0:
384,192,186576,1,8,0:0:0:0:
128,192,186884,1,8,0:0:0:0:
469,192,187192,1,8,3:0:0:0:
384,192,187346,1,8,3:0:0:0:
298,192,187500,1,8,3:0:0:0:
64,192,187653,128,4,188423:0:0:0:0:
213,192,187653,1,4,1:0:0:0:
320,192,188423,128,0,188884:0:0:0:0:
448,192,188884,128,0,190115:0:0:0:0:
128,192,190269,128,0,191500:0:0:0:0:
298,192,191500,128,0,192730:0:0:0:0:
448,192,192730,128,0,193961:0:0:0:0:
384,192,193961,128,0,195192:0:0:0:0:
42,192,195192,128,0,196423:0:0:0:0:
213,192,196423,128,0,197653:0:0:0:0:
448,192,197653,128,0,200115:0:0:0:0:
298,192,198884,1,0,0:0:0:0:
213,192,199346,1,0,0:0:0:0:
128,192,199807,1,0,0:0:0:0:
42,192,200115,1,2,0:0:0:0:
384,192,200423,1,2,0:0:0:0:
64,192,200730,1,2,0:0:0:0:
384,192,201038,1,2,0:0:0:0:
128,192,201346,1,2,0:0:0:0:
448,192,201653,1,2,0:0:0:0:
128,192,201961,1,2,0:0:0:0:
469,192,202269,1,2,0:0:0:0:
213,192,202576,1,2,0:0:0:0:
384,192,202884,1,2,0:0:0:0:
128,192,203192,1,2,0:0:0:0:
320,192,203500,1,2,0:0:0:0:
42,192,203807,1,2,0:0:0:0:
384,192,204115,1,2,0:0:0:0:
213,192,204423,1,2,0:0:0:0:
298,192,204730,128,2,205038:0:0:0:0:
64,192,205038,1,4,0:0:0:0:
448,192,205038,1,8,0:0:0:0:
128,192,205346,1,2,0:0:0:0:
192,192,205653,1,2,0:0:0:0:
469,192,205961,1,2,0:0:0:0:
384,192,206269,1,10,0:0:0:0:
42,192,206576,1,8,0:0:0:0:
469,192,206884,1,8,0:0:0:0:
213,192,207192,1,8,0:0:0:0:
64,192,207500,128,12,207807:0:0:0:0:
298,192,207807,1,2,0:0:0:0:
469,192,207961,128,8,208269:0:0:0:0:
42,192,208269,1,2,0:0:0:0:
192,192,208423,128,12,208730:0:0:0:0:
469,192,208730,1,2,0:0:0:0:
298,192,208884,128,8,209192:0:0:0:0:
42,192,209192,1,2,0:0:0:0:
128,192,209346,1,8,3:0:0:0:
469,192,209500,128,8,209961:3:0:0:0:
192,192,209961,1,8,0:0:0:0:
384,192,210115,1,8,0:0:0:0:
64,192,210269,1,8,0:0:0:0:
448,192,210423,1,8,0:0:0:0:
128,192,210730,1,8,0:0:0:0:
298,192,211038,1,8,0:0:0:0:
42,192,211346,1,8,0:0:0:0:
384,192,211500,1,8,0:0:0:0:
448,192,211807,128,8,212269:0:0:0:0:
64,192,212269,128,4,213500:1:0:0:0:
320,192,212269,1,4,0:0:0:0:
128,192,213500,128,4,214730:1:0:0:0:
320,192,213500,1,4,0:0:0:0:
213,192,214730,1,4,1:0:0:0:
448,192,214730,128,4,215961:0:0:0:0:
298,192,215961,128,8,217192:3:0:0:0:
64,192,217192,1,4,1:0:0:0:
128,192,217192,1,4,0:0:0:0:
192,192,217653,1,2,0:0:0:0:
448,192,217961,1,2,0:0:0:0:
128,192,218269,1,2,0:0:0:0:
384,192,218423,1,12,0:0:0:0:
192,192,218576,1,2,0:0:0:0:
42,192,218884,1,2,0:0:0:0:
298,192,219192,1,2,0:0:0:0:
128,192,219500,1,2,0:0:0:0:
448,192,219653,1,12,0:0:0:0:
213,192,219961,1,2,0:0:0:0:
384,192,220115,1,8,0:0:0:0:
298,192,220423,1,8,0:0:0:0:
42,192,220730,1,8,0:0:0:0:
384,192,220884,1,4,0:0:0:0:
448,192,220884,128,2,221653:0:0:0:0:
128,192,221653,1,8,0:0:0:0:
320,192,221807,1,8,0:0:0:0:
128,192,221961,1,8,0:0:0:0:
192,192,222576,1,2,1:0:0:0:
384,192,222576,1,4,1:0:0:0:
64,192,222884,1,8,0:0:0:0:
128,192,223192,1,8,0:0:0:0:
192,192,223500,1,8,0:0:0:0:
448,192,223807,1,8,0:0:0:0:
384,192,224115,1,8,0:0:0:0:
298,192,224423,1,8,0:0:0:0:
128,192,224730,1,8,0:0:0:0:
213,192,225038,1,8,0:0:0:0:
469,192,225346,1,8,0:0:0:0:
384,192,225653,1,8,0:0:0:0:
42,192,225807,1,6,0:0:0:0:
128,192,226115,1,2,0:0:0:0:
320,192,226269,1,8,0:0:0:0:
192,192,226576,1,8,0:0:0:0:
448,192,226884,1,2,0:0:0:0:
384,192,227038,1,8,3:0:0:0:
64,192,227192,1,6,0:0:0:0:
128,192,227192,1,4,1:0:0:0:
213,192,227653,1,2,0:0:0:0:
469,192,227807,1,8,0:0:0:0:
384,192,228115,1,2,0:0:0:0:
320,192,228269,1,2,0:0:0:0:
128,192,228576,1,8,0:0:0:0:
298,192,228730,1,2,0:0:0:0:
469,192,229038,1,8,0:0:0:0:
128,192,229192,1,2,0:0:0:0:
64,192,229653,1,4,0:0:0:0:
320,192,229653,1,2,0:0:0:0:
469,192,229961,1,8,0:0:0:0:
213,192,230115,1,2,0:0:0:0:
320,192,230423,1,2,0:0:0:0:
128,192,230730,1,8,0:0:0:0:
384,192,230730,1,4,0:0:0:0:
448,192,231038,1,8,0:0:0:0:
320,192,231192,1,8,0:0:0:0:
64,192,231500,128,8,232115:3:0:0:0:
384,192,232115,1,4,0:0:0:0:
448,192,232115,1,2,0:0:0:0:
128,192,232423,1,8,0:0:0:0:
298,192,232576,1,6,0:0:0:0:
192,192,232884,1,8,0:0:0:0:
128,192,233192,1,2,0:0:0:0:
384,192,233192,1,4,0:0:0:0:
298,192,233500,1,8,0:0:0:0:
213,192,233653,1,8,0:0:0:0:
42,192,233961,1,8,0:0:0:0:
448,192,233961,128,0,234576:0:0:0:0:
213,192,234576,1,4,1:0:0:0:
320,192,234576,1,4,0:0:0:0:
128,192,234884,1,2,0:0:0:0:
192,192,235192,1,2,0:0:0:0:
320,192,235500,1,2,0:0:0:0:
448,192,235807,1,8,0:0:0:0:
42,192,236115,1,8,0:0:0:0:
128,192,236423,1,8,0:0:0:0:
298,192,236730,1,8,0:0:0:0:
469,192,237038,1,8,0:0:0:0:
384,192,237346,1,8,0:0:0:0:
213,192,237653,1,8,0:0:0:0:
128,192,237961,1,8,0:0:0:0:
384,192,238269,1,8,0:0:0:0:
213,192,238576,1,8,0:0:0:0:
64,192,238884,128,8,239500:0:0:0:0:
384,192,239192,1,8,0:0:0:0:
192,192,239500,1,4,1:0:0:0:
298,192,239500,1,4,0:0:0:0:
469,192,239807,1,8,0:0:0:0:
128,192,240115,1,2,0:0:0:0:
384,192,240423,1,8,0:0:0:0:
64,192,240730,1,2,0:0:0:0:
320,192,241038,1,8,0:0:0:0:
128,192,241346,1,2,0:0:0:0:
448,192,241653,1,8,0:0:0:0:
192,192,241961,1,0,0:0:0:0:
384,192,242269,1,8,0:0:0:0:
64,192,242576,1,2,0:0:0:0:
298,192,242884,1,8,0:0:0:0:
128,192,243192,1,2,0:0:0:0:
64,192,243500,1,8,0:0:0:0:
469,192,243500,1,4,0:0:0:0:
298,192,243807,1,2,0:0:0:0:
213,192,244115,1,8,0:0:0:0:
128,192,244423,1,2,0:0:0:0:
384,192,244423,1,4,0:0:0:0:
192,192,244730,1,8,0:0:0:0:
448,192,244884,1,0,0:0:0:0:
320,192,245192,1,2,0:0:0:0:
64,192,245346,1,8,0:0:0:0:
128,192,245653,1,2,0:0:0:0:
384,192,245807,1,2,0:0:0:0:
469,192,246115,1,2,0:0:0:0:
213,192,246269,1,2,0:0:0:0:
213,192,246576,1,8,0:0:0:0:
42,192,246884,1,2,0:0:0:0:
384,192,247192,1,8,0:0:0:0:
213,192,247346,1,0,0:0:0:0:
128,192,247653,1,0,0:0:0:0:
469,192,247807,1,8,0:0:0:0:
298,192,247961,1,0,0:0:0:0:
64,192,248269,1,2,0:0:0:0:
192,192,248423,1,8,0:0:0:0:
320,192,248730,1,2,0:0:0:0:
384,192,249038,128,2,249346:0:0:0:0:
42,192,249346,1,2,0:0:0:0:
128,192,249346,1,4,0:0:0:0:
469,192,249653,1,8,0:0:0:0:
192,192,249807,1,0,0:0:0:0:
384,192,250115,1,2,0:0:0:0:
128,192,250269,1,8,0:0:0:0:
298,192,250576,1,2,0:0:0:0:
42,192,250730,1,2,0:0:0:0:
448,192,251038,1,0,0:0:0:0:
128,192,251192,1,2,0:0:0:0:
128,192,251500,1,8,0:0:0:0:
192,192,251807,1,2,0:0:0:0:
448,192,252115,1,8,0:0:0:0:
384,192,252269,1,2,0:0:0:0:
128,192,252576,1,0,0:0:0:0:
448,192,252730,1,8,0:0:0:0:
298,192,252884,1,6,0:0:0:0:
64,192,253192,1,2,0:0:0:0:
384,192,253346,1,8,0:0:0:0:
192,192,253653,128,8,254269:3:0:0:0:
64,192,254269,1,2,1:0:0:0:
448,192,254269,1,4,1:0:0:0:
42,192,254576,1,8,0:0:0:0:
128,192,254884,1,8,0:0:0:0:
128,192,255192,1,8,0:0:0:0:
384,192,255500,1,8,0:0:0:0:
384,192,255807,1,8,0:0:0:0:
298,192,256115,1,8,0:0:0:0:
298,192,256423,1,12,0:0:0:0:
128,192,256730,1,8,0:0:0:0:
42,192,257038,1,8,0:0:0:0:
298,192,257346,1,8,0:0:0:0:
128,192,257653,1,8,0:0:0:0:
384,192,257961,1,8,0:0:0:0:
213,192,258269,1,8,0:0:0:0:
448,192,258576,128,0,258884:0:0:0:0:
64,192,258884,128,0,259192:0:0:0:0:
192,192,259192,1,8,0:0:0:0:
320,192,259192,1,4,0:0:0:0:
298,192,259500,1,8,0:0:0:0:
384,192,259807,1,8,0:0:0:0:
384,192,260115,1,8,0:0:0:0:
213,192,260423,1,8,0:0:0:0:
213,192,260730,1,8,0:0:0:0:
128,192,261038,1,8,0:0:0:0:
128,192,261346,1,8,0:0:0:0:
64,192,261653,1,8,0:0:0:0:
469,192,261961,1,8,0:0:0:0:
213,192,262269,1,8,3:0:0:0:
384,192,262423,1,8,3:0:0:0:
128,192,262576,1,8,3:0:0:0:
64,192,262730,1,4,0:0:0:0:
448,192,262730,1,8,0:0:0:0:
213,192,263038,128,0,263346:0:0:0:0:
298,192,263346,128,0,263653:0:0:0:0:
64,192,263653,1,0,0:0:0:0:
192,192,263807,1,0,0:0:0:0:
384,192,263961,1,6,0:0:0:0:
448,192,263961,128,4,268269:1:0:0:0:
