osu file format v14

[General]
AudioFilename: audio.mp3
AudioLeadIn: 0
PreviewTime: 66704
Countdown: 0
SampleSet: Soft
StackLeniency: 0.7
Mode: 0
LetterboxInBreaks: 0
EpilepsyWarning: 1
WidescreenStoryboard: 1

[Editor]
DistanceSpacing: 1.5
BeatDivisor: 2
GridSize: 16
TimelineZoom: 1.4

[Metadata]
Title:Thrilling One Way
TitleUnicode:スリリング・ワンウェイ
Artist:Aqours
ArtistUnicode:Aqours
Creator:Bara-
Version:Sensation
Source:ラブライブ!サンシャイン!!
Tags:Love Live Sunshine Blue-Ray 6 BD Kanan Matsuura 松浦果南 Nanaka Suwa 諏訪ななか Mari Ohara 小原鞠莉 Aina Suzuki 鈴木愛奈 Dia Kurosawa 黒澤ダイヤ Komiya Arisa 小宮有紗 Chika Takami 高海千歌 Inami Anju 伊波杏樹 Riko Sakurauchi 桜内梨子 Rikako Aida 逢田梨香子 You Watanabe 渡辺曜 Shuka Saito 斉藤朱夏 Yoshiko Tsushima 津島善子 Aika Kobayashi 小林愛香 Hanamaru Kunikida 国木田花丸 Kanako Takatsuki 高槻かなこ Ruby Kurosawa 黒澤ルビィ Ai Furihata 降幡愛 Akitoshi Cloudchaser _Meep_ Deppyforce Flezlin SnowNiNo_ Sotarks Japanese Idol Anime Rock
BeatmapID:1188965
BeatmapSetID:560716

[Difficulty]
HPDrainRate:7.1
CircleSize:4.5
OverallDifficulty:9.2
ApproachRate:9.5
SliderMultiplier:1.8
SliderTickRate:1

[Events]
//Background and Video events
0,0,"LLSS_S1Ep9_184.png",0,0
//Break Periods
//Storyboard Layer 0 (Background)
//Storyboard Layer 1 (Fail)
//Storyboard Layer 2 (Pass)
//Storyboard Layer 3 (Foreground)
Sprite,Foreground,Centre,"Bara-.png",320,340 S,0,22781,,0.6 C,0,22781,,255,255,255 P,0,22781,,A F,0,22781,22935,0,0.8 MX,0,22781,24011,286 MY,0,22781,24011,300 F,0,23857,24011,0.8,0
//Storyboard Layer 4 (Overlay)
//Storyboard Sound Samples

[TimingPoints]
781,307.692307692308,4,2,1,40,1,0
781,-133.333333333333,4,2,1,40,0,0
5704,-100,4,1,1,70,0,1
14165,-100,4,2,1,60,0,0
25242,-133.333333333333,4,2,1,40,0,0
35242,-100,4,2,1,50,0,0
42627,-83.3333333333333,4,1,1,60,0,0
45088,-200,4,2,1,40,0,0
55242,-100,4,2,1,50,0,0
62319,-71.4285714285714,4,1,1,60,0,0
67088,-83.3333333333333,4,1,1,70,0,1
76857,-83.3333333333333,4,1,1,70,0,0
76934,-83.3333333333333,4,1,1,70,0,1
82011,-83.3333333333333,4,2,1,70,0,0
86934,-71.4285714285714,4,1,1,70,0,1
89396,-100,4,2,1,50,0,0
90627,-85.7142862040816,4,2,1,60,0,0
91857,-75.187969924812,4,2,1,70,0,1
93088,-66.6666666666667,4,2,1,80,0,1
94319,-100,4,2,1,50,0,0
99242,-66.6666666666667,4,1,1,80,0,1
104088,-66.6666666666667,4,1,1,70,0,0
104165,-58.8235294117647,4,1,1,80,0,1
107704,-76.9230769230769,4,1,1,70,0,0
112781,-76.9230769230769,4,1,1,50,0,0
112857,-76.9230769230769,4,1,1,42,0,0
112934,-76.9230769230769,4,1,1,37,0,0
113011,-76.9230769230769,4,1,1,25,0,0
113088,-76.9230769230769,4,1,1,18,0,0
113165,-76.9230769230769,4,1,1,5,0,0

[Colours]
Combo1 : 128,0,255
Combo2 : 255,86,4
Combo3 : 255,128,0
Combo4 : 255,0,0
Combo5 : 255,0,128
Combo6 : 255,0,255

[HitObjects]
141,71,781,6,0,P|144:109|137:156,1,67.5000025749208
141,138,1242,1,0,0:0:0:0:
210,191,1396,2,0,P|244:192|288:181,1,67.5000025749208
276,185,1857,1,0,0:0:0:0:
223,254,2011,6,0,P|222:288|233:332,1,67.5000025749208
276,185,2319,1,8,0:3:0:0:
218,115,2473,1,8,0:3:0:0:
218,115,2550,1,8,0:3:0:0:
218,115,2627,1,8,0:3:0:0:
127,115,2781,1,8,0:3:0:0:
69,185,2934,2,0,P|67:226|73:267,1,67.5000025749208
127,319,3242,6,0,B|197:320|197:320|233:311,1,101.250003862381,12|0,0:3|0:0,0:0:0:0:
273,267,3551,2,0,B|303:259|303:259|373:260,1,101.250003862381,12|0,0:3|0:0,0:0:0:0:
426,311,3857,2,0,P|399:245|433:180,1,135.000005149842,12|12,0:3|0:3,0:0:0:0:
466,102,4319,1,0,0:0:0:0:
466,102,4396,1,0,0:0:0:0:
466,102,4473,2,0,L|429:111,1,33.7500012874604
340,56,4627,6,0,P|354:104|324:189,2,135.000005149842,12|0|0,1:0|0:0|0:0,0:0:0:0:
241,38,5396,1,8,0:0:0:0:
221,54,5472,1,8,0:0:0:0:
202,71,5549,1,8,0:0:0:0:
183,87,5626,1,8,0:0:0:0:
164,104,5704,6,0,P|161:159|166:206,1,90,12|2,0:0|2:0,0:0:0:0:
256,250,6011,1,8,0:0:0:0:
347,104,6165,6,0,P|351:159|346:206,1,90,2|8,2:0|0:0,0:0:0:0:
256,280,6473,1,2,2:0:0:0:
144,78,6627,6,0,P|101:74|39:82,1,90,8|2,0:0|2:0,0:0:0:0:
256,192,6934,1,8,0:0:0:0:
54,305,7088,6,0,P|99:309|144:306,1,90,2|8,2:0|0:0,0:0:0:0:
347,192,7396,1,2,2:0:0:0:
190,111,7550,6,0,L|64:135,1,90,8|2,0:0|2:0,0:0:0:0:
322,273,7857,2,0,L|448:249,1,90,8|2,0:0|2:0,0:0:0:0:
22,78,8165,6,0,P|12:143|118:218,1,180,12|8,0:0|0:0,0:0:0:0:
410,127,8627,6,0,L|322:111,1,90,2|8,2:0|0:0,0:0:0:0:
211,219,8934,1,2,2:0:0:0:
409,49,9088,1,8,0:0:0:0:
191,286,9242,6,0,B|140:299|108:293|108:293|116:302|116:302|71:292|23:302,1,180,12|0,0:0|0:0,0:0:0:0:
20,174,9704,1,8,0:0:0:0:
112,51,9857,1,0,1:0:0:0:
301,36,10011,2,8,L|325:79,1,45,8|0,0:0|0:0,0:0:0:0:
227,151,10165,2,8,L|251:108,1,45
305,252,10319,1,8,0:0:0:0:
342,275,10395,1,8,0:0:0:0:
387,280,10472,1,8,0:0:0:0:
428,265,10549,1,8,0:0:0:0:
459,233,10627,5,12,0:0:0:0:
421,355,10780,1,2,2:0:0:0:
411,83,10934,1,8,0:0:0:0:
267,325,11088,6,0,P|215:334|154:326,1,90,2|8,2:0|0:0,0:0:0:0:
16,125,11396,1,2,2:0:0:0:
244,237,11550,6,0,L|267:325,1,90,8|2,0:0|2:0,0:0:0:0:
16,125,11857,1,8,0:0:0:0:
267,59,12011,6,0,P|215:50|154:58,1,90,2|8,2:0|0:0,0:0:0:0:
31,257,12319,1,0,0:0:0:0:
31,257,12396,1,0,0:0:0:0:
31,257,12473,6,8,L|34:311,1,45
105,180,12627,2,0,L|108:234,1,45
142,93,12780,2,0,P|201:88|248:95,1,90,8|0,0:0|0:0,0:0:0:0:
408,193,13088,6,0,L|424:382,1,180,8|8,0:0|0:0,0:0:0:0:
320,167,13550,6,0,P|348:125|400:106,1,90,0|8,0:0|0:0,0:0:0:0:
382,108,13780,1,8,0:0:0:0:
382,108,13857,1,8,0:0:0:0:
172,356,14011,6,0,L|158:297,1,45,8|0,0:0|0:0,0:0:0:0:
180,67,14165,1,8,0:0:0:0:
180,67,14934,6,0,L|172:117,1,45,8|0,0:0|0:0,0:0:0:0:
105,175,15088,2,0,L|113:220,1,45,8|0,0:0|0:0,0:0:0:0:
179,283,15242,2,0,L|172:328,1,45,8|0,0:0|0:0,0:0:0:0:
277,171,15396,6,0,B|254:161|254:161|199:186|199:186|162:189|105:175,1,180,4|0,0:0|0:0,0:0:0:0:
351,124,15857,2,0,P|361:191|277:259,1,180,8|0,0:0|0:0,0:0:0:0:
153,116,16319,1,0,0:0:0:0:
365,263,16473,1,8,0:0:0:0:
131,373,16627,6,0,B|145:230|145:230|120:182,1,180,4|0,0:0|0:0,0:0:0:0:
128,197,17011,1,0,0:0:0:0:
128,197,17088,2,0,P|178:194|238:171,1,90,8|0,0:0|0:0,0:0:0:0:
325,80,17396,1,0,0:0:0:0:
431,202,17550,1,0,0:0:0:0:
354,18,17704,1,8,0:0:0:0:
402,264,17857,6,0,P|334:329|237:307,1,180,4|0,0:0|0:0,0:0:0:0:
206,156,18319,1,8,0:0:0:0:
306,228,18473,1,0,0:0:0:0:
87,189,18628,2,0,P|43:195|5:217,2,90,0|0|8,0:0|0:0|0:0,0:0:0:0:
8,320,19088,6,0,L|4:108,1,180,4|0,0:0|0:0,0:0:0:0:
137,28,19550,1,8,0:0:0:0:
88,190,19704,1,0,0:0:0:0:
216,67,19857,2,8,L|273:56,1,45
323,134,20011,2,8,L|266:123,1,45
207,192,20165,1,8,0:0:0:0:
202,236,20241,1,8,0:0:0:0:
198,281,20319,6,0,L|398:286,1,180,12|0,0:0|0:0,0:0:0:0:
458,113,20781,1,8,0:0:0:0:
195,369,20934,6,0,P|142:349|129:229,1,180,4|0,0:0|0:0,0:0:0:0:
283,60,21396,1,8,0:0:0:0:
421,361,21550,6,0,L|454:169,1,180,4|0,0:0|0:0,0:0:0:0:
451,183,21934,1,0,0:0:0:0:
451,183,22011,1,8,0:0:0:0:
195,369,22165,6,0,P|142:349|131:228,1,180,4|0,0:0|0:0,0:0:0:0:
283,60,22627,1,8,0:0:0:0:
365,313,22781,5,4,0:0:0:0:
365,313,23088,1,8,0:0:0:0:
68,233,23242,1,8,0:0:0:0:
224,192,23397,1,8,0:0:0:0:
36,307,23550,1,8,0:0:0:0:
192,118,23704,1,8,0:0:0:0:
4,381,23857,1,8,0:0:0:0:
160,44,24012,5,12,0:0:0:0:
160,44,24319,5,0,0:0:0:0:
189,77,24472,1,0,0:0:0:0:
229,97,24626,1,0,0:0:0:0:
273,101,24780,1,0,0:0:0:0:
316,87,24934,1,0,0:0:0:0:
350,58,25088,1,0,0:0:0:0:
371,19,25242,69,12,0:0:0:0:
433,121,25704,1,2,0:0:0:0:
433,121,26319,1,2,0:0:0:0:
433,121,26934,1,2,0:0:0:0:
398,188,27396,1,8,0:0:0:0:
454,286,27551,1,10,0:0:0:0:
433,121,27704,2,8,L|435:73,1,33.7500012874604
238,35,27857,5,12,0:0:0:0:
238,35,28165,1,12,0:0:0:0:
238,35,28780,1,8,0:0:0:0:
189,92,28934,1,8,0:3:0:0:
189,92,29011,1,8,0:3:0:0:
189,92,29088,2,8,P|132:99|67:52,1,135.000005149842,8|2,0:3|0:0,0:3:0:0:
27,5,29550,2,8,L|49:145,1,135.000005149842,8|8,0:3|0:3,0:3:0:0:
0,267,30011,2,8,L|10:200,1,67.5000025749208,2|8,0:0|0:3,0:3:0:0:
70,57,30319,69,8,0:3:0:0:
236,117,30627,1,8,0:3:0:0:
70,57,30934,1,8,0:3:0:0:
236,117,31242,1,8,0:3:0:0:
70,57,31550,2,0,P|56:111|74:197,1,135.000005149842,8|8,0:3|0:3,0:0:0:0:
117,240,32011,1,0,0:0:0:0:
185,258,32165,2,0,L|260:266,1,67.5000025749208,8|0,0:3|0:0,0:0:0:0:
302,184,32474,2,0,L|234:191,1,67.5000025749208,8|0,0:3|0:0,0:0:0:0:
142,325,32781,5,8,0:0:0:0:
323,97,32934,1,12,0:0:0:0:
323,97,33242,69,8,0:0:0:0:
71,316,33396,1,12,0:0:0:0:
71,316,33704,5,8,0:0:0:0:
394,106,33857,1,12,0:0:0:0:
394,106,34165,69,8,0:0:0:0:
0,307,34319,1,12,0:0:0:0:
0,307,34627,5,12,0:0:0:0:
465,115,34781,1,12,0:0:0:0:
465,115,35242,6,0,B|404:134|404:134|280:114,1,180,4|8,0:0|0:0,0:0:0:0:
165,38,35704,1,0,0:0:0:0:
303,16,35857,1,0,0:0:0:0:
154,155,36011,2,0,P|144:198|144:243,1,90,0|8,0:0|0:0,0:0:0:0:
256,343,36319,1,0,0:0:0:0:
235,153,36473,6,0,L|46:89,1,180,0|8,0:0|0:0,0:0:0:0:
305,36,36934,1,0,0:0:0:0:
305,36,37011,1,0,0:0:0:0:
305,36,37088,2,8,L|298:89,1,45
193,251,37242,2,0,P|234:231|278:232,1,90,0|8,0:0|0:0,0:0:0:0:
407,325,37550,1,0,0:0:0:0:
168,326,37704,70,0,P|137:305|117:248,1,90,4|0,0:0|0:0,0:0:0:0:
57,72,38011,2,0,L|230:154,1,180,8|8,0:0|0:0,0:0:0:0:
219,149,38396,1,8,0:0:0:0:
219,149,38473,2,0,L|216:203,1,45
170,282,38627,1,8,0:0:0:0:
337,172,38781,1,0,0:0:0:0:
218,341,38934,6,0,B|162:369|124:339|124:339|92:335|37:352,1,180,0|8,0:0|0:0,0:0:0:0:
22,219,39396,1,0,0:0:0:0:
192,80,39550,1,8,0:0:0:0:
192,80,39627,1,8,0:0:0:0:
192,80,39704,2,0,L|191:133,1,45
132,218,39857,1,8,0:0:0:0:
293,99,40011,1,8,0:0:0:0:
293,99,40088,1,8,0:0:0:0:
293,99,40165,70,0,L|393:108,1,90,12|0,0:0|0:0,0:0:0:0:
447,266,40473,2,0,P|384:278|325:188,1,180,8|8,0:0|0:0,0:0:0:0:
324,192,40857,1,8,0:0:0:0:
324,192,40934,1,8,0:0:0:0:
447,266,41088,2,0,B|455:315|455:315|446:364,1,90,8|0,0:0|0:0,0:0:0:0:
271,323,41396,5,0,0:0:0:0:
402,199,41549,1,0,0:0:0:0:
271,323,41704,1,8,0:0:0:0:
402,199,41857,2,0,P|414:146|416:94,1,90,0|8,0:0|0:0,0:0:0:0:
416,110,42088,1,8,0:0:0:0:
416,110,42165,1,8,0:0:0:0:
290,32,42319,2,0,L|190:32,1,90,8|0,0:0|0:0,0:0:0:0:
127,99,42627,70,0,B|103:167|103:167|149:222|149:222|127:291,1,215.999993408203,12|0,0:0|2:0,0:0:0:0:
27,324,43088,2,0,P|128:290|229:324,1,215.999993408203,12|0,0:0|2:0,0:0:0:0:
328,378,43550,2,0,B|346:321|335:279|335:279|346:290|346:290|330:235|349:177,1,215.999993408203,12|0,0:0|2:0,0:0:0:0:
394,89,44011,2,0,B|229:68|229:68|173:80,1,215.999993408203,12|0,0:0|2:0,0:0:0:0:
126,132,44396,1,8,0:0:0:0:
126,132,44473,2,0,L|118:190,1,53.9999983520508,8|0,0:0|2:0,0:0:0:0:
190,268,44627,2,0,L|182:210,1,53.9999983520508,8|0,0:0|2:0,0:0:0:0:
122,330,44781,2,0,P|184:304|294:335,1,161.999995056153,8|0,0:0|2:0,0:0:0:0:
323,370,45088,22,0,L|318:221,1,135,4|8,0:0|0:3,0:0:0:0:
317,165,45704,2,0,P|322:127|348:79,1,90,8|0,0:0|0:0,0:0:0:0:
399,38,46165,1,8,0:3:0:0:
297,16,46319,2,0,P|221:20|163:47,1,135
129,101,46934,2,0,B|121:146|121:146|127:202,1,90,8|0,0:0|0:0,0:0:0:0:
155,255,47396,1,8,0:3:0:0:
155,255,47473,1,8,0:3:0:0:
155,255,47550,6,0,B|242:271|213:234|301:250,1,135,12|0,0:3|0:0,0:0:0:0:
320,311,48165,2,0,P|351:280|358:236,1,90,8|0,0:0|0:0,0:0:0:0:
336,170,48627,2,0,P|342:126|374:95,1,90,0|8,0:0|0:3,0:0:0:0:
374,95,49011,1,8,0:3:0:0:
374,95,49088,1,8,0:3:0:0:
407,161,49242,1,0,0:3:0:0:
378,231,49396,1,8,0:3:0:0:
303,251,49550,1,0,0:3:0:0:
242,205,49704,1,8,0:3:0:0:
239,129,49858,1,8,0:3:0:0:
297,79,50011,70,0,L|121:87,1,135,12|8,0:0|0:3,0:0:0:0:
101,119,50627,2,0,P|88:160|95:211,1,90,8|0,0:0|0:0,0:0:0:0:
141,256,51088,1,8,0:3:0:0:
211,271,51242,2,0,L|269:269,1,45,0|8,0:0|0:0,0:0:0:0:
302,196,51551,2,0,L|257:194,1,45,0|8,0:0|0:3,0:0:0:0:
348,138,51857,2,0,P|340:198|388:253,1,135,8|0,0:0|0:0,0:0:0:0:
385,251,52396,1,0,0:0:0:0:
385,251,52473,5,0,0:0:0:0:
423,125,52627,2,0,P|402:86|354:62,1,90,8|0,0:3|0:0,0:0:0:0:
277,63,53088,2,0,B|230:73|230:73|181:68,1,90,8|8,0:3|0:0,0:0:0:0:
116,33,53550,1,8,0:3:0:0:
58,108,53704,70,8,L|55:201,1,90
79,284,54165,1,8,0:0:0:0:
79,284,54242,1,8,0:0:0:0:
79,284,54319,2,8,L|136:296,1,45
199,216,54627,2,8,L|142:228,1,45
154,225,55242,6,0,P|166:147|108:54,1,180,12|0,0:0|0:0,0:0:0:0:
39,166,55704,1,8,0:3:0:0:
191,297,55857,2,0,L|294:305,1,90,8|8,0:0|0:3,0:0:0:0:
384,170,56165,70,0,B|371:262|371:262|403:367,1,180,0|8,0:0|0:0,0:0:0:0:
286,238,56627,2,0,B|298:148,1,90,8|0,0:3|0:0,0:0:0:0:
445,57,56934,1,8,0:3:0:0:
293,34,57088,2,0,P|244:38|201:51,1,90,8|0,0:0|0:0,0:0:0:0:
47,152,57396,6,0,B|48:215|48:215|110:321,1,180,0|8,0:0|0:0,0:0:0:0:
243,336,57857,1,8,0:3:0:0:
330,229,58012,2,0,L|347:328,1,90,0|0,0:0|0:3,0:0:0:0:
257,137,58320,2,0,L|240:236,1,90,8|8,0:0|0:3,0:0:0:0:
348,83,58627,70,0,P|252:113|148:80,1,180,0|8,0:0|0:0,0:0:0:0:
77,23,59088,1,8,0:0:0:0:
77,23,59165,1,8,0:0:0:0:
77,23,59242,1,8,0:0:0:0:
82,173,59396,1,8,0:3:0:0:
226,23,59550,2,8,P|288:13|320:19,1,90
386,62,59857,5,12,0:0:0:0:
386,62,60011,1,0,0:0:0:0:
227,150,60165,1,8,0:0:0:0:
227,150,60319,1,0,0:0:0:0:
409,172,60473,1,8,0:0:0:0:
409,172,60627,1,0,0:0:0:0:
275,49,60781,1,8,0:0:0:0:
275,49,60934,2,8,L|280:101,1,45,8|8,0:3|0:3,0:3:0:0:
310,227,61088,69,12,0:0:0:0:
132,225,61242,1,0,0:0:0:0:
409,172,61396,5,8,0:0:0:0:
231,170,61550,1,0,0:0:0:0:
466,251,61705,69,12,0:0:0:0:
464,73,61858,1,0,0:0:0:0:
411,350,62012,5,8,0:0:0:0:
409,172,62165,1,8,0:3:0:0:
409,172,62241,1,8,0:3:0:0:
409,172,62319,70,0,B|353:108|353:108|173:98,1,251.999992309571,12|0,0:0|2:0,0:0:0:0:
121,189,62781,2,0,P|197:276|298:217,1,251.999992309571,12|0,0:0|2:0,0:0:0:0:
121,189,63242,2,0,B|65:377|65:377|44:297,1,251.999992309571,12|0,0:0|2:0,0:0:0:0:
39,158,63705,2,0,P|92:107|210:202,1,251.999992309571,12|0,0:0|2:0,0:0:0:0:
173,316,64165,5,12,0:0:0:0:
256,30,64319,1,12,0:0:0:0:
256,30,64781,69,8,0:0:0:0:
353,119,64934,1,8,0:0:0:0:
256,30,65088,1,8,0:0:0:0:
427,73,65242,2,0,P|436:151|396:198,1,125.999996154785,8|0,0:0|2:0,0:0:0:0:
173,316,65551,2,0,P|164:238|204:191,1,125.999996154785,8|0,0:0|2:0,0:0:0:0:
487,254,65857,2,0,B|442:286|442:286|246:269,1,251.999992309571,8|8,0:0|0:0,0:0:0:0:
145,122,66319,1,8,0:0:0:0:
145,122,66781,6,8,L|121:200,1,62.9999980773926,8|8,3:3|3:3,3:3:0:0:
173,316,66934,1,8,3:3:0:0:
66,73,67088,6,0,P|148:91|288:57,1,215.999993408203,4|0,0:2|2:2,0:2:0:0:
455,100,67550,2,0,P|389:88|331:113,1,107.999996704102,8|0,0:2|0:2,0:2:0:0:
214,217,67857,1,0,0:2:0:0:
352,100,68011,1,0,0:2:0:0:
214,217,68165,1,8,0:2:0:0:
352,100,68319,6,0,B|215:76|215:76|124:104,1,215.999993408203,4|0,0:2|2:2,0:2:0:0:
53,218,68781,2,0,P|41:284|66:342,1,107.999996704102,8|0,0:2|0:2,0:2:0:0:
242,380,69088,1,0,0:2:0:0:
142,271,69242,1,0,0:2:0:0:
242,162,69396,1,8,0:2:0:0:
142,53,69550,6,0,L|372:85,1,215.999993408203,4|0,0:2|2:2,0:2:0:0:
386,255,70011,2,0,P|284:255|242:162,1,215.999993408203,8|0,0:2|0:2,0:2:0:0:
346,2,70473,1,0,0:2:0:0:
335,175,70627,1,8,0:2:0:0:
416,34,70781,6,0,B|346:2|346:2|206:30,1,215.999993408203,4|0,0:2|2:2,0:2:0:0:
98,198,71242,1,8,0:2:0:0:
215,109,71396,1,0,2:2:0:0:
215,109,71473,1,0,2:2:0:0:
215,109,71550,1,8,0:2:0:0:
121,352,71704,2,8,L|131:296,1,53.9999983520508,8|8,2:2|2:2,2:2:0:0:
215,109,71857,2,0,L|225:165,1,53.9999983520508,8|0,2:2|2:2,0:2:0:0:
264,348,72011,6,0,P|294:264|424:241,1,215.999993408203,4|0,0:2|2:2,0:2:0:0:
479,350,72473,2,0,L|372:338,1,107.999996704102,8|0,0:0|0:0,0:0:0:0:
306,173,72781,1,0,0:0:0:0:
406,33,72934,1,0,0:0:0:0:
306,173,73088,1,8,0:0:0:0:
406,33,73242,6,4,B|251:69|251:69|183:47,1,215.999993408203,4|0,0:2|2:2,0:2:0:0:
52,166,73704,2,0,L|43:46,1,107.999996704102,8|0,0:2|0:2,0:2:0:0:
33,237,74011,1,0,0:2:0:0:
192,169,74165,1,0,0:2:0:0:
14,304,74319,1,8,0:2:0:0:
204,145,74473,6,0,B|363:112|363:112|321:154,1,215.999993408203,4|0,0:2|2:2,0:2:0:0:
236,260,74934,1,8,0:2:0:0:
236,260,75088,1,0,0:2:0:0:
254,23,75242,1,8,0:2:0:0:
254,23,75396,1,0,0:2:0:0:
317,284,75550,2,8,L|306:345,1,53.9999983520508,8|8,0:2|2:2,0:2:0:0:
106,283,75704,6,0,B|235:259|235:259|317:284,1,215.999993408203,12|8,0:2|2:0,0:0:0:0:
334,294,76088,1,8,2:2:0:0:
346,309,76165,2,8,L|343:372,1,53.9999983520508,8|0,2:2|2:2,2:2:0:0:
429,240,76319,2,8,L|432:303,1,53.9999983520508,8|0,2:2|2:2,2:2:0:0:
353,179,76473,1,8,2:2:0:0:
376,130,76550,1,8,2:2:0:0:
429,118,76626,1,8,2:2:0:0:
471,152,76703,1,8,2:2:0:0:
471,206,76780,1,8,2:2:0:0:
429,240,76857,1,8,2:2:0:0:
376,228,76934,6,0,P|252:216|144:223,1,215.999993408203,12|0,0:0|2:0,0:0:0:0:
46,140,77396,2,0,P|45:78|77:30,1,107.999996704102,8|0,0:0|0:0,0:0:0:0:
291,30,77704,1,0,0:0:0:0:
142,108,77858,1,0,0:0:0:0:
142,108,78011,1,8,0:0:0:0:
291,30,78165,6,0,B|460:52|460:52|492:104,1,215.999993408203,4|0,0:0|2:0,0:0:0:0:
382,209,78627,2,0,P|344:157|344:89,1,107.999996704102,8|0,0:0|0:0,0:0:0:0:
484,178,78934,1,0,0:0:0:0:
263,252,79088,1,0,0:0:0:0:
484,178,79242,1,8,0:0:0:0:
263,252,79396,6,0,B|130:286|185:221|51:257,1,215.999993408203,4|8,0:0|2:0,0:0:0:0:
51,256,79781,1,8,2:0:0:0:
51,256,79857,2,0,B|37:315|37:315|41:375,1,107.999996704102,8|0,0:0|0:0,0:0:0:0:
208,336,80165,1,0,0:0:0:0:
88,156,80319,1,0,0:0:0:0:
208,336,80473,1,8,0:0:0:0:
88,156,80627,6,0,P|80:73|196:23,1,215.999993408203,4|8,0:0|2:0,0:0:0:0:
185,19,81011,1,8,2:2:0:0:
185,19,81088,2,8,L|202:76,1,53.9999983520508,8|0,2:0|2:0,2:0:0:0:
235,197,81242,2,8,L|251:140,1,53.9999983520508,8|0,2:0|2:0,2:0:0:0:
388,91,81396,2,8,L|371:147,1,53.9999983520508,8|0,2:0|2:0,2:0:0:0:
338,268,81550,2,8,L|321:211,1,53.9999983520508,8|0,2:0|2:0,2:0:0:0:
290,19,81704,2,8,L|273:75,1,53.9999983520508,8|0,2:0|2:0,2:0:0:0:
137,229,81857,2,8,L|153:285,1,53.9999983520508,8|0,2:0|2:0,2:0:0:0:
312,354,82011,6,0,P|367:352|411:319,1,107.999996704102,12|0,0:1|0:0,0:0:0:0:
235,197,82320,2,0,P|181:199|136:228,1,107.999996704102,8|0,0:3|0:0,0:0:0:0:
338,268,82626,2,0,L|349:52,1,215.999993408203,8|0,0:0|0:0,0:0:0:0:
417,14,83089,2,8,B|350:52|350:52|189:35,1,215.999993408203,8|8,0:3|0:3,0:0:0:0:
129,80,83550,2,0,P|116:141|128:196,1,107.999996704102,8|0,0:0|0:0,0:0:0:0:
194,276,83857,1,8,0:0:0:0:
194,276,84165,1,8,0:0:0:0:
194,276,84473,6,0,B|248:260|248:260|296:276|296:276|348:260,1,161.999995056153,12|0,0:0|0:0,0:0:0:0:
348,259,84781,1,12,0:0:0:0:
170,349,84934,2,0,P|126:308|150:214,1,161.999995056153,12|0,0:0|0:0,0:0:0:0:
123,84,85242,2,0,P|167:125|143:219,1,161.999995056153,12|0,0:0|0:0,0:0:0:0:
45,89,85550,2,0,L|238:38,1,161.999995056153,12|0,0:0|0:0,0:0:0:0:
222,35,85857,5,8,0:0:0:0:
52,244,86011,1,8,0:0:0:0:
301,54,86165,1,8,0:0:0:0:
59,352,86319,5,8,0:3:0:0:
118,310,86422,1,8,0:3:0:0:
177,269,86525,1,8,0:3:0:0:
270,333,86627,5,8,0:3:0:0:
329,291,86730,1,8,0:3:0:0:
388,250,86833,1,8,0:3:0:0:
509,291,86934,70,0,L|482:50,1,188.999994232178,4|0,0:0|2:0,0:0:0:0:
465,31,87242,1,4,0:0:0:0:
329,291,87396,2,0,P|312:220|285:157,1,125.999996154785,12|0,0:0|2:0,0:0:0:0:
131,8,87705,2,0,P|148:79|175:142,1,125.999996154785,12|0,0:0|2:0,0:0:0:0:
419,352,88011,2,8,B|260:300|330:377|170:335,1,251.999992309571,12|12,0:0|0:0,0:0:0:0:
19,177,88473,1,12,0:0:0:0:
329,291,88628,1,0,0:0:0:0:
9,26,88781,5,12,0:0:0:0:
9,26,89396,54,0,L|22:134,1,90,12|2,1:1|0:0,0:0:0:0:
138,242,89704,1,8,1:2:0:0:
280,59,89857,6,0,L|267:167,1,90,2|8,0:0|1:2,0:0:0:0:
138,242,90165,1,2,0:0:0:0:
280,59,90319,70,0,P|341:52|386:56,1,90,8|2,1:2|0:0,0:0:0:0:
465,227,90627,5,12,1:1:0:0:
279,59,90781,1,10,1:2:0:0:
279,59,90934,1,12,1:2:0:0:
202,297,91088,5,10,1:2:0:0:
389,215,91242,1,12,1:1:0:0:
389,215,91395,1,10,1:2:0:0:
142,121,91550,5,12,1:2:0:0:
142,121,91704,1,10,1:2:0:0:
389,215,91857,69,12,1:1:0:0:
256,59,92011,1,14,1:2:0:0:
188,253,92165,1,12,1:2:0:0:
396,74,92319,5,14,1:2:0:0:
142,121,92473,1,12,1:1:0:0:
311,318,92627,1,14,1:2:0:0:
256,59,92781,69,12,1:1:0:0:
311,318,92934,2,8,L|291:244,1,59.8499975342561,14|8,1:2|0:0,0:0:0:0:
121,50,93088,5,12,1:1:0:0:
389,215,93242,1,14,1:2:0:0:
29,228,93396,69,12,1:1:0:0:
411,80,93550,1,14,1:2:0:0:
181,315,93704,6,12,L|337:315,1,135.000005149842,12|14,0:1|1:2,0:0:0:0:
378,264,93934,1,8,0:0:0:0:
386,246,94011,2,8,L|399:320,1,67.5000025749208,12|8,1:1|0:0,0:0:0:0:
314,121,94165,2,8,L|301:195,1,67.5000025749208,12|8,1:1|0:0,0:0:0:0:
411,80,94319,70,0,P|315:96|221:71,1,180,12|8,1:1|0:0,0:0:0:0:
116,44,94781,70,0,P|57:39|16:44,1,90,2|0,0:0|0:0,0:0:0:0:
0,256,95088,1,2,0:0:0:0:
174,111,95242,6,0,P|196:61|192:9,1,90,8|2,0:0|0:0,0:0:0:0:
0,256,95550,1,0,0:0:0:0:
195,328,95704,70,0,L|303:328,1,90,2|8,0:0|0:0,0:0:0:0:
0,256,96011,1,2,0:0:0:0:
305,105,96165,5,8,0:0:0:0:
273,97,96241,1,8,0:0:0:0:
239,96,96318,1,10,0:0:0:0:
206,100,96395,1,8,0:0:0:0:
173,111,96473,2,8,P|174:177|177:218,1,90,8|2,0:0|0:0,0:0:0:0:
201,353,96781,70,0,P|256:319|356:325,1,135,4|0,0:0|0:0,0:0:0:0:
348,324,97088,1,8,0:0:0:0:
173,111,97242,6,0,P|173:54|200:2,1,90,2|0,0:0|0:0,0:0:0:0:
326,182,97550,1,10,0:0:0:0:
72,112,97704,1,8,0:0:0:0:
326,182,97857,70,0,P|385:172|451:57,1,180,6|2,0:0|0:0,0:0:0:0:
187,17,98319,1,8,0:0:0:0:
336,66,98473,5,10,0:0:0:0:
336,66,98550,1,8,0:0:0:0:
336,66,98627,1,8,0:0:0:0:
72,112,98781,69,10,0:0:0:0:
39,158,98857,1,8,0:0:0:0:
34,215,98934,1,8,0:0:0:0:
57,268,99011,1,8,0:0:0:0:
102,301,99088,1,8,0:0:0:0:
159,310,99165,1,8,0:0:0:0:
213,290,99242,70,0,P|299:284|385:287,1,135.000005149842,12|2,0:0|2:0,0:0:0:0:
510,382,99550,1,12,0:0:0:0:
280,189,99704,6,0,P|268:104|287:34,1,135.000005149842,2|12,2:0|0:0,0:0:0:0:
474,5,100011,1,2,2:0:0:0:
281,189,100165,6,0,L|16:210,1,202.500007724762,12|0,0:0|2:0,0:0:0:0:
15,160,100473,1,12,0:0:0:0:
348,281,100627,54,0,L|213:291,1,135.000005149842,2|12,2:0|0:0,0:0:0:0:
79,204,100934,1,2,2:0:0:0:
406,342,101088,5,12,0:0:0:0:
493,111,101242,1,2,2:0:0:0:
106,342,101396,5,12,0:0:0:0:
19,111,101550,1,2,2:0:0:0:
225,310,101704,53,12,0:0:0:0:
142,142,101857,1,2,2:0:0:0:
328,154,102011,1,12,0:0:0:0:
225,310,102165,6,0,L|231:167,1,135.000005149842,2|12,2:0|0:0,0:0:0:0:
133,26,102473,1,2,2:0:0:0:
328,154,102627,1,12,0:0:0:0:
119,258,102781,6,0,B|42:294|42:294|226:310,1,270.000010299683,6|2,0:0|0:0,0:0:0:0:
228,33,103242,53,8,0:0:0:0:
358,219,103396,2,8,P|367:251|363:289,1,67.5000025749208,10|8,0:0|0:0,0:0:0:0:
164,72,103550,5,8,0:0:0:0:
164,72,103704,2,8,P|155:40|159:2,1,67.5000025749208,10|8,0:0|0:0,0:0:0:0:
283,104,103857,5,8,0:0:0:0:
217,118,103933,1,8,0:0:0:0:
151,133,104011,1,10,0:0:0:0:
85,148,104087,1,8,0:0:0:0:
19,163,104165,54,8,L|25:339,1,153.000002918243,12|2,0:1|2:0,0:1:0:0:
350,279,104473,1,12,0:1:0:0:
151,133,104627,6,0,P|145:51|176:-11,1,153.000002918243,2|12,2:0|0:0,0:1:0:0:
162,279,104935,1,2,2:0:0:0:
360,133,105088,6,0,P|367:51|336:-11,1,153.000002918243,12|2,0:1|2:0,0:1:0:0:
108,57,105396,1,12,0:1:0:0:
350,279,105550,54,0,B|425:291|425:291|503:255,1,153.000002918243,2|12,2:0|0:1,0:1:0:0:
404,57,105857,1,2,2:0:0:0:
162,279,106011,5,12,0:1:0:0:
108,57,106165,1,2,2:0:0:0:
350,279,106319,5,12,0:1:0:0:
404,57,106473,1,2,2:0:0:0:
429,306,106627,53,12,0:1:0:0:
302,32,106781,1,10,2:0:0:0:
256,370,106934,1,12,0:1:0:0:
404,57,107088,6,8,L|422:144,1,76.5000014591217,10|8,2:0|0:1,0:1:0:0:
397,228,107242,1,12,0:1:0:0:
350,279,107318,1,8,0:1:0:0:
280,294,107395,1,10,2:0:0:0:
220,265,107472,1,8,0:1:0:0:
157,235,107551,1,12,0:1:0:0:
87,249,107628,1,8,0:1:0:0:
41,301,107704,5,14,0:1:0:0:
41,301,108934,5,4,0:0:0:0:
256,192,109088,12,0,113165,2:0:0:0:
