osu file format v14

[General]
AudioFilename: audio.mp3
AudioLeadIn: 0
PreviewTime: 66704
Countdown: 0
SampleSet: Soft
StackLeniency: 0.7
Mode: 0
LetterboxInBreaks: 0
EpilepsyWarning: 1
WidescreenStoryboard: 1

[Editor]
DistanceSpacing: 1
BeatDivisor: 4
GridSize: 16
TimelineZoom: 1.4

[Metadata]
Title:Thrilling One Way
TitleUnicode:スリリング・ワンウェイ
Artist:Aqours
ArtistUnicode:Aqours
Creator:Bara-
Version:Expert
Source:ラブライブ!サンシャイン!!
Tags:Love Live Sunshine Blue-Ray 6 BD Kanan Matsuura 松浦果南 Nanaka Suwa 諏訪ななか Mari Ohara 小原鞠莉 Aina Suzuki 鈴木愛奈 Dia Kurosawa 黒澤ダイヤ Komiya Arisa 小宮有紗 Chika Takami 高海千歌 Inami Anju 伊波杏樹 Riko Sakurauchi 桜内梨子 Rikako Aida 逢田梨香子 You Watanabe 渡辺曜 Shuka Saito 斉藤朱夏 Yoshiko Tsushima 津島善子 Aika Kobayashi 小林愛香 Hanamaru Kunikida 国木田花丸 Kanako Takatsuki 高槻かなこ Ruby Kurosawa 黒澤ルビィ Ai Furihata 降幡愛 Akitoshi Cloudchaser _Meep_ Deppyforce Flezlin SnowNiNo_ Sotarks Japanese Idol Anime Rock
BeatmapID:1195097
BeatmapSetID:560716

[Difficulty]
HPDrainRate:6
CircleSize:4.1
OverallDifficulty:7.8
ApproachRate:8.6
SliderMultiplier:1.6
SliderTickRate:1

[Events]
//Background and Video events
0,0,"LLSS_S1Ep9_184.png",0,0
//Break Periods
//Storyboard Layer 0 (Background)
//Storyboard Layer 1 (Fail)
//Storyboard Layer 2 (Pass)
//Storyboard Layer 3 (Foreground)
Sprite,Foreground,Centre,"Bara-.png",320,340 S,0,22781,,0.6 C,0,22781,,255,255,255 P,0,22781,,A F,0,22781,22935,0,0.8 MX,0,22781,24011,286 MY,0,22781,24011,300 F,0,23857,24011,0.8,0
//Storyboard Layer 4 (Overlay)
//Storyboard Sound Samples

[TimingPoints]
781,307.692307692308,4,2,1,40,1,0
781,-133.333333333333,4,2,1,40,0,0
5704,-100,4,1,1,70,0,1
14165,-100,4,2,1,60,0,0
25242,-133.333333333333,4,2,1,40,0,0
35242,-100,4,2,1,60,0,0
42627,-83.3333333333333,4,1,1,70,0,0
45088,-200,4,2,1,40,0,0
55242,-100,4,2,1,60,0,0
62319,-71.4285714285714,4,1,1,70,0,0
67088,-83.3333333333333,4,1,1,80,0,1
76857,-83.3333333333333,4,1,1,80,0,0
76934,-83.3333333333333,4,1,1,70,0,1
82011,-83.3333333333333,4,2,1,80,0,0
86934,-71.4285714285714,4,1,1,80,0,1
89396,-100,4,2,1,50,0,0
90627,-85.7142862040816,4,2,1,60,0,0
91857,-75.187969924812,4,2,1,70,0,1
93088,-66.6666666666667,4,2,1,80,0,1
94319,-100,4,2,1,60,0,0
99242,-66.6666666666667,4,1,1,80,0,1
104088,-66.6666666666667,4,1,1,80,0,0
104165,-58.8235294117647,4,1,1,80,0,1
107704,-76.9230769230769,4,1,1,70,0,0
112781,-76.9230769230769,4,1,1,50,0,0
112857,-76.9230769230769,4,1,1,42,0,0
112934,-76.9230769230769,4,1,1,37,0,0
113011,-76.9230769230769,4,1,1,25,0,0
113088,-76.9230769230769,4,1,1,18,0,0
113165,-76.9230769230769,4,1,1,5,0,0

[Colours]
Combo1 : 128,0,255
Combo2 : 255,86,4
Combo3 : 255,128,0
Combo4 : 255,0,0
Combo5 : 255,0,128
Combo6 : 255,0,255

[HitObjects]
52,114,781,5,0,0:0:0:0:
52,114,934,2,0,P|50:152|64:244,1,120.000004577637,0|0,0:0|0:0,0:0:0:0:
130,287,1396,1,0,0:0:0:0:
130,287,1550,2,0,B|197:313|206:276|258:304,1,120.000004577637,0|0,0:0|0:0,0:0:0:0:
314,356,2011,5,0,0:0:0:0:
314,356,2165,2,0,P|332:322|305:233,1,120.000004577637,0|8,0:0|0:3,0:0:0:0:
256,188,2627,2,0,P|237:132|258:77,1,120.000004577637,8|0,0:3|0:0,0:0:0:0:
337,44,3088,1,0,0:0:0:0:
230,63,3242,6,0,L|136:68,1,90.0000034332277,12|0,0:3|0:0,0:0:0:0:
130,85,3551,2,0,L|36:80,1,90.0000034332277,12|0,0:3|0:0,0:0:0:0:
22,72,3857,2,0,L|30:192,1,120.000004577637,12|12,0:3|0:3,0:0:0:0:
77,277,4319,1,0,0:0:0:0:
77,277,4396,1,0,0:0:0:0:
77,277,4473,2,0,L|110:281,1,30.0000011444092,0|0,0:0|0:0,0:0:0:0:
182,244,4627,6,0,P|163:296|290:286,1,240.000009155274,12|0,1:0|0:0,0:0:0:0:
299,217,5396,1,8,0:0:0:0:
301,202,5472,1,8,0:0:0:0:
305,187,5549,1,8,0:0:0:0:
309,173,5626,1,8,0:0:0:0:
315,159,5704,6,0,L|405:172,1,80,12|0,0:0|2:0,0:0:0:0:
464,249,6011,1,8,0:0:0:0:
315,159,6165,2,0,B|328:64|328:64|402:4,1,160,0|0,2:0|2:0,0:0:0:0:
253,60,6627,2,0,P|207:74|111:23,1,160,8|8,0:0|0:0,0:0:0:0:
20,69,7088,1,0,2:0:0:0:
20,69,7242,2,0,L|32:155,1,80,8|0,0:0|2:0,0:0:0:0:
98,252,7550,2,0,B|196:289|165:231|264:259,1,160,8|8,0:0|0:0,0:0:0:0:
302,347,8011,1,0,2:0:0:0:
151,176,8165,6,0,P|149:129|248:62,1,160,12|8,0:0|0:0,0:0:0:0:
395,148,8627,2,0,L|236:150,1,160,0|0,2:0|2:0,0:0:0:0:
176,269,9088,1,8,0:0:0:0:
418,229,9242,2,0,P|462:201|450:89,1,160,12|0,0:0|0:0,0:0:0:0:
383,55,9704,1,8,0:0:0:0:
365,66,10011,1,8,0:0:0:0:
276,37,10165,1,0,0:0:0:0:
269,44,10242,1,0,0:0:0:0:
262,51,10319,2,0,L|261:99,3,40,8|8|8|8,0:0|0:0|0:0|0:0,0:0:0:0:
276,122,10627,6,0,L|175:128,1,80,12|0,0:0|2:0,0:0:0:0:
119,185,10934,1,8,0:0:0:0:
267,211,11088,2,0,P|317:202|362:106,1,160,0|0,2:0|2:0,0:0:0:0:
267,211,11550,2,0,B|257:331|257:331|275:373,1,160,8|8,0:0|0:0,0:0:0:0:
379,375,12011,1,0,2:0:0:0:
379,375,12165,2,0,L|388:288,1,80,8|0,0:0|0:0,0:0:0:0:
445,176,12474,2,8,L|463:350,1,160
72,224,13088,6,0,P|37:180|75:80,1,160,8|8,0:0|0:0,0:0:0:0:
163,50,13550,2,0,B|259:36|219:73|330:53,1,160,0|8,0:0|0:0,0:0:0:0:
409,27,14011,1,8,0:0:0:0:
289,162,14165,5,8,0:0:0:0:
289,162,14934,6,0,L|285:248,2,80,8|8|8,0:0|0:0|0:0,0:0:0:0:
361,271,15396,6,0,L|188:291,1,160,4|0,0:0|0:0,0:0:0:0:
86,350,15857,2,0,P|105:300|101:177,1,160,8|0,0:0|0:0,0:0:0:0:
34,85,16319,1,0,0:0:0:0:
124,190,16473,1,8,0:0:0:0:
0,79,16627,6,0,L|169:49,1,160,4|0,0:0|0:0,0:0:0:0:
238,139,17088,2,0,P|198:203|124:190,1,160,8|0,0:0|0:0,0:0:0:0:
34,85,17550,1,0,0:0:0:0:
3,211,17704,1,8,0:0:0:0:
95,323,17857,6,0,L|258:334,1,160,4|0,0:0|0:0,0:0:0:0:
375,276,18319,2,0,B|401:199|401:199|395:115,1,160,8|0,0:0|0:0,0:0:0:0:
264,25,18781,1,0,0:0:0:0:
365,25,18934,1,0,0:0:0:0:
233,120,19088,6,0,P|170:126|90:72,1,160,4|0,0:0|0:0,0:0:0:0:
11,141,19550,2,0,P|7:195|18:279,1,120,8|8,0:0|0:0,0:0:0:0:
21,274,19857,2,0,L|101:285,1,80,8|8,0:0|0:0,0:0:0:0:
105,289,20089,1,8,0:0:0:0:
109,293,20165,1,8,0:0:0:0:
126,285,20242,1,8,0:0:0:0:
143,277,20319,6,0,L|311:300,1,160,12|0,0:0|0:0,0:0:0:0:
386,360,20781,1,8,0:0:0:0:
235,268,20934,6,0,P|222:203|287:117,1,160,4|0,0:0|0:0,0:0:0:0:
359,73,21396,1,8,0:0:0:0:
482,219,21550,6,0,L|323:213,1,160,4|0,0:0|0:0,0:0:0:0:
235,268,22011,1,8,0:0:0:0:
29,164,22165,6,0,L|189:171,1,160,4|0,0:0|0:0,0:0:0:0:
269,126,22626,1,8,0:0:0:0:
403,259,22781,6,0,P|397:201|476:132,1,160,4|8,0:0|0:0,0:0:0:0:
454,323,23242,2,0,P|419:341|380:339,1,80,8|8,0:0|0:0,0:0:0:0:
269,126,23550,2,0,P|302:147|320:182,1,80,8|8,0:0|0:0,0:0:0:0:
192,384,23857,2,0,P|193:344|214:311,1,80,8|12,0:0|0:0,0:0:0:0:
214,311,25242,6,0,L|91:308,1,120,12|0,0:0|0:0,0:0:0:0:
34,256,25704,1,2,0:0:0:0:
34,256,26319,1,2,0:0:0:0:
34,256,26934,1,2,0:0:0:0:
60,174,27396,2,0,P|62:134|53:100,2,60.0000022888184,8|10|0,0:0|0:0|0:0,0:0:0:0:
34,256,27857,6,0,P|74:258|108:249,1,60.0000022888184,12|0,0:0|0:0,0:0:0:0:
203,181,28165,1,12,0:0:0:0:
203,181,28781,1,8,0:0:0:0:
233,254,28934,1,8,0:3:0:0:
233,254,29011,1,8,0:3:0:0:
233,254,29088,6,0,P|267:226|270:140,1,120.000004577637,8|2,0:3|0:0,0:0:0:0:
246,80,29551,2,0,P|205:122|203:181,1,120.000004577637,8|8,0:3|0:3,0:0:0:0:
233,254,30011,2,0,P|236:296|230:328,1,60.0000022888184,2|8,0:0|0:3,0:0:0:0:
161,360,30319,5,8,0:3:0:0:
139,325,30627,1,8,0:3:0:0:
117,290,30934,1,8,0:3:0:0:
95,255,31243,1,8,0:3:0:0:
73,220,31551,5,8,0:3:0:0:
95,185,31858,1,8,0:3:0:0:
117,150,32166,1,8,0:3:0:0:
139,115,32474,1,8,0:3:0:0:
161,80,32781,5,8,0:0:0:0:
161,80,32934,2,0,L|236:90,1,60.0000022888184,12|0,0:0|0:0,0:0:0:0:
368,97,33243,5,8,0:0:0:0:
368,97,33397,2,0,L|358:172,1,60.0000022888184,12|0,0:0|0:0,0:0:0:0:
351,304,33705,5,8,0:0:0:0:
351,304,33858,2,0,L|276:294,1,60.0000022888184,12|0,0:0|0:0,0:0:0:0:
144,287,34166,5,8,0:0:0:0:
144,287,34320,2,0,L|154:212,1,60.0000022888184,12|0,0:0|0:0,0:0:0:0:
80,97,34628,2,0,L|90:172,1,60.0000022888184,12|12,0:0|0:0,0:0:0:0:
87,156,35242,6,0,L|255:144,1,160,4|8,0:0|0:0,0:0:0:0:
334,95,35704,1,0,0:0:0:0:
386,163,35857,2,0,P|388:208|381:262,1,80,0|0,0:0|0:0,0:0:0:0:
273,338,36166,2,0,P|271:293|278:239,1,80,8|0,0:0|0:0,0:0:0:0:
356,375,36473,6,0,L|169:355,1,160,0|8,0:0|0:0,0:0:0:0:
110,285,36935,2,0,P|91:233|106:138,1,120,0|8,0:0|0:0,0:0:0:0:
99,158,37242,1,8,0:0:0:0:
174,82,37396,2,0,L|272:86,1,80,8|0,0:0|0:0,0:0:0:0:
390,118,37704,6,0,L|235:206,2,160,4|8|8,0:0|0:0|0:0,0:0:0:0:
390,118,38396,1,8,0:0:0:0:
390,118,38473,2,0,P|399:171|388:213,1,80,0|8,0:0|0:0,0:0:0:0:
308,286,38781,1,0,0:0:0:0:
429,350,38934,6,0,L|514:353,2,80,0|0|8,0:0|0:0|0:0,0:0:0:0:
307,285,39396,2,0,P|260:251|244:195,1,120,0|8,0:0|0:0,0:0:0:0:
248,178,39704,1,0,0:0:0:0:
110,114,39857,2,0,L|29:129,1,80,8|8,0:0|0:0,0:0:0:0:
31,128,40088,1,8,0:0:0:0:
31,128,40165,6,0,B|16:193|16:193|31:220|31:220|22:281,2,160,12|8|8,0:0|0:0|0:0,0:0:0:0:
31,128,40857,1,8,0:0:0:0:
31,128,40934,1,8,0:0:0:0:
97,298,41088,2,0,P|80:333|46:353,1,80,8|0,0:0|0:0,0:0:0:0:
92,181,41396,6,0,L|181:177,2,80,0|0|8,0:0|0:0|0:0,0:0:0:0:
211,305,41857,2,0,B|207:206|254:250|245:144,1,160,0|8,0:0|0:0,0:0:0:0:
148,81,42319,2,0,L|68:84,1,80,8|0,0:0|0:0,0:0:0:0:
35,254,42627,6,0,P|116:303|210:304,1,191.999994140625,12|8,0:0|2:3,0:0:0:0:
314,184,43088,2,0,P|256:121|198:184,1,191.999994140625,12|8,0:0|2:3,0:0:0:0:
302,304,43549,2,0,P|396:302|477:253,1,191.999994140625,12|8,0:0|2:3,0:0:0:0:
256,40,44011,2,0,L|256:238,1,191.999994140625,12|8,0:0|2:3,0:0:0:0:
256,232,44396,1,8,0:0:0:0:
256,232,44473,2,0,P|201:253|148:254,1,95.9999970703126,8|8,0:0|0:0,0:0:0:0:
80,132,44781,2,0,P|127:136|171:155,1,95.9999970703126,8|0,0:0|0:0,0:0:0:0:
323,296,45088,6,0,L|457:307,1,120,4|0,0:0|0:0,0:0:0:0:
501,352,45704,2,0,P|514:328|510:270,1,80,8|0,0:0|0:0,0:0:0:0:
484,212,46165,1,0,0:0:0:0:
430,166,46319,2,0,L|296:155,1,120,0|0,0:0|0:0,0:0:0:0:
252,110,46935,2,0,P|239:134|243:192,1,80,8|0,0:0|0:0,0:0:0:0:
279,253,47396,1,8,0:3:0:0:
279,253,47473,1,8,0:3:0:0:
279,253,47550,5,12,0:0:0:0:
209,295,47704,2,0,P|163:295|123:274,1,80,8|0,0:0|0:0,0:0:0:0:
94,213,48165,2,0,L|85:131,1,80,8|0,0:0|0:0,0:0:0:0:
171,68,48627,2,0,L|162:150,1,80,0|8,0:0|0:0,0:0:0:0:
162,147,49011,1,8,0:0:0:0:
162,147,49088,2,0,L|169:196,1,40,8|0,0:0|0:0,0:0:0:0:
264,178,49396,2,0,L|257:226,1,40,8|0,0:0|0:0,0:0:0:0:
181,275,49704,1,8,0:0:0:0:
312,338,50011,6,0,P|342:333|384:258,1,120,12|0,0:0|0:0,0:0:0:0:
365,190,50627,2,0,P|361:158|370:105,1,80,8|0,0:0|0:0,0:0:0:0:
359,34,51088,1,0,0:0:0:0:
278,41,51242,2,0,P|248:46|206:121,1,120,0|0,0:0|0:0,0:0:0:0:
225,189,51858,2,0,P|229:221|220:274,1,80,8|0,0:0|0:0,0:0:0:0:
160,322,52319,1,0,0:0:0:0:
160,322,52396,1,0,0:0:0:0:
160,322,52473,5,0,0:0:0:0:
85,260,52627,2,0,P|116:236|155:225,1,80,8|0,0:0|0:0,0:0:0:0:
225,189,53089,2,0,P|263:177|294:153,1,80,8|8,0:0|0:0,0:0:0:0:
325,75,53550,1,8,0:0:0:0:
401,106,53704,1,0,0:0:0:0:
403,187,53857,2,0,L|396:269,1,80,8|8,0:0|0:0,0:0:0:0:
396,266,54242,1,8,0:0:0:0:
396,266,54319,2,8,L|345:284,1,40
264,334,54627,2,8,L|301:346,1,40,8|8,0:0|0:0,0:0:0:0:
302,346,55242,6,0,L|131:352,1,160,12|0,0:0|0:0,0:0:0:0:
31,280,55704,1,0,0:0:0:0:
17,151,55857,2,0,P|15:109|28:64,1,80,8|0,0:0|0:0,0:0:0:0:
202,90,56165,6,0,B|229:111|229:111|102:117,1,160,0|8,0:0|0:0,0:0:0:0:
31,280,56627,2,0,L|113:275,1,80,8|0,0:3|0:0,0:0:0:0:
243,209,56934,2,0,L|161:204,1,80,0|8,0:3|0:0,0:0:0:0:
273,289,57242,1,0,0:0:0:0:
273,289,57396,6,0,P|314:259|306:150,1,160,0|8,0:0|0:0,0:0:0:0:
198,115,57857,1,0,0:0:0:0:
368,208,58011,2,0,P|419:204|465:190,2,80,0|0|8,0:0|0:0|0:0,0:0:0:0:
474,112,58473,6,0,L|448:286,1,160,0|0,0:0|0:0,0:0:0:0:
366,336,58934,2,0,L|274:351,1,80,8|8,0:0|0:0,0:0:0:0:
166,253,59242,2,0,L|258:268,1,80,8|8,0:0|0:0,0:0:0:0:
59,329,59550,2,0,P|21:308|48:343,1,120,0|0,0:0|0:0,0:0:0:0:
59,329,59857,6,0,L|73:154,1,160,12|8,0:0|0:0,0:0:0:0:
132,68,60319,1,0,0:0:0:0:
256,87,60473,2,0,L|366:108,1,80,8|0,0:0|0:0,0:0:0:0:
412,10,60781,2,0,L|302:31,1,80,8|0,0:0|0:0,0:0:0:0:
333,25,61011,1,0,0:0:0:0:
333,25,61088,1,12,0:0:0:0:
171,232,61396,6,0,P|147:181|150:137,1,80,8|0,0:0|0:0,0:0:0:0:
365,158,61705,2,0,P|360:197|341:231,1,80,12|0,0:0|0:0,0:0:0:0:
256,87,62011,2,0,L|256:167,1,80,8|8,0:0|0:0,0:0:0:0:
256,172,62242,1,8,0:0:0:0:
256,177,62319,6,0,B|262:230|237:266|237:266|269:257|269:257|246:296|254:361,1,223.999993164063,12|0,0:0|2:0,0:0:0:0:
331,383,62781,6,0,L|89:348,1,223.999993164063,12|0,0:0|2:0,0:0:0:0:
55,292,63242,6,0,P|44:190|144:167,1,223.999993164063,12|0,0:0|2:0,0:0:0:0:
108,235,63704,6,0,B|48:140|48:140|108:45,1,223.999993164063,12|0,0:0|2:0,0:0:0:0:
190,33,64165,5,12,0:0:0:0:
256,192,64319,1,12,0:0:0:0:
256,192,64781,6,0,L|243:312,2,111.999996582031,8|8|8,0:0|0:0|0:0,0:0:0:0:
172,334,65242,2,0,P|237:379|310:345,1,167.999994873047,8|0,0:0|2:0,0:0:0:0:
322,322,65551,2,0,P|394:287|460:333,1,167.999994873047,8|0,0:0|2:0,0:0:0:0:
465,351,65857,2,0,B|435:181|435:181|455:131,1,223.999993164063,8|8,0:0|0:0,0:0:0:0:
493,51,66319,1,8,0:0:0:0:
259,129,66781,6,0,L|190:128,1,55.9999982910157,8|8,3:3|3:3,0:0:0:0:
116,88,66934,1,8,3:3:0:0:
313,73,67088,6,0,P|338:135|243:205,1,191.999994140625,4|0,0:2|2:2,0:0:0:0:
133,182,67550,2,0,P|86:178|34:185,1,95.9999970703126,8|0,0:2|0:2,0:0:0:0:
30,314,67857,1,0,0:2:0:0:
165,292,68011,1,0,0:2:0:0:
30,314,68165,1,8,0:2:0:0:
165,292,68319,6,0,L|363:321,1,191.999994140625,4|0,0:2|2:2,0:0:0:0:
442,261,68781,2,0,P|470:212|465:138,1,95.9999970703126,8|0,0:2|0:2,0:0:0:0:
362,71,69088,1,0,0:2:0:0:
272,150,69242,1,0,0:2:0:0:
385,189,69396,1,8,0:2:0:0:
362,71,69549,6,0,P|292:35|175:83,1,191.999994140625,4|0,0:2|2:2,0:0:0:0:
139,182,70011,2,0,L|133:282,1,95.9999970703126,8|0,0:2|0:0,0:0:0:0:
133,277,70242,1,0,0:0:0:0:
133,277,70319,1,0,0:2:0:0:
258,302,70473,1,0,0:2:0:0:
133,277,70627,1,8,0:2:0:0:
258,302,70781,6,0,P|345:315|423:214,1,191.999994140625,4|0,0:2|2:2,0:0:0:0:
320,217,71242,2,0,B|338:145|338:145|303:119|303:119|322:45,1,191.999994140625,8|8,0:2|0:2,0:0:0:0:
196,59,71704,1,8,2:2:0:0:
382,7,71857,1,8,2:2:0:0:
187,170,72011,6,0,P|132:152|86:25,1,191.999994140625,4|0,0:2|2:2,0:0:0:0:
187,170,72473,2,0,P|183:231|170:280,1,95.9999970703126,8|0,0:2|0:2,0:0:0:0:
96,372,72781,1,0,0:2:0:0:
246,351,72934,1,0,0:2:0:0:
96,372,73088,1,8,0:2:0:0:
246,351,73242,6,0,P|286:279|269:164,1,191.999994140625,4|0,0:2|2:2,0:0:0:0:
169,106,73704,2,0,L|62:104,1,95.9999970703126,8|0,0:2|0:2,0:0:0:0:
14,262,74011,1,0,0:2:0:0:
106,225,74165,1,0,0:2:0:0:
29,164,74319,1,8,0:2:0:0:
14,262,74473,6,0,P|50:308|177:299,1,191.999994140625,4|0,0:2|2:2,0:0:0:0:
256,222,74935,2,0,P|346:201|415:262,2,191.999994140625,8|8|8,0:2|0:2|0:2,0:0:0:0:
408,362,75704,6,0,L|455:161,1,191.999994140625,12|8,0:2|2:0,0:0:0:0:
451,175,76088,1,8,2:2:0:0:
451,175,76165,1,8,2:2:0:0:
301,51,76473,1,8,2:2:0:0:
277,47,76549,1,8,2:2:0:0:
253,47,76626,1,8,2:2:0:0:
229,49,76703,1,8,2:2:0:0:
205,53,76780,1,8,2:2:0:0:
182,60,76857,1,8,2:2:0:0:
160,70,76934,6,0,P|135:132|230:202,1,191.999994140625,12|0,0:0|2:0,0:0:0:0:
340,179,77396,2,0,P|387:175|439:182,1,95.9999970703126,8|0,0:0|0:0,0:0:0:0:
443,311,77704,1,0,0:0:0:0:
308,289,77857,1,0,0:0:0:0:
443,311,78011,1,8,0:0:0:0:
308,289,78165,6,0,L|110:318,1,191.999994140625,4|0,0:0|2:0,0:0:0:0:
31,258,78627,2,0,P|3:209|8:135,1,95.9999970703126,8|0,0:0|0:0,0:0:0:0:
111,68,78934,1,0,0:0:0:0:
201,147,79088,1,0,0:0:0:0:
88,186,79242,1,8,0:0:0:0:
111,68,79396,6,0,P|181:32|298:80,1,191.999994140625,4|8,0:0|2:0,0:0:0:0:
334,179,79857,2,0,L|340:279,1,95.9999970703126,8|0,0:0|0:0,0:0:0:0:
339,275,80088,1,0,0:0:0:0:
339,275,80165,1,0,0:0:0:0:
215,299,80319,1,0,0:0:0:0:
339,275,80473,1,8,0:0:0:0:
215,299,80627,6,0,P|128:312|50:211,1,191.999994140625,4|8,0:0|2:0,0:0:0:0:
65,128,81088,1,8,2:0:0:0:
174,121,81242,2,0,L|155:215,1,95.9999970703126,8|8,2:0|2:0,0:0:0:0:
271,158,81551,2,0,L|252:63,1,95.9999970703126,8|8,2:0|2:0,0:0:0:0:
146,33,81857,1,8,2:0:0:0:
271,158,82011,6,0,P|330:169|425:76,1,191.999994140625,8|8,0:3|0:3,0:0:0:0:
425,75,82627,2,0,L|440:277,1,191.999994140625,8|0,0:0|0:0,0:0:0:0:
503,338,83088,2,0,P|426:282|333:290,1,191.999994140625,8|8,0:3|0:3,0:0:0:0:
246,247,83551,2,0,P|152:254|76:199,1,191.999994140625,8|0,0:0|0:0,0:0:0:0:
70,181,84165,1,8,0:0:0:0:
67,171,84473,6,0,P|135:173|264:106,1,191.999994140625,12|12,0:0|0:0,0:0:0:0:
295,202,84935,2,0,P|379:157|474:154,2,191.999994140625,12|12|12,0:0|0:0|0:0,0:0:0:0:
184,315,85857,1,8,0:0:0:0:
184,315,86011,2,0,L|86:322,1,95.9999970703126,8|8,0:0|0:0,0:0:0:0:
36,184,86319,6,0,P|31:153|32:121,2,63.9999980468751,8|8|8,0:3|0:3|0:3,0:3:0:0:
122,153,86627,2,0,P|127:184|126:216,2,63.9999980468751,8|8|8,0:3|0:3|0:3,0:3:0:0:
96,279,86934,6,0,L|306:231,1,167.999994873047,4|0,0:0|2:0,0:0:0:0:
289,233,87241,1,12,0:0:0:0:
376,163,87397,2,0,P|414:90|388:13,1,167.999994873047,12|0,0:0|2:0,0:0:0:0:
301,84,87705,2,0,P|263:156|289:233,1,167.999994873047,12|0,0:0|2:0,0:0:0:0:
348,300,88011,2,0,L|129:349,1,223.999993164063,12|12,0:0|0:0,0:0:0:0:
27,292,88473,2,0,P|13:225|115:266,1,223.999993164063,12|12,0:0|0:0,0:0:0:0:
117,252,89396,6,0,P|177:259|217:255,1,80,12|0,1:1|0:0,0:0:0:0:
350,174,89704,1,8,1:2:0:0:
350,174,89857,6,0,P|290:167|250:171,1,80,0|8,0:0|1:2,0:0:0:0:
272,329,90165,1,0,0:0:0:0:
272,329,90319,6,0,P|279:269|275:229,1,80,8|0,1:2|0:0,0:0:0:0:
194,96,90627,6,0,P|187:156|192:198,1,93.3333321465387,12|8,1:1|1:2,0:0:0:0:
360,341,90935,2,0,P|367:281|362:239,1,93.3333321465387,12|8,1:2|1:2,0:0:0:0:
194,96,91242,2,0,L|69:86,1,93.3333321465387,12|8,1:1|1:2,0:0:0:0:
318,96,91550,2,0,L|443:86,1,93.3333321465387,12|8,1:2|1:2,0:0:0:0:
458,202,91857,5,12,1:1:0:0:
336,186,92011,1,12,1:2:0:0:
411,88,92165,1,12,1:2:0:0:
458,202,92319,2,0,P|452:264|433:317,1,106.399995616455,12|12,1:2|1:1,0:0:0:0:
321,348,92627,1,12,1:2:0:0:
212,319,92781,1,12,1:1:0:0:
108,357,92934,6,0,P|56:330|66:188,1,212.799991232911,12|12,1:2|1:2,0:0:0:0:
183,144,93396,2,0,L|314:157,1,120.000004577637,12|12,1:1|1:2,0:0:0:0:
416,212,93704,5,12,1:1:0:0:
416,212,93857,5,12,1:2:0:0:
416,212,93934,1,8,1:2:0:0:
416,212,94011,1,12,1:1:0:0:
412,229,94088,1,8,1:2:0:0:
408,246,94165,1,12,1:1:0:0:
404,263,94242,1,8,1:2:0:0:
400,280,94319,6,0,P|357:308|255:276,1,160,12|8,1:1|0:0,0:0:0:0:
220,209,94781,2,0,P|149:177|78:209,1,160,0|8,0:0|0:3,0:0:0:0:
36,285,95242,2,0,L|66:102,1,160,8|0,0:0|0:0,0:0:0:0:
132,49,95704,2,0,B|237:24|194:94|320:55,1,160,8|0,0:3|0:0,0:0:0:0:
392,116,96165,2,0,B|407:158|407:158|403:205,1,80,8|8,0:0|0:0,0:0:0:0:
292,285,96474,2,0,B|277:243|277:243|281:196,1,80,8|0,0:0|0:0,0:0:0:0:
383,340,96781,6,0,L|197:327,1,160,4|8,0:0|0:0,0:0:0:0:
123,265,97242,2,0,P|102:221|124:105,1,160,0|8,0:0|0:0,0:0:0:0:
117,114,97627,1,0,0:0:0:0:
117,114,97704,1,8,0:0:0:0:
245,39,97857,6,0,B|352:27|306:84|421:68,1,160,4|0,0:0|0:0,0:0:0:0:
465,146,98319,1,8,0:0:0:0:
375,219,98473,1,8,0:0:0:0:
375,219,98550,1,8,0:0:0:0:
375,219,98627,1,8,0:0:0:0:
267,253,98781,1,8,0:0:0:0:
247,254,98857,1,8,0:0:0:0:
227,255,98934,1,8,0:0:0:0:
207,257,99011,1,8,0:0:0:0:
187,258,99088,1,8,0:0:0:0:
167,260,99165,1,8,0:0:0:0:
147,261,99242,6,0,P|108:326|97:380,1,120.000004577637,12|0,0:0|2:0,0:0:0:0:
64,191,99550,1,12,0:0:0:0:
64,191,99704,6,0,P|103:126|114:72,1,120.000004577637,0|12,2:0|0:0,0:0:0:0:
217,26,100011,1,0,2:0:0:0:
323,71,100165,6,0,L|446:78,1,120.000004577637,12|0,0:0|0:0,0:0:0:0:
295,153,100473,1,12,0:0:0:0:
189,198,100627,6,0,L|66:205,1,120.000004577637,0|12,2:0|0:0,0:0:0:0:
217,280,100934,1,0,2:0:0:0:
323,325,101088,6,0,L|446:332,1,120.000004577637,12|0,0:0|2:0,0:0:0:0:
414,146,101396,6,0,L|295:153,1,120.000004577637,12|0,0:0|2:0,0:0:0:0:
125,340,101704,5,12,0:0:0:0:
69,204,101857,1,0,2:0:0:0:
125,340,102011,1,12,0:0:0:0:
69,204,102165,6,0,P|67:144|93:71,1,120.000004577637,0|12,2:0|0:0,0:0:0:0:
199,34,102473,1,0,2:0:0:0:
256,192,102627,1,12,0:0:0:0:
313,34,102781,6,0,P|403:38|475:160,1,240.000009155274,4|0,0:0|0:0,0:0:0:0:
349,331,103242,2,0,L|229:339,1,120.000004577637,8|0,0:0|0:0,0:0:0:0:
229,338,103473,1,0,0:0:0:0:
229,338,103550,1,8,0:0:0:0:
139,258,103704,5,8,0:0:0:0:
124,231,103780,1,8,0:0:0:0:
120,202,103857,1,8,0:0:0:0:
127,173,103934,1,8,0:0:0:0:
144,148,104011,1,8,0:0:0:0:
168,130,104088,1,8,0:0:0:0:
197,123,104165,6,0,L|345:137,1,136.000002593994,12|0,0:0|2:0,0:0:0:0:
434,192,104474,1,12,0:0:0:0:
197,260,104627,6,0,L|345:247,1,136.000002593994,0|12,2:0|0:0,0:0:0:0:
438,192,104934,1,0,2:0:0:0:
197,124,105088,6,0,P|194:55|238:-1,1,136.000002593994,12|0,0:0|2:0,0:0:0:0:
442,192,105395,1,12,0:0:0:0:
197,260,105550,6,0,P|194:329|238:385,1,136.000002593994,0|12,2:0|0:0,0:0:0:0:
446,192,105857,1,0,2:0:0:0:
279,82,106011,5,12,0:0:0:0:
279,82,106166,1,0,2:0:0:0:
279,302,106320,5,12,0:0:0:0:
279,302,106474,1,0,2:0:0:0:
105,143,106627,5,12,0:0:0:0:
116,233,106781,1,8,2:0:0:0:
95,53,106934,1,12,0:0:0:0:
127,323,107088,5,8,0:0:0:0:
127,323,107165,1,8,0:0:0:0:
127,323,107242,1,12,0:0:0:0:
172,330,107318,1,8,0:0:0:0:
217,333,107395,1,8,0:0:0:0:
261,323,107472,1,8,0:0:0:0:
306,315,107549,1,12,0:0:0:0:
351,320,107626,1,8,0:0:0:0:
395,330,107703,5,12,0:0:0:0:
395,330,108933,5,4,0:0:0:0:
256,192,109011,12,0,113165,0:0:0:0:
