osu file format v14

[General]
AudioFilename: audio.mp3
AudioLeadIn: 0
PreviewTime: 89806
Countdown: 0
SampleSet: Soft
StackLeniency: 0.7
Mode: 0
LetterboxInBreaks: 0
WidescreenStoryboard: 0

[Editor]
DistanceSpacing: 1
BeatDivisor: 2
GridSize: 32
TimelineZoom: 1

[Metadata]
Title:Thank you, Friends!!
TitleUnicode:Thank you, Friends!!
Artist:Aqours
ArtistUnicode:Aqours
Creator:JalenThePSIKid
Version:Easy
Source:Love Live Sunshine!
Tags:Lovelive Aqours Anime Chika Riko You Mari Dia Kanan Yoshiko Hanamaru Ruby lovelivesunshine idol japanese
BeatmapID:1736547
BeatmapSetID:828867

[Difficulty]
HPDrainRate:2
CircleSize:2.5
OverallDifficulty:2
ApproachRate:2.5
SliderMultiplier:1
SliderTickRate:1

[Events]
//Background and Video events
0,0,"LACM-14800.jpg",0,0
//Break Periods
2,63660,67472
2,132843,136042
2,221008,238440
//Storyboard Layer 0 (Background)
//Storyboard Layer 1 (Fail)
//Storyboard Layer 2 (Pass)
//Storyboard Layer 3 (Foreground)
//Storyboard Layer 4 (Overlay)
//Storyboard Sound Samples

[TimingPoints]
400,612.244897959184,4,2,0,100,1,0

[Colours]
Combo1 : 255,192,0
Combo2 : 0,202,0
Combo3 : 18,124,255
Combo4 : 242,24,57

[HitObjects]
91,140,400,5,2,0:0:0:0:
398,147,2848,5,2,0:0:0:0:
125,148,7747,6,2,B|220:261|220:261|319:140,1,300,6|2,0:0|0:0,0:0:0:0:
381,67,10195,1,0,0:0:0:0:
280,62,10808,1,0,0:0:0:0:
180,51,11420,1,2,0:0:0:0:
80,59,12032,1,2,0:0:0:0:
72,158,12644,6,2,B|72:341|72:341|203:341,1,300,6|2,0:0|0:0,0:0:0:0:
288,332,15093,1,0,0:0:0:0:
358,261,15705,1,2,0:0:0:0:
297,181,16317,1,2,0:0:0:0:
205,221,16930,1,0,0:0:0:0:
186,122,17542,6,2,P|100:197|235:275,1,300,6|2,0:0|0:0,0:0:0:0:
324,263,19991,1,0,0:0:0:0:
378,179,20603,1,0,0:0:0:0:
376,79,21215,1,2,0:0:0:0:
280,109,21828,1,2,0:0:0:0:
209,180,22442,6,2,L|305:251,2,100
109,152,24278,1,2,0:0:0:0:
171,74,24890,1,0,0:0:0:0:
248,137,25502,1,0,0:0:0:0:
334,86,26115,1,2,0:0:0:0:
334,185,26727,1,2,0:0:0:0:
276,266,27338,2,2,P|222:317|58:259,1,250,6|2,0:0|0:0,0:0:0:0:
76,125,29788,5,0,0:0:0:0:
225,126,30706,2,2,L|298:126,1,50
374,130,31624,2,2,L|430:172,1,50
456,324,33155,6,2,L|341:324,1,100
306,321,34073,2,0,P|246:334|200:306,1,100,0|2,0:0|0:0,0:0:0:0:
142,185,35604,6,2,L|200:181,1,50
291,170,36522,2,0,B|379:170|379:170|379:283,1,200
271,287,38359,5,0,0:0:0:0:
184,262,38971,1,0,0:0:0:0:
185,169,39583,1,0,0:0:0:0:
288,113,40502,6,0,L|348:113,1,50
334,212,41420,2,0,L|218:250,1,100
141,267,42645,2,0,L|142:163,1,100,0|2,0:0|0:0,0:0:0:0:
331,194,44481,6,0,P|325:81|251:57,1,200,0|8,0:0|0:0,0:0:0:0:
55,54,46930,1,0,0:0:0:0:
55,103,47236,2,0,L|124:184,1,100
156,213,48155,2,0,P|237:164|341:166,1,200
443,273,50297,6,0,L|371:316,1,50
302,318,51215,2,0,L|254:264,1,50
184,98,52746,2,0,B|133:120|133:120|133:228,1,150
131,314,54277,1,0,0:0:0:0:
281,317,55196,6,0,P|365:247|317:113,1,250
250,66,57338,1,0,0:0:0:0:
158,107,57951,1,0,0:0:0:0:
130,203,58563,2,2,L|197:289,1,100
345,282,60094,6,0,L|401:249,1,50
457,184,61012,2,2,P|437:118|384:104,1,100
313,105,62236,2,0,P|231:64|124:127,1,200
89,207,68972,5,4,0:0:0:0:
177,188,69890,2,2,B|279:80|279:80|358:193,1,275
414,253,71420,1,0,0:0:0:0:
329,271,72032,2,2,L|180:272,1,150
112,256,73257,1,0,0:0:0:0:
183,187,73869,5,0,0:0:0:0:
267,150,74481,2,0,P|407:141|413:149,1,150
439,199,75705,1,0,0:0:0:0:
366,250,76318,2,2,B|255:315|255:315|112:237|173:189,1,300
225,153,78155,1,0,0:0:0:0:
333,117,78767,5,4,0:0:0:0:
427,118,79379,2,0,P|436:262|434:265,1,150
354,254,80604,1,2,0:0:0:0:
248,255,81216,1,4,0:0:0:0:
155,254,81828,2,0,P|149:133|155:129,1,150
237,128,83053,1,2,0:0:0:0:
356,138,83665,2,0,L|277:242,1,125,0|4,0:0|0:0,0:0:0:0:
193,232,84583,1,0,0:0:0:0:
119,224,84889,2,0,P|117:111|124:104,1,125,0|4,0:0|0:0,0:0:0:0:
256,192,86114,12,2,88563,0:0:0:0:
98,137,89787,6,2,P|216:139|228:148,1,125
300,186,91012,1,4,0:0:0:0:
412,177,91624,6,0,B|422:286|422:286|139:295,1,375,0|2,0:0|0:0,0:0:0:0:
57,257,94073,2,0,P|48:138|219:101,1,325,0|2,0:0|0:0,0:0:0:0:
274,134,95757,1,2,0:0:0:0:
352,172,96522,2,0,L|271:250,1,100
178,253,97594,2,0,L|85:218,1,100
92,146,98360,2,2,B|204:91|283:113|283:113|309:146,1,225
295,200,100196,6,0,L|189:295,1,125
86,251,101420,1,0,0:0:0:0:
155,156,102032,1,0,0:0:0:0:
264,152,102644,2,0,P|416:118|421:120,1,150,2|0,0:0|0:0,0:0:0:0:
420,199,103869,1,0,0:0:0:0:
328,233,104482,2,0,P|194:256|168:250,1,150,0|2,0:0|0:0,0:0:0:0:
95,228,105706,1,0,0:0:0:0:
114,140,106318,2,0,B|297:105|395:213|196:258,2,350,2|0|2,0:0|0:0|0:0,0:0:0:0:
61,73,109991,1,2,0:0:0:0:
244,64,110604,5,4,0:0:0:0:
337,67,111216,2,0,P|426:137|264:251,1,375,0|2,0:0|0:0,0:0:0:0:
239,155,113665,2,0,B|62:129|62:129|75:266,1,300,0|2,0:0|0:0,0:0:0:0:
155,269,115348,1,2,0:0:0:0:
278,271,116113,2,0,L|415:244,1,125
399,157,117185,2,2,L|318:146,1,75
242,84,118258,2,0,B|77:36|77:36|39:199|49:209,1,325,0|2,0:0|0:0,0:0:0:0:
67,338,120707,6,0,L|238:282,1,175,0|2,0:0|0:0,0:0:0:0:
353,276,122237,1,2,0:0:0:0:
326,160,123155,2,0,P|221:102|162:122,1,175
70,189,124686,2,0,B|70:333|70:333|285:332,1,350,0|4,0:0|0:0,0:0:0:0:
386,261,126828,6,2,P|388:143|319:74,1,200
193,81,128358,1,0,0:0:0:0:
92,138,128971,2,2,P|71:218|106:264,1,125
256,192,130042,12,4,132643,0:0:0:0:
126,95,137542,5,0,0:0:0:0:
244,105,138460,2,0,L|308:136,1,50
395,197,139379,2,0,L|328:261,1,75
248,297,140910,2,0,P|137:287|79:211,1,200
184,152,142440,5,0,0:0:0:0:
288,162,143359,2,0,L|342:103,1,75
440,116,144277,2,0,P|443:219|429:260,1,125
310,253,145503,2,0,P|238:305|189:308,1,125
151,218,146727,2,0,L|150:147,2,50
194,302,148257,6,0,L|281:304,1,75
374,304,149175,2,0,B|421:246|421:246|374:190,1,125
292,138,150400,1,0,0:0:0:0:
181,111,151012,2,0,P|104:166|105:202,1,125
194,246,152236,2,0,B|241:233|261:222|305:247|325:222,1,125
391,237,153461,2,0,P|368:132|232:110,1,250
81,143,157134,5,0,0:0:0:0:
200,138,158053,2,0,P|322:103|393:141,1,200
461,206,159584,1,0,0:0:0:0:
399,282,160196,1,0,0:0:0:0:
298,285,160808,2,0,B|223:270|223:270|178:225,1,125
80,155,162032,5,0,0:0:0:0:
217,157,162950,2,0,P|363:171|423:153,1,200
360,67,164481,2,0,P|243:59|203:71,1,150
135,111,165707,1,0,0:0:0:0:
70,187,166319,1,0,0:0:0:0:
172,226,166931,5,0,0:0:0:0:
281,240,167543,2,0,B|394:283|394:283|445:184|377:123,1,275
276,126,169379,1,0,0:0:0:0:
170,83,169992,2,0,B|74:131|74:131|89:169,1,125
110,266,171216,2,0,P|221:264|268:244,1,150
338,231,172287,1,0,0:0:0:0:
396,158,172746,1,0,0:0:0:0:
340,109,173052,2,0,P|225:104|207:110,1,125
256,192,174277,12,0,176726,0:0:0:0:
59,178,177951,6,0,P|164:224|215:212,1,150
280,157,179176,1,0,0:0:0:0:
408,146,179788,2,0,B|405:326|401:328|401:328|228:221,1,375
306,109,182237,2,0,B|123:69|36:105|36:105|62:215,1,375
132,298,184685,2,0,P|204:228|266:217,1,150
334,254,185757,2,0,L|370:187,1,75
373,95,186522,2,0,P|217:86|159:98,1,200
76,180,188359,6,0,L|150:302,1,125
255,278,189584,1,0,0:0:0:0:
365,265,190195,2,0,P|369:150|306:84,1,200
218,88,191420,2,0,L|126:157,1,100
47,218,192645,2,0,B|134:339|134:339|214:270,1,250
320,253,194481,2,0,B|465:127|401:81|401:81|196:166,1,425
119,118,197542,1,0,0:0:0:0:
52,209,198155,1,0,0:0:0:0:
168,271,198767,5,0,0:0:0:0:
277,270,199379,2,0,B|428:275|428:275|427:140|427:140|320:141,1,375
183,128,201829,2,0,B|67:121|67:121|61:269|61:269|205:274,1,400
279,280,204277,2,0,B|388:218|388:218|227:91,1,325
91,109,206420,2,0,B|86:260|86:260|130:263|130:263|152:298|203:182,1,300
324,102,208870,6,0,B|426:171|426:171|383:224,1,175
256,271,210400,1,0,0:0:0:0:
123,257,211319,2,0,B|94:148|94:148|149:106,1,175
266,116,212849,2,0,P|359:122|317:317,1,350
181,298,214991,6,0,B|92:207|92:207|135:171|135:171|115:145,1,200
199,86,216522,1,0,0:0:0:0:
314,106,217134,2,0,B|404:169|404:169|375:214,1,150
256,192,218359,12,0,220808,0:0:0:0:
145,185,239940,6,0,B|333:285|333:285|371:115,1,375
257,86,242389,6,0,B|135:66|135:66|68:146|68:146|186:256,1,375
356,244,244838,6,0,B|369:87|306:60|306:60|190:167,1,350
55,231,247287,6,0,B|162:237|162:237|190:208|190:208|239:255|239:255|416:252,1,375
407,140,249889,6,0,L|346:93,1,75
228,101,251114,2,0,L|182:156,1,50
48,162,252338,2,0,L|90:244,1,75
241,319,253869,2,0,P|356:295|208:93,1,500
256,192,257542,12,0,261674,0:0:0:0:
51,250,262440,6,0,L|197:287,1,150
324,285,263665,2,0,L|461:220,1,150
442,110,267338,6,0,L|276:108,1,150
182,109,268563,1,0,0:0:0:0:
104,176,269175,1,0,0:0:0:0:
81,293,272236,6,0,L|203:280,1,100
302,290,273155,1,0,0:0:0:0:
395,264,273461,2,0,L|339:172,1,100
249,72,274685,6,0,L|148:124,1,100
82,198,275604,1,0,0:0:0:0:
132,261,275910,2,0,L|241:295,1,100
320,292,276828,1,0,0:0:0:0:
105,128,280808,6,0,P|210:182|228:172,1,150
316,146,282032,1,0,0:0:0:0:
448,91,282644,2,0,B|452:243|452:243|217:313,1,375
68,309,285093,6,0,B|66:128|66:128|165:65|165:65|192:88,1,325
415,128,287542,6,0,L|352:223,1,100
246,223,288614,2,0,L|161:225,1,75
88,285,289379,2,0,P|82:169|170:135,1,225
388,142,291216,5,0,0:0:0:0:
253,124,291828,1,0,0:0:0:0:
252,258,292440,1,0,0:0:0:0:
133,260,293053,2,0,L|78:123,1,125
204,92,294277,1,0,0:0:0:0:
334,151,294889,1,0,0:0:0:0:
212,188,295502,2,0,B|97:217|97:217|130:261,1,150
229,280,296726,1,0,0:0:0:0:
333,241,297338,2,0,B|423:126|423:126|339:70|339:70|255:135,1,350
199,193,299175,1,0,0:0:0:0:
83,253,300400,1,0,0:0:0:0:
103,121,301012,1,0,0:0:0:0:
223,181,301624,5,0,0:0:0:0:
331,202,302236,2,0,B|442:255|442:255|332:328,1,250
258,327,303614,1,0,0:0:0:0:
184,311,303920,1,0,0:0:0:0:
102,243,304685,6,0,B|67:129|67:129|185:74,1,250
257,71,306063,1,0,0:0:0:0:
336,72,306369,1,0,0:0:0:0:
458,111,307134,6,0,L|370:229,1,125
256,233,308206,2,0,L|175:207,1,75
68,227,309277,2,0,B|59:101|125:66|125:66|179:104,1,225
242,140,310655,1,0,0:0:0:0:
434,91,311726,6,0,P|443:181|441:184,1,100
410,235,312491,1,0,0:0:0:0:
300,238,313257,1,0,0:0:0:0:
137,256,314175,6,0,P|77:160|86:97,1,175
311,98,315706,2,0,B|313:250|292:254|292:254|200:248|200:248|162:148,1,350
65,195,317848,2,0,P|65:303|151:337,1,200
244,298,319379,1,0,0:0:0:0:
328,254,319991,2,0,B|366:229|366:229|294:155,1,125
256,192,321063,12,0,323665,0:0:0:0:
123,137,326114,5,0,0:0:0:0:
228,230,326726,1,0,0:0:0:0:
343,170,327338,1,0,0:0:0:0:
359,292,327951,1,0,0:0:0:0:
221,298,328563,6,0,L|104:207,1,125
200,134,329787,2,0,L|352:71,1,150
425,130,331012,1,0,0:0:0:0:
406,234,331624,1,0,0:0:0:0:
302,205,332236,1,0,0:0:0:0:
224,281,332848,1,0,0:0:0:0:
75,303,333461,6,0,P|68:205|207:98,1,275
310,122,335297,1,0,0:0:0:0:
414,163,335910,2,0,L|321:290,1,150
230,249,337134,1,0,0:0:0:0:
157,175,337746,1,0,0:0:0:0:
181,86,338359,6,0,B|438:73|438:73|441:237,1,400
363,304,340808,2,0,P|279:314|221:295,1,125
139,259,342032,1,0,0:0:0:0:
114,164,342644,1,0,0:0:0:0:
214,104,343257,6,0,B|279:68|279:68|337:108|337:108|344:155|344:155|444:202|444:202|419:258|339:269,1,425
225,269,345706,1,0,0:0:0:0:
168,168,346318,1,0,0:0:0:0:
265,143,346930,1,0,0:0:0:0:
376,143,347542,1,0,0:0:0:0:
394,229,348155,6,0,B|333:316|333:316|264:256|264:256|191:323|191:323|117:220,1,400
205,145,350604,1,0,0:0:0:0:
363,148,351216,2,0,B|426:184|426:184|385:237,1,125
287,248,352440,1,0,0:0:0:0:
150,251,353053,6,0,B|145:167|145:167|196:108|277:141|277:141|286:206|286:206|334:249|334:249|397:244,1,400
410,142,355502,1,0,0:0:0:0:
312,101,356114,1,0,0:0:0:0:
250,182,356726,1,0,0:0:0:0:
147,205,357338,1,0,0:0:0:0:
43,275,357951,6,0,B|101:326|101:326|183:326|183:326|255:223|383:249|383:249|384:200,1,425
256,192,360400,12,0,362848,0:0:0:0:
