osu file format v14

[General]
AudioFilename: audio.mp3
AudioLeadIn: 0
PreviewTime: 1106767
Countdown: 0
SampleSet: Soft
StackLeniency: 0.3
Mode: 0
LetterboxInBreaks: 0
WidescreenStoryboard: 0

[Editor]
Bookmarks: 2519,53389,120377,162067,220565,278390,323348,371040,426691,462490,508057,553782,604797,671628,717331,757625,797183,858883,918937,954013,993691,1046722,1090776,1130732,1178376,1178754,1219721,1261264,1301995,1337270,1372223
DistanceSpacing: 0.6
BeatDivisor: 4
GridSize: 4
TimelineZoom: 2

[Metadata]
Title:Songs Compilation
TitleUnicode:Songs Compilation
Artist:Aqours
ArtistUnicode:Aqours
Creator:[C u r i]
Version:Sailing to the Sunshine
Source:ラブライブ!サンシャイン!!
Tags:Love Live! Sunshine!! 浦の星女学院 Ura no Hoshi Jogakuin Anime OP Opening ED Ending 1st 2nd 3rd Single Album Next Step! Project Saint Snow 青空Jumping Heart 未熟DREAMER 想いよひとつになれ MIRAI TICKET Pops heartで踊るんだもん! Daydream Warrior 太陽を追いかけろ! ユメ語るよりユメ歌おう 未来の僕らは知ってるよ MY舞☆TONIGHT MIRACLE WAVE Awaken the power WATER BLUE NEW WORLD WONDERFUL STORIES 勇気はどこに?君の胸に! 君のこころは輝いてるかい? 恋になりたいAQUARIUM 待ってて愛のうた HAPPY PARTY TRAIN SKY JOURNEY 少女以上の恋がしたい Landing action Yeah!! キセキヒカル Thank you, FRIENDS!! No.10 僕らの走ってきた道は・・・ Next SPARKLING!! Brightest Melody Hop? Stop? Nonstop! 高海 千歌 Takami Chika 渡辺 曜 Watanabe You 黒澤 ルビィ Kurosawa Ruby 松浦 果南 Matsuura Kanan 国木田 花丸 Kunikida Hanamaru 黒澤 ダイヤ Kurosawa Dia 桜内 梨子 Sakurauchi Riko 小原 鞠莉 Ohara Mari 津島 善子 Tsushima Yoshiko Irohas Taeyang _Meep_ Atalanta milr_
BeatmapID:1724339
BeatmapSetID:822727

[Difficulty]
HPDrainRate:7
CircleSize:4
OverallDifficulty:8.3
ApproachRate:9.2
SliderMultiplier:1.67
SliderTickRate:1

[Events]
//Background and Video events
0,0,"cropped-1920-1080-807884.jpg",0,0
//Break Periods
2,48319,122664
2,154862,166497
2,179766,281375
2,321034,373488
2,423881,467283
2,501572,555580
2,595666,1050845
//Storyboard Layer 0 (Background)
//Storyboard Layer 1 (Fail)
//Storyboard Layer 2 (Pass)
//Storyboard Layer 3 (Foreground)
//Storyboard Sound Samples

[TimingPoints]
2519,300,4,2,1,70,1,0
2519,-83.3333333333333,4,2,1,70,0,0
7244,-83.3333333333333,4,2,1,5,0,0
7319,-83.3333333333333,4,2,1,70,0,0
14519,-100,4,2,1,70,0,0
14744,-100,4,2,1,5,0,0
14819,-83.3333333333333,4,2,1,70,0,0
15794,-83.3333333333333,4,2,1,5,0,0
15869,-83.3333333333333,4,2,1,70,0,0
17969,-100,4,2,1,70,0,0
18194,-100,4,2,1,5,0,0
18269,-83.3333333333333,4,2,1,70,0,0
20594,-83.3333333333333,4,2,1,5,0,0
20669,-83.3333333333333,4,2,1,70,0,0
21119,-66.6666666666667,4,2,1,70,0,0
21344,-66.6666666666667,4,2,1,5,0,0
21419,-66.6666666666667,4,2,1,70,0,0
21644,-66.6666666666667,4,2,1,5,0,0
21719,-83.3333333333333,4,2,1,70,0,0
21944,-83.3333333333333,4,2,1,5,0,0
22019,-66.6666666666667,4,2,1,70,0,0
22169,-83.3333333333333,4,2,1,70,0,0
23144,-83.3333333333333,4,2,1,5,0,0
23219,-66.6666666666667,4,2,1,70,0,0
23369,-83.3333333333333,4,2,1,70,0,0
26444,-83.3333333333333,4,2,1,5,0,0
26519,-83.3333333333333,4,2,1,70,0,0
34994,-83.3333333333333,4,2,1,5,0,0
35069,-83.3333333333333,4,2,1,70,0,0
37169,-100,4,2,1,70,0,0
37394,-100,4,2,1,5,0,0
37469,-83.3333333333333,4,2,1,70,0,0
39794,-83.3333333333333,4,2,1,5,0,0
39869,-83.3333333333333,4,2,1,70,0,0
40319,-66.6666666666667,4,2,1,70,0,0
40544,-66.6666666666667,4,2,1,5,0,0
40619,-66.6666666666667,4,2,1,70,0,0
40844,-66.6666666666667,4,2,1,5,0,0
40919,-100,4,2,1,70,0,0
43244,-100,4,2,1,5,0,0
43319,-166.666666666667,4,2,1,70,0,0
53389,375,4,2,1,70,1,0
120377,357.142857142857,4,2,1,70,1,0
123234,-111.111111111111,4,2,1,40,0,0
127519,-83.3333333333333,4,2,1,40,0,0
127877,-133.333333333333,4,2,1,40,0,0
128234,-83.3333333333333,4,2,1,40,0,0
128948,-111.111111111111,4,2,1,60,0,0
133234,-111.111111111111,4,2,1,60,0,0
134662,-111.111111111111,4,2,1,60,0,0
137519,-90.9090909090909,4,2,1,60,0,0
138234,-83.3333333333333,4,2,1,60,0,0
138412,-111.111111111111,4,2,1,60,0,0
139662,-83.3333333333333,4,2,1,60,0,0
139841,-76.9230769230769,4,2,1,90,0,0
140019,-142.857142857143,4,2,1,60,0,0
140377,-111.111111111111,4,2,1,60,0,0
151448,-76.9230769230769,4,2,1,60,0,0
162067,357.142857142857,4,2,1,70,1,0
167067,-125,4,2,1,70,0,0
170638,-100,4,2,1,70,0,0
174745,-76.9230769230769,4,2,1,70,0,0
175638,-100,4,2,1,70,0,0
175995,-83.3333333333333,4,2,1,70,0,0
176352,-90.9090909090909,4,2,1,70,0,0
220565,315.789473684211,4,2,1,70,1,0
278390,444.444444444444,4,2,1,40,1,0
283723,-142.857142857143,4,2,1,40,0,0
283945,-111.111111111111,4,2,1,40,0,0
284167,-90.9090909090909,4,2,1,40,0,0
284390,-76.9230769230769,4,2,1,40,0,0
284612,-76.9230769230769,4,2,1,55,0,0
285501,-66.6666666666667,4,2,1,70,0,0
320834,-66.6666666666667,4,2,1,10,0,0
323348,526.315789473684,4,2,1,70,1,0
371040,377.358490566038,4,2,1,70,1,0
374058,-83.3333333333333,4,2,1,70,0,0
423681,-83.3333333333333,4,2,1,10,0,0
426691,331.491712707182,4,2,1,70,1,0
462490,335.195530726257,4,2,1,70,1,0
467015,-83.3333333333333,4,2,1,70,0,0
467182,-142.857142857143,4,2,1,70,0,0
467853,-90.9090909090909,4,2,1,70,0,0
468104,-90.9090909090909,4,2,1,5,0,0
468188,-111.111111111111,4,2,1,70,0,0
468439,-111.111111111111,4,2,1,5,0,0
468523,-111.111111111111,4,2,1,70,0,0
469445,-111.111111111111,4,2,1,5,0,0
469529,-111.111111111111,4,2,1,70,0,0
469780,-111.111111111111,4,2,1,5,0,0
469864,-111.111111111111,4,2,1,70,0,0
470534,-76.9230769230769,4,2,1,70,0,0
470786,-76.9230769230769,4,2,1,5,0,0
470869,-100,4,2,1,70,0,0
471121,-90.9090909090909,4,2,1,5,0,0
471205,-83.3333333333333,4,2,1,70,0,0
471456,-83.3333333333333,4,2,1,5,0,0
471540,-83.3333333333333,4,2,1,70,0,0
472043,-76.9230769230769,4,2,1,70,0,0
472210,-100,4,2,1,70,0,0
473551,-111.111111111111,4,2,1,70,0,0
473886,-90.9090909090908,4,2,1,70,0,0
474138,-111.111111111111,4,2,1,5,0,0
474221,-90.9090909090908,4,2,1,70,0,0
474473,-111.111111111111,4,2,1,5,0,0
474557,-71.4285714285714,4,2,1,70,0,0
474808,-71.4285714285714,4,2,1,5,0,0
474892,-100,4,2,1,70,0,0
475143,-83.3333333333333,4,2,1,5,0,0
475227,-83.3333333333333,4,2,1,70,0,0
475478,-83.3333333333333,4,2,1,5,0,0
475562,-83.3333333333333,4,2,1,70,0,0
475814,-83.3333333333333,4,2,1,5,0,0
475897,-111.111111111111,4,2,1,70,0,0
476903,-83.3333333333333,4,2,1,70,0,0
477238,-76.9230769230769,4,2,1,70,0,0
478579,-111.111111111111,4,2,1,70,0,0
478830,-111.111111111111,4,2,1,5,0,0
478914,-90.9090909090909,4,2,1,70,0,0
479165,-76.9230769230769,4,2,1,5,0,0
479249,-76.9230769230769,4,2,1,70,0,0
479584,-111.111111111111,4,2,1,70,0,0
479920,-111.111111111111,4,2,1,70,0,0
480171,-111.111111111111,4,2,1,5,0,0
480255,-90.9090909090908,4,2,1,70,0,0
480506,-111.111111111111,4,2,1,5,0,0
480590,-111.111111111111,4,2,1,70,0,0
481260,-83.3333333333333,4,2,1,70,0,0
481512,-83.3333333333333,4,2,1,5,0,0
481596,-83.3333333333333,4,2,1,70,0,0
481847,-83.3333333333333,4,2,1,5,0,0
481931,-111.111111111111,4,2,1,70,0,0
482182,-111.111111111111,4,2,1,5,0,0
482266,-90.9090909090908,4,2,1,70,0,0
482517,-90.9090909090908,4,2,1,5,0,0
482601,-76.9230769230769,4,2,1,70,0,0
482936,-100,4,2,1,70,0,0
484277,-111.111111111111,4,2,1,70,0,0
484612,-90.9090909090909,4,2,1,70,0,0
484864,-90.9090909090909,4,2,1,5,0,0
484948,-90.9090909090909,4,2,1,70,0,0
485199,-90.9090909090909,4,2,1,5,0,0
485283,-71.4285714285714,4,2,1,70,0,0
485534,-71.4285714285714,4,2,1,5,0,0
485618,-83.3333333333333,4,2,1,70,0,0
485869,-83.3333333333333,4,2,1,5,0,0
485953,-111.111111111111,4,2,1,70,0,0
486875,-111.111111111111,4,2,1,5,0,0
486959,-111.111111111111,4,2,1,70,0,0
487294,-133.333333333333,4,2,1,70,0,0
488383,-76.9230769230769,4,2,1,70,0,0
488467,-111.111111111111,4,2,1,70,0,0
488970,-66.6666666666667,4,2,1,70,0,0
489221,-50,4,2,1,70,0,0
489305,-100,4,2,1,70,0,0
491987,-111.111111111111,4,2,1,70,0,0
493830,-111.111111111111,4,2,1,70,0,0
508057,327.868852459016,4,2,1,70,1,0
553782,315.789473684211,4,2,1,70,1,0
556150,-111.111111111111,4,2,1,40,0,0
556939,-100,4,2,1,40,0,0
558045,-111.111111111111,4,2,1,40,0,0
559150,-133.333333333333,4,2,1,40,0,0
559466,-105.263157894737,4,2,1,40,0,0
559782,-83.3333333333333,4,2,1,40,0,0
560255,-100,4,2,1,40,0,0
561203,-111.111111111111,4,2,1,100,0,0
561518,-111.111111111111,4,2,1,60,0,0
561676,-111.111111111111,4,2,1,60,0,0
562545,-111.111111111111,4,2,1,5,0,0
562624,-111.111111111111,4,2,1,60,0,0
564203,-111.111111111111,4,2,1,60,0,0
565624,-111.111111111111,4,2,1,60,0,0
567124,-111.111111111111,4,2,1,5,0,0
567203,-111.111111111111,4,2,1,60,0,0
570360,-90.9090909090908,4,2,1,60,0,0
570676,-62.5,4,2,1,60,0,0
570834,-62.5,4,2,1,5,0,0
570992,-62.5,4,2,1,60,0,0
571150,-62.5,4,2,1,5,0,0
571308,-90.9090909090909,4,2,1,60,0,0
571782,-111.111111111111,4,2,1,60,0,0
572650,-111.111111111111,4,2,1,5,0,0
572729,-111.111111111111,4,2,1,60,0,0
576992,-90.9090909090909,4,2,1,60,0,0
577229,-90.9090909090909,4,2,1,5,0,0
577308,-111.111111111111,4,2,1,60,0,0
580939,-83.3333333333333,4,2,1,60,0,0
581413,-111.111111111111,4,2,1,60,0,0
581887,-111.111111111111,4,2,1,60,0,0
582676,-100,4,2,1,60,0,0
583308,-111.111111111111,4,2,1,60,0,0
586150,-76.9230769230769,4,2,1,60,0,0
586939,-111.111111111111,4,2,1,60,0,0
589466,-76.9230769230769,4,2,1,60,0,0
590334,-76.9230769230769,4,2,1,5,0,0
591518,-76.9230769230769,4,2,1,60,0,0
591597,-76.9230769230769,4,2,1,5,0,0
592150,-76.9230769230769,4,2,1,60,0,0
592229,-76.9230769230769,4,2,1,5,0,0
592466,-76.9230769230769,4,2,1,60,0,0
592545,-76.9230769230769,4,2,1,5,0,0
592782,-238.095238095238,4,2,1,60,0,0
595466,500,4,2,1,70,1,0
604797,342.857142857143,4,2,1,70,1,0
671628,372.670807453416,4,2,1,70,1,0
717331,359.281437125748,4,2,1,70,1,0
757625,329.67032967033,4,2,1,70,1,0
797183,431.654676258993,4,2,1,70,1,0
858883,545.454545454546,4,2,1,70,1,0
918937,352.941176470588,4,2,1,70,1,0
954013,379.746835443038,4,2,1,70,1,0
993691,480,4,2,1,70,1,0
1046722,408.163265306122,4,2,1,70,1,0
1051415,-83.3333333333333,4,2,1,70,0,0
1090776,405.405405405405,4,2,1,70,1,0
1130732,681.818181818182,4,2,1,70,1,0
1178376,612.244897959184,4,2,1,70,1,0
1178754,372.670807453416,4,2,1,70,1,0
1219721,480,4,2,1,70,1,0
1261264,705.882352941176,4,2,1,70,1,0
1301995,370.37037037037,4,2,1,70,1,0
1337270,324.324324324324,4,2,1,70,1,0
1372223,612.244897959184,4,2,1,70,1,0

[Colours]
Combo1 : 255,174,136
Combo2 : 255,255,87
Combo3 : 255,159,159
Combo4 : 255,176,255

[HitObjects]
120,235,2519,6,0,P|68:231|9:226,2,100.199996942139
233,195,2969,5,0,0:0:0:0:
282,371,3119,1,0,0:0:0:0:
101,319,3269,1,0,0:0:0:0:
327,180,3419,6,0,P|319:233|308:292,2,100.199996942139
36,116,3869,5,0,0:0:0:0:
203,175,4019,1,0,0:0:0:0:
351,54,4169,1,0,0:0:0:0:
270,27,4319,5,0,0:0:0:0:
326,229,4469,1,0,0:0:0:0:
411,202,4619,5,0,0:0:0:0:
359,379,4769,1,0,0:0:0:0:
509,321,4919,6,0,P|436:328|289:341,1,200.399993884278
36,137,5369,2,0,P|109:130|163:124,1,100.199996942139
299,247,5669,1,0,0:0:0:0:
111,358,5819,5,0,0:0:0:0:
129,227,5969,1,0,0:0:0:0:
147,96,6119,1,0,0:0:0:0:
299,18,6269,5,0,0:0:0:0:
210,187,6419,1,0,0:0:0:0:
331,368,6569,1,0,0:0:0:0:
331,368,6869,6,0,P|336:334|340:311,1,50.0999984710694
288,217,7019,2,0,P|345:275|448:287,1,150.299995413208
453,277,7319,6,0,P|444:226|434:161,1,100.199996942139
201,185,7619,2,0,P|252:194|317:204,1,100.199996942139
500,66,7919,5,0,0:0:0:0:
347,138,8069,1,0,0:0:0:0:
230,5,8219,2,0,P|222:62|214:121,1,100.199996942139
360,372,8519,6,0,P|368:305|271:201,1,200.399993884278
119,234,8969,1,0,0:0:0:0:
155,371,9119,5,0,0:0:0:0:
252,285,9269,1,0,0:0:0:0:
43,167,9419,2,0,P|32:228|19:291,1,100.199996942139
203,131,9719,6,0,P|195:69|184:1,1,100.199996942139
119,234,10019,2,0,P|184:244|236:252,1,100.199996942139
446,108,10319,5,0,0:0:0:0:
286,181,10469,1,0,0:0:0:0:
370,365,10619,2,0,P|378:311|383:251,1,100.199996942139
121,109,10919,6,0,P|182:177|299:174,1,200.399993884278
352,22,11369,2,0,P|419:28|481:32,1,100.199996942139
512,147,11669,5,0,0:0:0:0:
272,279,11819,2,0,P|219:285|150:295,1,100.199996942139
405,111,12119,6,0,P|397:165|388:230,1,100.199996942139
286,378,12419,2,0,P|278:324|269:259,1,100.199996942139
312,128,12719,5,0,0:0:0:0:
407,331,12869,1,0,0:0:0:0:
506,215,13019,2,0,P|451:220|389:225,1,100.199996942139
145,21,13319,6,0,P|217:93|203:213,1,200.399993884278
79,354,13769,1,0,0:0:0:0:
56,244,13919,5,0,0:0:0:0:
246,375,14069,1,0,0:0:0:0:
316,194,14219,2,0,P|258:190|195:183,1,100.199996942139
498,332,14519,6,0,P|429:338|341:345,1,125.25
340,364,14819,5,0,0:0:0:0:
246,158,14969,1,0,0:0:0:0:
404,232,15119,5,0,0:0:0:0:
172,254,15269,1,0,0:0:0:0:
305,83,15419,1,0,0:0:0:0:
256,350,15569,6,0,B|201:342|181:334|181:334|166:346|115:370,1,150.299995413208
88,384,15869,1,0,0:0:0:0:
176,158,16019,1,0,0:0:0:0:
30,92,16169,1,0,0:0:0:0:
96,248,16319,5,0,0:0:0:0:
180,45,16469,1,0,0:0:0:0:
180,45,16544,1,0,0:0:0:0:
180,45,16619,1,0,0:0:0:0:
322,218,16769,1,0,0:0:0:0:
221,368,16919,6,0,P|148:355|9:328,1,200.399993884278
176,158,17369,1,0,0:0:0:0:
307,317,17519,6,0,P|316:261|323:205,1,100.199996942139
162,138,17819,1,0,0:0:0:0:
312,22,17969,6,0,B|308:62|305:87|305:87|331:105|367:130,1,125.25
393,127,18269,6,0,P|403:197|413:251,1,100.199996942139
490,330,18569,1,0,0:0:0:0:
510,227,18719,5,0,0:0:0:0:
344,366,18869,1,0,0:0:0:0:
154,276,19019,2,0,P|219:285|285:293,1,100.199996942139
503,116,19319,6,0,P|440:166|310:149,1,200.399993884278
230,29,19769,1,0,0:0:0:0:
371,70,19919,5,0,0:0:0:0:
148,141,20069,1,0,0:0:0:0:
257,368,20219,1,0,0:0:0:0:
308,133,20369,6,0,P|317:199|333:301,1,150.299995413208
359,309,20669,1,0,0:0:0:0:
176,239,20819,1,0,0:0:0:0:
36,362,20969,1,0,0:0:0:0:
127,154,21119,6,0,B|99:112|99:112|72:68|101:24|150:26|172:65,1,187.875007166863
171,40,21419,2,0,B|200:28|238:59|230:111|181:126|181:126|132:139,1,187.875007166863
26,230,21719,6,0,P|111:242|212:254,1,150.299995413208
209,222,22019,2,0,P|215:253|224:300,1,62.6250023889543
69,368,22169,6,0,P|113:286|76:158,1,200.399993884278
308,235,22619,2,0,P|255:228|193:220,1,100.199996942139
39,89,22919,6,0,P|103:84|195:77,1,150.299995413208
224,51,23219,2,0,P|221:88|216:130,1,62.6250023889543
197,302,23369,1,0,0:0:0:0:
88,280,23519,5,0,0:0:0:0:
277,379,23669,1,0,0:0:0:0:
431,232,23819,1,0,0:0:0:0:
431,232,24119,6,0,P|374:227|315:221,1,100.199996942139
231,148,24419,5,0,0:0:0:0:
356,344,24569,1,0,0:0:0:0:
394,93,24719,5,0,0:0:0:0:
246,241,24869,1,0,0:0:0:0:
114,38,25019,5,0,0:0:0:0:
310,116,25169,2,0,P|298:188|278:328,1,200.399993884278
77,356,25619,6,0,P|147:368|202:378,1,100.199996942139
375,257,25919,1,0,0:0:0:0:
201,183,26069,6,0,P|196:149|193:128,1,50.0999984710694
300,29,26219,2,0,P|250:66|141:62,1,150.299995413208
118,53,26519,6,0,P|108:122|98:183,1,100.199996942139
258,364,26819,2,0,P|248:295|238:234,1,100.199996942139
13,188,27119,5,0,0:0:0:0:
161,292,27269,1,0,0:0:0:0:
329,192,27419,2,0,P|275:186|214:177,1,100.199996942139
226,380,27719,6,0,P|277:325|420:302,1,200.399993884278
511,346,28169,1,0,0:0:0:0:
332,175,28319,5,0,0:0:0:0:
495,88,28469,1,0,0:0:0:0:
409,279,28619,2,0,P|415:329|421:379,1,100.199996942139
512,181,28919,6,0,P|452:192|395:204,1,100.199996942139
251,150,29219,2,0,P|262:90|274:33,1,100.199996942139
408,20,29519,5,0,0:0:0:0:
328,189,29669,1,0,0:0:0:0:
131,150,29819,2,0,P|141:203|152:261,1,100.199996942139
318,373,30119,6,0,P|350:316|322:181,1,200.399993884278
218,69,30569,1,0,0:0:0:0:
335,37,30719,5,0,0:0:0:0:
151,3,30869,1,0,0:0:0:0:
317,176,31019,2,0,P|390:167|446:161,1,100.199996942139
209,76,31319,6,0,P|201:127|191:187,1,100.199996942139
344,366,31619,2,0,P|336:315|326:255,1,100.199996942139
362,136,31919,5,0,0:0:0:0:
115,251,32069,1,0,0:0:0:0:
227,372,32219,2,0,P|289:365|341:358,1,100.199996942139
202,212,32519,6,0,P|112:212|30:133,1,200.399993884278
14,30,32969,1,0,0:0:0:0:
156,120,33119,5,0,0:0:0:0:
29,272,33269,1,0,0:0:0:0:
242,371,33419,2,0,P|255:305|268:251,1,100.199996942139
137,21,33719,6,0,P|148:79|159:138,1,100.199996942139
315,120,34019,5,0,0:0:0:0:
162,234,34169,1,0,0:0:0:0:
324,341,34319,5,0,0:0:0:0:
255,181,34469,1,0,0:0:0:0:
466,221,34619,1,0,0:0:0:0:
396,28,34769,6,0,B|361:48|327:68|327:68|287:56|241:45,1,150.299995413208
220,36,35069,5,0,0:0:0:0:
360,147,35219,1,0,0:0:0:0:
229,299,35369,1,0,0:0:0:0:
192,192,35519,5,0,0:0:0:0:
335,317,35669,1,0,0:0:0:0:
335,317,35744,1,0,0:0:0:0:
335,317,35819,1,0,0:0:0:0:
152,379,35969,1,0,0:0:0:0:
273,157,36119,6,0,P|188:146|62:127,1,200.399993884278
0,231,36569,1,0,0:0:0:0:
160,363,36719,2,0,P|153:305|144:242,1,100.199996942139
366,174,37019,1,0,0:0:0:0:
250,384,37169,6,0,B|284:368|306:354|306:354|337:365|384:377,1,125.25
397,347,37469,6,0,P|454:352|508:357,1,100.199996942139
285,217,37769,1,0,0:0:0:0:
495,84,37919,5,0,0:0:0:0:
450,194,38069,1,0,0:0:0:0:
380,17,38219,2,0,P|322:11|259:4,1,100.199996942139
110,294,38519,6,0,P|164:244|306:220,1,200.399993884278
394,246,38969,1,0,0:0:0:0:
241,364,39119,5,0,0:0:0:0:
150,141,39269,1,0,0:0:0:0:
262,104,39419,1,0,0:0:0:0:
185,297,39569,6,0,P|123:290|27:280,1,150.299995413208
8,252,39869,1,0,0:0:0:0:
224,172,40019,1,0,0:0:0:0:
139,30,40169,1,0,0:0:0:0:
375,83,40319,6,0,B|404:71|442:102|434:154|385:169|385:169|336:182,1,187.875007166863
331,197,40619,2,0,B|303:155|303:155|276:111|305:67|354:69|376:108,1,187.875007166863
219,24,40919,6,0,P|209:95|195:208,1,167
285,272,41369,1,0,0:0:0:0:
171,379,41519,5,0,0:0:0:0:
84,358,41819,1,0,0:0:0:0:
0,336,42119,5,0,0:0:0:0:
144,293,42269,2,0,P|133:222|115:109,1,167
24,71,42719,2,0,B|105:129|174:90|174:90|259:40|333:96,1,292.25
346,93,43319,6,0,B|333:172|391:230|391:230|421:187|475:177|475:177|465:226|497:285,1,350.699989297486
490,272,44444,1,0,0:0:0:0:
490,272,44519,6,0,P|448:321|434:366,1,100.199996942139
265,268,44969,1,0,0:0:0:0:
367,248,45119,5,0,0:0:0:0:
170,290,45269,1,0,0:0:0:0:
285,361,45419,5,0,0:0:0:0:
370,146,45569,1,0,0:0:0:0:
172,27,45719,1,0,0:0:0:0:
256,192,45794,12,0,48119,0:0:0:0:
205,344,123234,54,0,P|168:309|61:336,1,150.299995413208,0|0,0:0|0:0,0:0:0:0:
182,225,123769,1,0,0:0:0:0:
186,221,123859,1,0,0:0:0:0:
190,217,123948,2,0,P|197:170|204:125,1,75.1499977066041,0|0,0:0|0:0,0:0:0:0:
113,90,124305,2,0,P|69:105|31:102,1,75.1499977066041,0|0,0:0|0:0,0:0:0:0:
295,245,124662,6,0,B|365:249|365:203|451:212,1,150.299995413208,0|0,0:0|0:0,0:0:0:0:
330,114,125198,2,0,P|333:79|345:36,1,75.1499977066041,0|0,0:0|0:0,0:0:0:0:
132,153,125555,1,0,0:0:0:0:
295,245,125734,1,0,0:0:0:0:
245,152,125912,1,0,0:0:0:0:
237,153,126002,1,0,0:0:0:0:
232,158,126091,5,0,0:0:0:0:
80,239,126269,1,0,0:0:0:0:
0,83,126448,1,0,0:0:0:0:
167,2,126627,1,0,0:0:0:0:
114,119,126805,5,0,0:0:0:0:
308,241,126984,1,0,0:0:0:0:
81,359,127162,1,0,0:0:0:0:
168,225,127341,5,0,0:0:0:0:
172,230,127430,1,0,0:0:0:0:
177,236,127519,2,0,P|183:266|187:303,1,50.0999984710694,0|0,0:0|0:0,0:0:0:0:
307,378,127698,2,0,P|309:346|323:311,1,50.0999984710694,0|0,0:0|0:0,0:0:0:0:
400,268,127877,5,0,0:0:0:0:
428,256,127966,1,0,0:0:0:0:
459,258,128055,1,0,0:0:0:0:
487,273,128144,1,0,0:0:0:0:
504,297,128234,6,0,P|513:256|517:242,1,50.0999984710694,0|0,0:0|0:0,0:0:0:0:
366,68,128412,2,0,P|357:109|353:123,1,50.0999984710694,0|0,0:0|0:0,0:0:0:0:
439,170,128591,6,0,P|479:161|502:158,1,50.0999984710694,0|0,0:0|0:0,0:0:0:0:
272,32,128769,2,0,P|232:41|209:44,1,50.0999984710694,0|0,0:0|0:0,0:0:0:0:
42,214,128948,6,0,B|113:223|117:172|198:186,1,150.299995413208,0|0,0:0|0:0,0:0:0:0:
276,231,129484,1,0,0:0:0:0:
273,236,129573,1,0,0:0:0:0:
270,241,129662,2,0,P|263:286|261:327,1,75.1499977066041,0|0,0:0|0:0,0:0:0:0:
113,92,130019,2,0,P|120:47|122:6,1,75.1499977066041,0|0,0:0|0:0,0:0:0:0:
231,103,130377,6,0,P|290:94|394:79,1,150.299995413208,0|0,0:0|0:0,0:0:0:0:
472,143,130912,1,0,0:0:0:0:
468,139,131002,1,0,0:0:0:0:
467,133,131091,2,0,P|474:89|483:45,1,75.1499977066041,0|0,0:0|0:0,0:0:0:0:
356,197,131448,1,0,0:0:0:0:
438,277,131627,5,0,0:0:0:0:
438,277,131716,1,0,0:0:0:0:
438,277,131805,2,0,P|477:270|523:266,1,75.1499977066041,0|0,0:0|0:0,0:0:0:0:
290,107,132162,2,0,P|251:114|205:118,1,75.1499977066041,0|0,0:0|0:0,0:0:0:0:
290,326,132519,6,0,P|294:283|301:242,1,75.1499977066041,0|0,0:0|0:0,0:0:0:0:
132,40,132877,2,0,P|129:87|123:126,1,75.1499977066041,0|0,0:0|0:0,0:0:0:0:
51,188,133234,5,0,0:0:0:0:
218,91,133412,1,0,0:0:0:0:
60,0,133591,1,0,0:0:0:0:
224,220,133769,1,0,0:0:0:0:
241,216,133859,1,0,0:0:0:0:
259,211,133948,1,0,0:0:0:0:
320,105,134127,5,0,0:0:0:0:
117,226,134305,1,0,0:0:0:0:
305,349,134484,1,0,0:0:0:0:
241,224,134662,6,0,P|235:175|222:71,1,150.299995413208,0|0,0:0|0:0,0:0:0:0:
288,4,135198,1,0,0:0:0:0:
294,8,135287,1,0,0:0:0:0:
299,10,135377,2,0,P|336:6|373:0,1,75.1499977066041,0|0,0:0|0:0,0:0:0:0:
325,267,135734,2,0,P|362:270|399:277,1,75.1499977066041,0|0,0:0|0:0,0:0:0:0:
206,166,136091,6,0,B|140:160|139:211|48:200,1,150.299995413208,0|0,0:0|0:0,0:0:0:0:
225,84,136627,1,0,0:0:0:0:
230,70,136716,1,0,0:0:0:0:
230,55,136805,1,0,0:0:0:0:
145,2,136984,5,0,0:0:0:0:
333,111,137162,2,0,P|369:101|417:103,1,75.1499977066041,0|0,0:0|0:0,0:0:0:0:
243,201,137519,6,0,B|223:327|223:327|241:292|285:284,1,183.700005606079,0|0,0:0|0:0,0:0:0:0:
304,372,138055,1,0,0:0:0:0:
124,261,138234,2,0,P|96:254|60:256,1,50.0999984710694,0|0,0:0|0:0,0:0:0:0:
137,183,138412,1,0,0:0:0:0:
145,173,138502,1,0,0:0:0:0:
158,172,138591,2,0,P|165:127|173:82,1,75.1499977066041,0|0,0:0|0:0,0:0:0:0:
75,127,138859,5,0,0:0:0:0:
64,133,138948,1,0,0:0:0:0:
269,245,139127,1,0,0:0:0:0:
362,216,139305,1,0,0:0:0:0:
454,188,139484,1,0,0:0:0:0:
459,193,139573,1,0,0:0:0:0:
466,200,139662,6,0,P|470:235|476:268,1,50.0999984710694,0|0,0:0|0:0,0:0:0:0:
353,366,139841,2,0,P|355:329|366:304,1,54.2749975154878,0|0,0:0|0:0,0:0:0:0:
269,245,140019,1,0,0:0:0:0:
242,233,140109,1,0,0:0:0:0:
213,233,140198,1,0,0:0:0:0:
186,244,140287,1,0,0:0:0:0:
166,265,140377,6,0,P|160:215|147:112,1,150.299995413208,0|0,0:0|0:0,0:0:0:0:
88,30,140912,1,0,0:0:0:0:
91,36,141002,1,0,0:0:0:0:
96,41,141091,2,0,P|129:38|189:27,1,75.1499977066041,0|0,0:0|0:0,0:0:0:0:
369,141,141448,2,0,P|336:149|277:128,1,75.1499977066041,0|0,0:0|0:0,0:0:0:0:
85,311,141805,6,0,P|122:278|233:303,1,150.299995413208,0|0,0:0|0:0,0:0:0:0:
339,361,142341,1,0,0:0:0:0:
336,355,142430,1,0,0:0:0:0:
332,349,142519,2,0,P|338:302|344:266,1,75.1499977066041,0|0,0:0|0:0,0:0:0:0:
232,85,142877,2,0,P|226:132|220:168,1,75.1499977066041,0|0,0:0|0:0,0:0:0:0:
139,237,143234,5,0,0:0:0:0:
331,147,143412,1,0,0:0:0:0:
160,34,143591,1,0,0:0:0:0:
230,157,143769,1,0,0:0:0:0:
160,34,143948,6,0,P|115:49|81:42,1,75.1499977066041,0|0,0:0|0:0,0:0:0:0:
368,234,144305,2,0,P|413:219|447:226,1,75.1499977066041,0|0,0:0|0:0,0:0:0:0:
240,371,144662,6,0,B|193:345|193:345|226:241,1,150.299995413208,0|0,0:0|0:0,0:0:0:0:
147,173,145198,1,0,0:0:0:0:
142,177,145287,1,0,0:0:0:0:
139,182,145377,2,0,P|101:190|43:204,1,75.1499977066041,0|0,0:0|0:0,0:0:0:0:
81,103,145734,5,0,0:0:0:0:
142,270,145912,1,0,0:0:0:0:
258,138,146091,6,0,P|304:118|390:182,1,150.299995413208,0|0,0:0|0:0,0:0:0:0:
478,158,146627,1,0,0:0:0:0:
473,153,146716,1,0,0:0:0:0:
470,147,146805,2,0,P|474:109|480:70,1,75.1499977066041,0|0,0:0|0:0,0:0:0:0:
327,205,147162,1,0,0:0:0:0:
465,318,147341,1,0,0:0:0:0:
379,372,147519,6,0,B|312:379|309:324|218:344,1,150.299995413208,0|0,0:0|0:0,0:0:0:0:
53,195,148055,1,0,0:0:0:0:
27,286,148234,2,0,P|82:276|126:269,1,75.1499977066041,0|0,0:0|0:0,0:0:0:0:
198,201,148591,1,0,0:0:0:0:
35,105,148769,1,0,0:0:0:0:
127,39,148948,5,0,0:0:0:0:
127,39,149305,5,0,0:0:0:0:
144,123,149484,1,0,0:0:0:0:
352,239,149662,5,0,0:0:0:0:
374,147,149841,1,0,0:0:0:0:
228,242,150019,5,0,0:0:0:0:
201,325,150198,1,0,0:0:0:0:
332,353,150377,5,0,0:0:0:0:
80,230,150555,1,0,0:0:0:0:
280,117,150734,1,0,0:0:0:0:
232,234,150912,5,0,0:0:0:0:
93,105,151091,1,0,0:0:0:0:
186,0,151269,5,0,0:0:0:0:
189,8,151359,1,0,0:0:0:0:
192,15,151448,2,0,P|188:50|181:92,1,54.2749975154878,0|0,0:0|0:0,0:0:0:0:
405,198,151627,2,0,P|408:163|416:121,1,54.2749975154878,0|0,0:0|0:0,0:0:0:0:
232,234,151805,5,0,0:0:0:0:
256,192,151894,12,0,154662,0:0:0:0:
143,67,167067,5,0,0:0:0:0:
109,147,167424,1,0,0:0:0:0:
160,217,167781,6,0,P|202:202|309:193,1,133.6
253,16,168317,1,0,0:0:0:0:
429,120,168495,2,0,P|362:114|298:94,1,133.6
156,335,169209,6,0,B|244:321|201:375|308:350,2,133.6
41,317,170102,1,0,0:0:0:0:
41,317,170192,1,0,0:0:0:0:
41,317,170281,2,0,P|51:354|52:368,1,33.4
112,255,170459,2,0,P|115:238|121:222,1,33.4
156,335,170638,5,0,0:0:0:0:
30,220,170817,1,0,0:0:0:0:
71,111,170995,1,0,0:0:0:0:
21,228,171174,1,0,0:0:0:0:
161,138,171352,5,0,0:0:0:0:
3,55,171531,1,0,0:0:0:0:
14,237,171709,1,0,0:0:0:0:
247,127,171888,6,0,P|289:108|395:102,1,125.25
387,102,172245,1,0,0:0:0:0:
229,29,172424,1,0,0:0:0:0:
316,277,172602,6,0,P|332:225|325:198,1,83.5
189,344,172959,1,0,0:0:0:0:
156,335,173048,1,0,0:0:0:0:
122,333,173137,1,0,0:0:0:0:
244,227,173317,1,0,0:0:0:0:
338,370,173495,5,0,0:0:0:0:
438,273,173674,1,0,0:0:0:0:
332,384,173852,1,0,0:0:0:0:
229,221,174031,1,0,0:0:0:0:
435,30,174209,1,0,0:0:0:0:
464,58,174298,1,0,0:0:0:0:
480,97,174387,1,0,0:0:0:0:
478,138,174476,1,0,0:0:0:0:
460,175,174567,2,0,L|449:126,1,41.75
287,15,174745,6,0,P|220:56|245:146,1,162.824992546463
238,137,175102,2,0,P|257:106|258:83,1,54.2749975154878
152,1,175281,1,0,0:0:0:0:
58,305,175638,5,0,0:0:0:0:
58,305,175727,2,0,P|117:284|154:286,1,83.5
205,248,175995,2,0,P|156:294|185:367,1,150.299995413208
256,319,176352,6,0,B|368:284|316:373|455:319,1,183.700005606079
490,253,176888,1,0,0:0:0:0:
362,82,177067,1,0,0:0:0:0:
387,245,177245,1,0,0:0:0:0:
452,39,177424,1,0,0:0:0:0:
288,169,177602,6,0,L|140:153,1,137.775004204559
129,145,177959,1,0,0:0:0:0:
60,20,178138,2,0,B|97:-3|97:-3|157:9,1,91.8500028030396
13,197,178495,2,0,B|-10:160|-10:160|2:100,1,91.8500028030396
18,99,178763,1,0,0:0:0:0:
18,99,178852,2,0,L|6:152,1,45.9250014015198
14,282,179031,1,0,0:0:0:0:
265,358,179209,6,0,P|317:323|448:340,1,183.700005606079
136,176,281945,6,0,L|191:172,1,41.75
130,185,282167,2,0,L|185:181,1,41.75
101,266,282390,6,0,L|156:262,1,41.75
95,275,282612,2,0,L|150:271,1,41.75
261,282,282834,6,0,P|273:232|273:225,1,41.75
273,275,283056,2,0,P|280:224|279:217,1,41.75
269,151,283278,6,0,P|257:101|257:94,1,41.75
257,144,283501,2,0,P|249:93|250:86,1,41.75
372,47,283723,6,0,L|365:103,1,29.2249991081238
379,60,283945,6,0,L|371:122,1,37.574998853302
386,73,284167,6,0,L|378:139,1,45.9250014015198
393,86,284390,6,0,L|386:155,1,54.2749975154878
393,230,284612,6,0,B|378:298|361:316|361:316|366:292|357:221,2,162.824992546463
290,109,285501,6,0,B|262:90|262:90|171:104,1,125.250004777909
81,231,285945,2,0,L|205:243,1,125.250004777909
80,128,286390,1,0,0:0:0:0:
3,281,286612,1,0,0:0:0:0:
6,297,286723,1,0,0:0:0:0:
9,313,286834,2,0,L|133:325,1,125.250004777909
336,288,287278,6,0,P|279:288|276:345,1,125.250004777909
471,377,287723,1,0,0:0:0:0:
389,205,287945,1,0,0:0:0:0:
380,356,288167,2,0,L|389:208,1,125.250004777909
386,77,288612,1,0,0:0:0:0:
494,231,288834,1,0,0:0:0:0:
325,129,289056,6,0,P|303:73|332:16,1,125.250004777909
466,0,289501,1,0,0:0:0:0:
384,185,289723,1,0,0:0:0:0:
384,185,289945,2,0,L|227:171,1,125.250004777909
416,271,290390,2,0,L|259:257,1,125.250004777909
70,233,290834,6,0,B|61:322|61:322|90:352,1,125.250004777909
210,236,291278,1,0,0:0:0:0:
92,129,291501,1,0,0:0:0:0:
152,292,291723,1,0,0:0:0:0:
152,292,291945,2,0,L|170:147,1,125.250004777909
85,347,292390,1,0,0:0:0:0:
240,277,292612,6,0,L|258:132,1,125.250004777909
426,211,293056,1,0,0:0:0:0:
370,11,293278,1,0,0:0:0:0:
437,196,293501,2,0,P|461:138|438:80,1,125.250004777909
379,137,293945,2,0,B|345:115|345:115|256:127,1,125.250004777909
189,276,294390,6,0,B|155:298|155:298|66:286,1,125.250004777909
61,124,294834,1,0,0:0:0:0:
205,266,295056,1,0,0:0:0:0:
8,339,295278,2,0,P|-9:280|17:225,1,125.250004777909
137,179,295723,1,0,0:0:0:0:
248,343,295945,1,0,0:0:0:0:
440,292,296167,6,0,L|315:282,1,125.250004777909
463,374,296612,1,0,0:0:0:0:
417,210,296834,1,0,0:0:0:0:
417,210,297056,2,0,L|292:200,1,125.250004777909
141,327,297501,1,0,0:0:0:0:
205,90,297723,1,0,0:0:0:0:
205,90,298167,5,0,0:0:0:0:
292,200,298390,1,0,0:0:0:0:
153,220,298612,1,0,0:0:0:0:
294,121,298834,2,0,L|347:127,7,31.3125011944771
353,148,299278,6,0,P|375:206|348:260,1,125.250004777909
190,345,299723,1,0,0:0:0:0:
292,200,299945,1,0,0:0:0:0:
408,316,300167,2,0,L|248:296,1,125.250004777909
119,286,300612,1,0,0:0:0:0:
259,299,300834,2,0,L|116:285,1,125.250004777909
91,80,301278,6,0,P|157:80|199:136,1,125.250004777909
87,352,301723,1,0,0:0:0:0:
87,352,301945,2,0,P|54:294|81:229,1,125.250004777909
243,210,302390,1,0,0:0:0:0:
134,286,302612,1,0,0:0:0:0:
124,152,302834,1,0,0:0:0:0:
257,220,303056,1,0,0:0:0:0:
87,352,303278,6,0,P|54:294|81:229,1,125.250004777909
229,127,303723,2,0,L|371:137,1,125.250004777909
440,323,304167,1,0,0:0:0:0:
440,323,304390,2,0,L|315:314,1,125.250004777909
488,234,304834,1,0,0:0:0:0:
488,234,305056,6,0,L|363:225,1,125.250004777909
156,210,305501,2,0,B|134:244|134:244|159:327,1,125.250004777909
238,193,305945,1,0,0:0:0:0:
166,344,306167,1,0,0:0:0:0:
230,172,306390,2,0,P|184:131|123:134,1,125.250004777909
64,298,306834,5,0,0:0:0:0:
274,238,307056,1,0,0:0:0:0:
274,238,307278,2,0,L|286:113,1,125.250004777909
109,144,307723,1,0,0:0:0:0:
271,262,307945,1,0,0:0:0:0:
375,100,308167,2,0,L|362:224,1,125.250004777909
320,39,308612,6,0,P|376:16|434:41,1,125.250004777909
494,141,309056,1,0,0:0:0:0:
360,243,309278,1,0,0:0:0:0:
375,100,309501,2,0,L|362:224,1,125.250004777909
286,113,309945,1,0,0:0:0:0:
447,223,310167,1,0,0:0:0:0:
347,327,310389,6,0,B|304:356|304:356|208:325|208:325|232:350,2,187.875007166863
191,250,311278,2,0,B|156:253|122:293|120:326|135:352|143:369|143:369|126:356|116:344,2,187.875007166863
367,231,312167,6,0,B|398:192|398:192|390:84,1,125.250004777909
332,63,312501,2,0,P|390:81|444:52,1,125.250004777909
382,4,312834,1,0,0:0:0:0:
265,192,313056,1,0,0:0:0:0:
478,256,313278,1,0,0:0:0:0:
382,4,313501,1,0,0:0:0:0:
256,192,313945,12,0,320834,0:0:0:0:
111,233,374058,6,0,P|153:256|225:226,1,100.199996942139
303,129,374436,1,0,0:0:0:0:
158,74,374624,1,0,0:0:0:0:
159,98,374718,1,0,0:0:0:0:
161,123,374812,1,0,0:0:0:0:
163,148,374907,1,0,0:0:0:0:
165,173,375001,1,0,0:0:0:0:
250,37,375190,1,0,0:0:0:0:
61,98,375379,1,0,0:0:0:0:
109,233,375568,6,0,P|151:256|223:226,2,100.199996942139
236,320,376134,2,0,P|139:335|50:294,1,200.399993884278
165,173,376700,1,0,0:0:0:0:
256,305,376889,1,0,0:0:0:0:
320,103,377077,1,0,0:0:0:0:
320,103,378775,5,0,0:0:0:0:
256,305,378963,1,0,0:0:0:0:
165,173,379152,1,0,0:0:0:0:
379,46,379341,2,0,P|404:115|364:175,2,150.299995413208
306,227,380096,6,0,L|405:238,1,100.199996942139
283,225,380473,1,0,0:0:0:0:
437,146,380662,1,0,0:0:0:0:
453,330,380851,2,0,L|353:318,1,100.199996942139
475,333,381228,1,0,0:0:0:0:
215,291,381417,6,0,B|212:324|230:343|230:343|270:277|246:203,1,200.399993884278
174,46,381983,1,0,0:0:0:0:
113,248,382172,1,0,0:0:0:0:
301,145,382360,2,0,P|257:122|209:133,1,100.199996942139
50,210,382738,2,0,L|62:309,1,100.199996942139
231,343,383115,5,0,0:0:0:0:
131,175,383304,2,0,L|144:275,1,100.199996942139
209,133,383681,1,0,0:0:0:0:
50,210,383870,2,0,L|62:309,1,100.199996942139
231,343,384247,1,0,0:0:0:0:
52,330,384436,1,0,0:0:0:0:
309,282,384624,6,0,B|365:273|365:273|195:242,2,200.399993884278
204,244,385568,1,0,0:0:0:0:
351,167,385756,1,0,0:0:0:0:
336,363,385945,1,0,0:0:0:0:
336,363,386040,1,0,0:0:0:0:
336,363,386134,5,0,0:0:0:0:
187,242,386323,1,0,0:0:0:0:
313,91,386511,2,0,P|361:83|406:105,1,100.199996942139
416,123,386794,1,0,0:0:0:0:
423,142,386889,1,0,0:0:0:0:
387,264,387077,1,0,0:0:0:0:
387,264,387266,2,0,L|263:250,1,100.199996942139
429,177,387643,5,0,0:0:0:0:
336,363,387832,1,0,0:0:0:0:
213,284,388021,2,0,P|206:235|233:194,1,100.199996942139
429,177,388398,2,0,L|305:163,1,100.199996942139
151,142,388775,1,0,0:0:0:0:
304,54,388964,6,0,B|348:21|348:21|328:173,1,200.399993884278
206,83,389530,2,0,P|161:61|113:71,1,100.199996942139
44,224,389907,1,0,0:0:0:0:
219,303,390096,1,0,0:0:0:0:
151,142,390285,2,0,L|144:263,1,100.199996942139
328,185,390662,5,0,0:0:0:0:
100,81,390851,1,0,0:0:0:0:
124,331,391040,1,0,0:0:0:0:
277,118,391228,2,0,P|322:100|370:114,1,100.199996942139
388,132,391511,1,0,0:0:0:0:
386,157,391605,1,0,0:0:0:0:
384,182,391700,1,0,0:0:0:0:
382,207,391794,1,0,0:0:0:0:
380,232,391889,1,0,0:0:0:0:
378,257,391984,1,0,0:0:0:0:
376,282,392078,1,0,0:0:0:0:
374,307,392172,5,0,0:0:0:0:
186,271,392360,2,0,L|179:171,1,100.199996942139
278,346,392738,1,0,0:0:0:0:
103,316,392926,2,0,L|96:216,1,100.199996942139
328,185,393304,1,0,0:0:0:0:
255,327,393492,6,0,B|293:265|258:232|224:199|262:135,1,200.399993884278
436,55,394058,1,0,0:0:0:0:
371,259,394247,1,0,0:0:0:0:
318,78,394436,2,0,P|275:56|226:65,1,100.199996942139
104,207,394813,2,0,L|92:83,1,100.199996942139
164,272,395190,5,0,0:0:0:0:
20,256,395379,2,0,L|8:132,1,100.199996942139
21,274,395756,1,0,0:0:0:0:
221,211,395945,2,0,P|245:253|240:302,1,100.199996942139
161,375,396323,1,0,0:0:0:0:
104,207,396511,1,0,0:0:0:0:
281,154,396700,6,0,P|324:228|300:361,1,200.399993884278
221,211,397266,1,0,0:0:0:0:
221,211,397360,1,0,0:0:0:0:
221,211,397455,2,0,P|245:253|240:302,1,100.199996942139
229,321,397738,2,0,B|191:306|191:306|98:313,1,100.199996942139
111,315,398021,1,0,0:0:0:0:
42,180,398209,5,0,0:0:0:0:
0,365,398398,1,0,0:0:0:0:
46,167,398587,2,0,L|147:157,1,100.199996942139
165,155,398870,1,0,0:0:0:0:
184,153,398964,1,0,0:0:0:0:
64,63,399153,1,0,0:0:0:0:
125,243,399341,2,0,L|226:233,1,100.199996942139
416,213,399719,5,0,0:0:0:0:
280,128,399907,1,0,0:0:0:0:
285,318,400096,1,0,0:0:0:0:
478,265,400285,1,0,0:0:0:0:
478,265,400379,1,0,0:0:0:0:
477,265,400473,2,0,P|498:220|486:172,1,100.199996942139
385,84,400851,1,0,0:0:0:0:
296,303,401040,1,0,0:0:0:0:
156,170,401228,6,0,B|125:138|125:138|139:293,2,200.399993884278
143,314,402172,1,0,0:0:0:0:
23,270,402360,2,0,L|31:150,1,100.199996942139
187,28,402738,5,0,0:0:0:0:
243,180,402926,1,0,0:0:0:0:
98,101,403115,1,0,0:0:0:0:
330,83,403304,2,0,B|458:76|458:76|394:110,1,200.399993884278
243,179,403870,2,0,P|208:228|247:315,1,150.299995413208
253,319,404247,5,0,0:0:0:0:
489,267,404813,1,0,0:0:0:0:
489,267,405002,2,0,L|500:158,1,100.199996942139
325,223,405379,1,0,0:0:0:0:
401,318,405568,6,0,L|422:118,1,200.399993884278
489,267,406134,2,0,L|500:158,1,100.199996942139
325,223,406511,1,0,0:0:0:0:
486,288,406700,1,0,0:0:0:0:
477,65,406889,2,0,P|432:42|384:50,1,100.199996942139
192,171,407266,5,0,0:0:0:0:
401,318,407832,1,0,0:0:0:0:
401,318,408020,2,0,L|285:307,1,100.199996942139
488,327,408398,1,0,0:0:0:0:
229,344,408587,6,0,B|202:287|237:251|269:216|231:151,1,200.399993884278
301,308,409153,1,0,0:0:0:0:
167,205,409341,1,0,0:0:0:0:
167,205,409436,1,0,0:0:0:0:
167,205,409530,1,0,0:0:0:0:
325,166,409719,1,0,0:0:0:0:
108,147,409907,2,0,P|83:189|90:238,1,100.199996942139
180,75,410285,6,0,B|29:38|29:38|55:75,1,200.399993884278
167,205,410851,2,0,B|267:226|267:226|298:199|298:199|242:186,1,200.399993884278
90,238,411417,1,0,0:0:0:0:
108,147,411794,6,0,P|83:189|90:238,1,100.199996942139
181,331,412172,2,0,B|38:320|38:320|85:351,1,200.399993884278
268,340,412738,1,0,0:0:0:0:
167,205,412926,1,0,0:0:0:0:
98,359,413115,1,0,0:0:0:0:
242,251,413304,6,0,B|339:244|339:244|368:263|368:263|436:259,1,200.399993884278
409,82,413870,2,0,P|342:128|418:157,1,200.399993884278
473,21,414436,1,0,0:0:0:0:
473,21,414813,5,0,0:0:0:0:
443,245,415002,1,0,0:0:0:0:
304,131,415190,2,0,B|275:107|275:107|165:127,1,150.299995413208
122,195,415568,2,0,P|85:132|115:66,2,150.299995413208
311,241,416323,6,0,L|298:369,1,100.199996942139
234,200,416700,2,0,L|221:328,1,100.199996942139
318,158,417077,1,0,0:0:0:0:
222,318,417266,1,0,0:0:0:0:
141,206,417455,1,0,0:0:0:0:
318,158,417643,1,0,0:0:0:0:
256,192,417832,12,0,423681,0:0:0:0:
0,267,467853,6,0,B|63:274|65:223|152:242,1,137.775004204559,0|0,0:0|0:0,0:0:0:0:
241,193,468188,2,0,P|233:248|223:331,1,112.724996559906,0|0,0:0|0:0,0:0:0:0:
170,371,468523,5,0,0:0:0:0:
324,289,468691,1,0,0:0:0:0:
132,238,468858,2,0,P|89:253|42:246,1,75.1499977066041,0|0,0:0|0:0,0:0:0:0:
221,118,469193,6,0,P|278:128|361:143,1,112.724996559906,0|0,0:0|0:0,0:0:0:0:
411,102,469529,2,0,P|430:62|387:-18,1,112.724996559906,0|0,0:0|0:0,0:0:0:0:
338,49,469864,5,0,0:0:0:0:
465,290,470031,1,0,0:0:0:0:
512,200,470199,2,0,P|469:188|426:192,1,75.1499977066041,0|0,0:0|0:0,0:0:0:0:
241,306,470534,6,0,B|208:289|181:293|181:293|135:348|68:325,1,162.824992546463,0|0,0:0|0:0,0:0:0:0:
12,288,470869,2,0,P|-15:242|17:167,1,125.25,0|0,0:0|0:0,0:0:0:0:
77,136,471205,6,0,B|149:129|149:175|225:171,1,150.299995413208,0|0,0:0|0:0,0:0:0:0:
304,116,471540,2,0,P|290:49|221:87,1,150.299995413208,0|0,0:0|0:0,0:0:0:0:
220,171,471875,5,0,0:0:0:0:
381,247,472043,2,0,P|416:238|461:243,1,54.2749975154878,0|0,0:0|0:0,0:0:0:0:
512,196,472210,2,0,P|520:162|496:103,1,83.5,0|0,0:0|0:0,0:0:0:0:
282,257,472545,5,0,0:0:0:0:
247,279,472629,1,0,0:0:0:0:
229,316,472713,1,0,0:0:0:0:
232,357,472797,1,0,0:0:0:0:
244,380,472881,5,0,0:0:0:0:
229,370,472964,1,0,0:0:0:0:
213,364,473048,1,0,0:0:0:0:
193,363,473132,1,0,0:0:0:0:
178,369,473216,5,0,0:0:0:0:
437,230,473551,2,0,P|495:238|539:247,1,75.1499977066041,0|0,0:0|0:0,0:0:0:0:
347,166,473886,6,0,P|307:193|218:171,1,137.775004204559,0|0,0:0|0:0,0:0:0:0:
209,32,474221,2,0,P|249:5|335:22,1,137.775004204559,0|0,0:0|0:0,0:0:0:0:
279,100,474557,6,0,B|246:83|198:105|198:105|166:58|105:63,1,175.349994648743,0|0,0:0|0:0,0:0:0:0:
47,104,474892,2,0,P|16:153|38:227,1,125.25,0|0,0:0|0:0,0:0:0:0:
109,268,475227,6,0,B|157:259|196:252|196:252|218:281|266:287,1,150.299995413208,0|0,0:0|0:0,0:0:0:0:
352,248,475562,2,0,P|343:178|269:219,1,150.299995413208,0|0,0:0|0:0,0:0:0:0:
247,283,475897,5,0,0:0:0:0:
454,139,476065,1,0,0:0:0:0:
356,23,476233,6,0,P|352:61|341:110,1,75.1499977066041,0|0,0:0|0:0,0:0:0:0:
501,298,476568,2,0,P|505:260|516:211,1,75.1499977066041,0|0,0:0|0:0,0:0:0:0:
391,254,476903,6,0,B|313:241|313:288|229:277,1,150.299995413208,0|0,0:0|0:0,0:0:0:0:
186,218,477238,6,0,P|192:178|203:150,1,54.2749975154878,0|0,0:0|0:0,0:0:0:0:
10,303,477406,2,0,P|4:263|-7:235,1,54.2749975154878,0|0,0:0|0:0,0:0:0:0:
129,310,477573,5,0,0:0:0:0:
121,339,477657,1,0,0:0:0:0:
115,366,477741,1,0,0:0:0:0:
255,281,477908,5,0,0:0:0:0:
267,274,477992,1,0,0:0:0:0:
285,272,478076,1,0,0:0:0:0:
79,173,478244,5,0,0:0:0:0:
67,180,478327,1,0,0:0:0:0:
49,182,478411,1,0,0:0:0:0:
231,18,478579,6,0,L|213:153,1,112.724996559906,0|0,0:0|0:0,0:0:0:0:
301,186,478914,2,0,P|360:200|413:134,1,137.775004204559,0|0,0:0|0:0,0:0:0:0:
333,103,479249,5,0,0:0:0:0:
478,255,479417,1,0,0:0:0:0:
351,371,479584,2,0,P|357:326|367:279,1,75.1499977066041,0|0,0:0|0:0,0:0:0:0:
200,239,479920,6,0,P|143:249|60:264,1,112.724996559906,0|0,0:0|0:0,0:0:0:0:
17,195,480255,2,0,P|46:159|143:173,1,137.775004204559,0|0,0:0|0:0,0:0:0:0:
89,258,480590,5,0,0:0:0:0:
277,63,480758,1,0,0:0:0:0:
197,7,480925,2,0,P|195:46|190:83,1,75.1499977066041,0|0,0:0|0:0,0:0:0:0:
279,202,481260,6,0,B|355:194|354:236|429:233,1,150.299995413208,0|0,0:0|0:0,0:0:0:0:
501,187,481596,2,0,B|506:149|531:118|531:118|499:149|445:151,1,150.299995413208,0|0,0:0|0:0,0:0:0:0:
423,233,481931,6,0,P|435:297|446:364,1,112.724996559906,0|0,0:0|0:0,0:0:0:0:
358,367,482266,2,0,P|304:331|226:348,1,137.775004204559,0|0,0:0|0:0,0:0:0:0:
162,384,482601,5,0,0:0:0:0:
314,241,482769,2,0,P|320:199|327:172,1,54.2749975154878,0|0,0:0|0:0,0:0:0:0:
237,112,482936,2,0,P|212:146|218:192,1,83.5,0|0,0:0|0:0,0:0:0:0:
469,359,483272,5,0,0:0:0:0:
487,331,483355,1,0,0:0:0:0:
492,298,483439,1,0,0:0:0:0:
486,264,483523,1,0,0:0:0:0:
461,240,483607,5,0,0:0:0:0:
452,249,483691,1,0,0:0:0:0:
440,257,483774,1,0,0:0:0:0:
425,261,483858,1,0,0:0:0:0:
410,259,483942,5,0,0:0:0:0:
256,384,484277,2,0,P|293:370|345:378,1,75.1499977066041,0|0,0:0|0:0,0:0:0:0:
144,284,484612,6,0,P|97:319|0:291,1,137.775004204559,0|0,0:0|0:0,0:0:0:0:
0,170,484948,2,0,P|47:135|144:163,1,137.775004204559,0|0,0:0|0:0,0:0:0:0:
184,204,485283,6,0,B|211:208|230:232|230:232|220:169|203:87,1,175.349994648743,0|0,0:0|0:0,0:0:0:0:
248,34,485618,2,0,P|316:12|281:78,1,150.299995413208,0|0,0:0|0:0,0:0:0:0:
208,113,485953,6,0,P|167:107|113:89,1,75.1499977066041,0|0,0:0|0:0,0:0:0:0:
207,337,486288,2,0,P|166:343|112:361,1,75.1499977066041,0|0,0:0|0:0,0:0:0:0:
309,219,486624,6,0,P|367:243|427:216,1,112.724996559906,0|0,0:0|0:0,0:0:0:0:
466,155,486959,2,0,P|424:139|386:146,1,75.1499977066041,0|0,0:0|0:0,0:0:0:0:
198,248,487294,5,0,0:0:0:0:
201,269,487378,1,0,0:0:0:0:
205,291,487462,1,0,0:0:0:0:
208,312,487545,1,0,0:0:0:0:
212,334,487629,1,0,0:0:0:0:
297,265,487797,1,0,0:0:0:0:
94,187,487964,5,0,0:0:0:0:
301,271,488132,1,0,0:0:0:0:
107,384,488300,5,0,0:0:0:0:
111,377,488383,2,0,P|108:348|99:319,1,54.2749975154878,0|0,0:0|0:0,0:0:0:0:
299,140,488719,5,0,0:0:0:0:
290,147,488802,1,0,0:0:0:0:
285,157,488886,1,0,0:0:0:0:
285,168,488970,2,0,B|379:173|349:218|437:248|502:207|457:132|402:132,1,250.500009555817,0|0,0:0|0:0,0:0:0:0:
207,314,489640,5,0,0:0:0:0:
122,344,489808,1,0,0:0:0:0:
27,139,489976,5,0,0:0:0:0:
123,154,490143,1,0,0:0:0:0:
104,253,490311,1,0,0:0:0:0:
7,235,490478,1,0,0:0:0:0:
253,61,490646,5,0,0:0:0:0:
247,54,490981,5,0,0:0:0:0:
336,74,491149,1,0,0:0:0:0:
179,166,491316,5,0,0:0:0:0:
90,186,491484,1,0,0:0:0:0:
305,268,491652,5,0,0:0:0:0:
394,288,491819,1,0,0:0:0:0:
209,358,491987,6,0,B|136:359|144:306|53:320,2,150.299995413208,0|0|0,0:0|0:0|0:0,0:0:0:0:
409,198,492825,1,0,0:0:0:0:
327,370,492992,2,0,P|318:319|311:276,1,75.1499977066041,0|0,0:0|0:0,0:0:0:0:
187,101,493327,5,0,0:0:0:0:
165,189,493495,1,0,0:0:0:0:
138,283,493663,1,0,0:0:0:0:
277,212,493830,5,0,0:0:0:0:
277,212,494165,5,0,0:0:0:0:
293,213,494249,1,0,0:0:0:0:
305,221,494333,1,0,0:0:0:0:
184,95,494501,5,0,0:0:0:0:
190,79,494584,1,0,0:0:0:0:
200,70,494668,1,0,0:0:0:0:
35,237,495003,5,0,0:0:0:0:
117,227,495171,1,0,0:0:0:0:
299,87,495339,5,0,0:0:0:0:
377,102,495506,1,0,0:0:0:0:
330,202,495674,5,0,0:0:0:0:
162,78,495841,1,0,0:0:0:0:
358,0,496009,1,0,0:0:0:0:
175,356,496344,5,0,0:0:0:0:
128,181,496512,1,0,0:0:0:0:
183,363,496679,5,0,0:0:0:0:
117,177,496847,1,0,0:0:0:0:
224,275,497015,5,0,0:0:0:0:
13,215,497182,1,0,0:0:0:0:
168,68,497350,1,0,0:0:0:0:
119,172,497517,1,0,0:0:0:0:
335,276,497685,5,0,0:0:0:0:
400,94,497853,1,0,0:0:0:0:
228,194,498020,1,0,0:0:0:0:
461,286,498188,1,0,0:0:0:0:
269,377,498355,5,0,0:0:0:0:
367,183,498523,1,0,0:0:0:0:
256,192,498607,12,0,501372,0:0:0:0:
188,366,556150,6,0,P|236:329|336:358,1,150.299995413208,0|0,0:0|0:0,0:0:0:0:
118,271,556624,2,0,P|82:258|33:264,1,75.1499977066041,0|0,0:0|0:0,0:0:0:0:
233,147,556939,2,0,B|280:125|280:125|331:172|393:148,1,167,0|0,0:0|0:0,0:0:0:0:
354,63,557413,1,0,0:0:0:0:
241,251,557571,5,0,0:0:0:0:
174,57,557729,1,0,0:0:0:0:
346,193,557887,1,0,0:0:0:0:
116,318,558045,6,0,P|73:308|22:314,1,75.1499977066041,0|0,0:0|0:0,0:0:0:0:
346,193,558360,2,0,P|398:205|433:210,1,75.1499977066041,0|0,0:0|0:0,0:0:0:0:
183,62,558676,6,0,P|196:145|208:231,1,150.299995413208,0|0,0:0|0:0,0:0:0:0:
342,337,559150,5,0,0:0:0:0:
353,304,559229,1,0,0:0:0:0:
336,276,559308,1,0,0:0:0:0:
357,251,559387,1,0,0:0:0:0:
344,218,559466,5,0,0:0:0:0:
369,249,559545,1,0,0:0:0:0:
402,267,559624,1,0,0:0:0:0:
443,266,559703,1,0,0:0:0:0:
473,251,559782,6,0,P|477:227|484:186,1,50.0999984710694,0|0,0:0|0:0,0:0:0:0:
324,70,559939,2,0,P|328:94|335:135,1,50.0999984710694,0|0,0:0|0:0,0:0:0:0:
447,102,560097,5,0,0:0:0:0:
243,207,560255,2,0,B|212:190|180:195|180:195|142:244|81:228,2,167,0|0|0,0:0|0:0|0:0,0:0:0:0:
243,207,561203,6,0,P|271:154|224:61,1,150.299995413208,0|0,0:0|0:0,0:0:0:0:
363,247,561676,2,0,P|415:234|452:241,1,75.1499977066041,0|0,0:0|0:0,0:0:0:0:
132,121,561992,2,0,P|80:134|43:127,1,75.1499977066041,0|0,0:0|0:0,0:0:0:0:
214,368,562308,6,0,P|222:313|233:238,1,112.724996559906,0|0,0:0|0:0,0:0:0:0:
174,198,562624,5,0,0:0:0:0:
338,347,562782,2,0,P|380:335|429:339,1,75.1499977066041,0|0,0:0|0:0,0:0:0:0:
121,308,563097,6,0,P|70:317|26:331,1,75.1499977066041,0|0,0:0|0:0,0:0:0:0:
137,35,563413,2,0,P|86:26|42:12,1,75.1499977066041,0|0,0:0|0:0,0:0:0:0:
261,183,563729,6,0,B|338:165|333:227|429:206,1,150.299995413208,0|0,0:0|0:0,0:0:0:0:
512,156,564203,1,0,0:0:0:0:
359,32,564360,1,0,0:0:0:0:
459,0,564518,5,0,0:0:0:0:
440,83,564676,1,0,0:0:0:0:
261,183,564834,5,0,0:0:0:0:
288,275,564992,1,0,0:0:0:0:
369,156,565150,5,0,0:0:0:0:
156,262,565308,1,0,0:0:0:0:
375,359,565466,1,0,0:0:0:0:
288,275,565624,6,0,P|296:219|306:187,1,75.1499977066041,0|0,0:0|0:0,0:0:0:0:
42,369,565939,2,0,P|34:313|21:281,1,75.1499977066041,0|0,0:0|0:0,0:0:0:0:
119,36,566255,6,0,P|127:91|144:211,1,150.299995413208,0|0,0:0|0:0,0:0:0:0:
77,243,566729,5,0,0:0:0:0:
255,144,566887,2,0,P|299:125|361:156,1,112.724996559906,0|0,0:0|0:0,0:0:0:0:
439,185,567203,2,0,P|449:151|441:106,1,75.1499977066041,0|0,0:0|0:0,0:0:0:0:
384,353,567518,2,0,P|420:338|464:345,1,75.1499977066041,0|0,0:0|0:0,0:0:0:0:
297,251,567834,2,0,L|207:266,1,75.1499977066041,0|0,0:0|0:0,0:0:0:0:
142,220,568150,5,0,0:0:0:0:
234,346,568308,1,0,0:0:0:0:
31,237,568466,1,0,0:0:0:0:
198,122,568624,1,0,0:0:0:0:
142,220,568782,6,0,P|150:271|156:313,1,75.1499977066041,0|0,0:0|0:0,0:0:0:0:
240,247,569097,1,0,0:0:0:0:
71,130,569255,1,0,0:0:0:0:
240,247,569413,6,0,P|278:232|325:235,1,75.1499977066041,0|0,0:0|0:0,0:0:0:0:
512,105,569729,2,0,P|467:128|376:69,1,150.299995413208,0|0,0:0|0:0,0:0:0:0:
459,30,570203,5,0,0:0:0:0:
331,193,570360,2,0,P|339:251|353:354,1,137.775004204559,0|0,0:0|0:0,0:0:0:0:
443,326,570676,6,0,B|475:318|513:335|513:335|482:319|469:291,1,133.6,0|0,0:0|0:0,0:0:0:0:
240,247,570992,2,0,B|207:239|169:256|169:256|200:240|213:212,1,133.6,0|0,0:0|0:0,0:0:0:0:
358,70,571308,6,0,B|379:122|396:169|396:169|359:225|307:175,1,183.700005606079,0|0,0:0|0:0,0:0:0:0:
213,356,571782,2,0,P|248:342|294:345,1,75.1499977066041,0|0,0:0|0:0,0:0:0:0:
73,258,572097,2,0,P|27:269|-21:273,1,75.1499977066041,0|0,0:0|0:0,0:0:0:0:
212,135,572413,6,0,P|204:187|193:275,1,112.724996559906,0|0,0:0|0:0,0:0:0:0:
139,320,572729,5,0,0:0:0:0:
306,224,572887,2,0,P|338:219|382:232,1,75.1499977066041,0|0,0:0|0:0,0:0:0:0:
212,135,573203,6,0,P|184:86|222:-7,1,150.299995413208,0|0,0:0|0:0,0:0:0:0:
278,69,573676,1,0,0:0:0:0:
136,204,573834,6,0,B|62:197|65:248|-17:236,1,150.299995413208,0|0,0:0|0:0,0:0:0:0:
142,291,574308,1,0,0:0:0:0:
0,145,574466,1,0,0:0:0:0:
121,31,574624,5,0,0:0:0:0:
102,105,574782,1,0,0:0:0:0:
269,248,574939,5,0,0:0:0:0:
288,158,575097,1,0,0:0:0:0:
139,234,575255,5,0,0:0:0:0:
310,355,575413,1,0,0:0:0:0:
381,123,575571,1,0,0:0:0:0:
269,248,575729,6,0,P|315:255|366:264,1,75.1499977066041,0|0,0:0|0:0,0:0:0:0:
76,143,576045,2,0,P|30:159|-21:152,1,75.1499977066041,0|0,0:0|0:0,0:0:0:0:
226,16,576360,6,0,P|220:66|207:185,1,150.299995413208,0|0,0:0|0:0,0:0:0:0:
118,73,576834,1,0,0:0:0:0:
316,127,576992,6,0,B|378:133|385:89|456:103,1,137.775004204559,0|0,0:0|0:0,0:0:0:0:
512,194,577308,2,0,P|477:197|430:176,1,75.1499977066041,0|0,0:0|0:0,0:0:0:0:
303,348,577624,2,0,P|336:332|374:332,1,75.1499977066041,0|0,0:0|0:0,0:0:0:0:
184,228,577939,2,0,P|138:239|90:243,1,75.1499977066041,0|0,0:0|0:0,0:0:0:0:
51,305,578255,5,0,0:0:0:0:
263,192,578413,1,0,0:0:0:0:
107,119,578571,1,0,0:0:0:0:
210,356,578729,1,0,0:0:0:0:
307,292,578887,6,0,P|353:275|440:336,1,150.299995413208,0|0,0:0|0:0,0:0:0:0:
355,366,579360,1,0,0:0:0:0:
462,210,579518,6,0,P|509:216|551:225,1,75.1499977066041,0|0,0:0|0:0,0:0:0:0:
304,97,579834,2,0,P|267:103|229:108,1,75.1499977066041,0|0,0:0|0:0,0:0:0:0:
436,20,580150,2,0,P|426:67|422:109,1,75.1499977066041,0|0,0:0|0:0,0:0:0:0:
254,205,580466,5,0,0:0:0:0:
208,30,580624,1,0,0:0:0:0:
382,168,580782,1,0,0:0:0:0:
171,290,580939,6,0,P|141:285|102:282,1,50.0999984710694,0|0,0:0|0:0,0:0:0:0:
29,228,581097,1,0,0:0:0:0:
42,218,581176,1,0,0:0:0:0:
62,214,581255,1,0,0:0:0:0:
278,346,581413,6,0,B|347:348|353:302|431:317,1,150.299995413208,0|0,0:0|0:0,0:0:0:0:
241,231,581887,2,0,P|220:191|244:111,1,112.724996559906,0|0,0:0|0:0,0:0:0:0:
313,82,582203,2,0,P|361:94|403:100,1,75.1499977066041,0|0,0:0|0:0,0:0:0:0:
398,8,582518,5,0,0:0:0:0:
231,126,582676,2,0,B|184:104|184:104|130:156|59:132,1,167,0|0,0:0|0:0,0:0:0:0:
110,36,583150,1,0,0:0:0:0:
327,165,583308,2,0,P|376:156|421:150,1,75.1499977066041,0|0,0:0|0:0,0:0:0:0:
124,250,583624,2,0,P|81:235|45:239,1,75.1499977066041,0|0,0:0|0:0,0:0:0:0:
261,336,583939,6,0,P|266:300|278:245,1,75.1499977066041,0|0,0:0|0:0,0:0:0:0:
215,185,584255,1,0,0:0:0:0:
367,288,584413,1,0,0:0:0:0:
175,384,584571,1,0,0:0:0:0:
367,288,584729,2,0,P|410:273|446:277,1,75.1499977066041,0|0,0:0|0:0,0:0:0:0:
414,369,585045,1,0,0:0:0:0:
215,185,585203,6,0,P|223:115|236:19,1,150.299995413208,0|0,0:0|0:0,0:0:0:0:
115,166,585676,2,0,P|63:191|-7:164,1,112.724996559906,0|0,0:0|0:0,0:0:0:0:
54,96,585992,1,0,0:0:0:0:
215,185,586150,6,0,P|210:217|205:254,1,54.2749975154878,0|0,0:0|0:0,0:0:0:0:
332,360,586308,2,0,P|330:326|314:290,1,54.2749975154878,0|0,0:0|0:0,0:0:0:0:
388,223,586466,1,0,0:0:0:0:
424,230,586545,1,0,0:0:0:0:
457,236,586624,5,0,0:0:0:0:
234,365,586782,1,0,0:0:0:0:
2,273,586939,2,0,B|69:283|75:230|155:245,1,150.299995413208,0|0,0:0|0:0,0:0:0:0:
139,334,587413,1,0,0:0:0:0:
5,175,587571,1,0,0:0:0:0:
132,40,587729,6,0,P|124:83|116:139,1,75.1499977066041,0|0,0:0|0:0,0:0:0:0:
262,249,588045,2,0,P|265:205|252:169,1,75.1499977066041,0|0,0:0|0:0,0:0:0:0:
313,82,588360,6,0,P|350:89|388:94,1,75.1499977066041,0|0,0:0|0:0,0:0:0:0:
144,228,588676,2,0,P|108:222|70:217,1,75.1499977066041,0|0,0:0|0:0,0:0:0:0:
272,367,588992,6,0,P|309:336|414:356,1,150.299995413208,0|0,0:0|0:0,0:0:0:0:
488,266,589387,1,0,0:0:0:0:
477,259,589466,2,0,P|441:267|403:276,3,54.2749975154878,0|0|0|0,0:0|0:0|0:0|0:0,0:0:0:0:
348,219,589782,6,0,P|356:171|364:143,1,54.2749975154878,0|0,0:0|0:0,0:0:0:0:
246,53,589939,2,0,P|261:99|261:120,1,54.2749975154878,0|0,0:0|0:0,0:0:0:0:
178,170,590097,6,0,P|135:163|97:157,1,54.2749975154878,0|0,0:0|0:0,0:0:0:0:
361,51,590255,2,0,L|436:63,1,54.2749975154878,0|0,0:0|0:0,0:0:0:0:
362,327,591518,6,0,L|437:339,1,54.2749975154878,0|0,0:0|0:0,0:0:0:0:
361,51,592150,6,0,P|391:46|433:34,1,54.2749975154878,0|0,0:0|0:0,0:0:0:0:
362,327,592466,2,0,P|392:332|434:344,1,54.2749975154878,0|0,0:0|0:0,0:0:0:0:
255,204,592782,6,0,B|176:211|171:153|46:95|-6:125|-49:320|204:423|234:225|204:29|45:63|-3:112,1,596.189981805726,0|0,0:0|0:0,0:0:0:0:
101,196,1051415,6,0,B|62:274|105:337|105:337|108:313|132:293,1,200.399993884278
287,198,1052028,1,0,0:0:0:0:
346,255,1052232,2,0,P|277:279|216:236,1,150.299995413208
203,161,1052640,2,0,L|199:121,3,25.0499992355347
198,117,1052844,2,0,B|151:101|151:101|101:110,1,100.199996942139
287,198,1053252,6,0,L|277:78,1,100.199996942139
80,120,1053660,2,0,P|62:201|84:225,1,100.199996942139
199,316,1054068,2,0,L|74:302,1,100.199996942139
203,161,1054477,1,0,0:0:0:0:
280,340,1054681,6,0,L|80:319,1,200.399993884278
280,257,1055293,2,0,L|155:243,1,100.199996942139
90,119,1055701,2,0,L|189:107,1,100.199996942139
156,248,1056109,1,0,0:0:0:0:
69,122,1056313,1,0,0:0:0:0:
249,55,1056517,6,0,P|271:99|259:147,1,100.199996942139
122,32,1056926,1,0,0:0:0:0:
316,3,1057130,2,0,P|354:93|330:188,1,200.399993884278
156,248,1057742,1,0,0:0:0:0:
280,340,1057946,1,0,0:0:0:0:
205,181,1058150,2,0,P|159:162|111:175,1,100.199996942139
36,369,1058558,5,0,0:0:0:0:
156,248,1058762,1,0,0:0:0:0:
40,124,1058966,1,0,0:0:0:0:
40,124,1059068,1,0,0:0:0:0:
40,124,1059170,1,0,0:0:0:0:
107,315,1059375,2,0,P|152:333|200:320,1,100.199996942139
330,188,1059783,6,0,B|368:141|368:141|350:279,1,200.399993884278
277,115,1060395,1,0,0:0:0:0:
446,167,1060599,2,0,L|431:296,1,100.199996942139
266,357,1061007,2,0,L|254:257,1,100.199996942139
251,41,1061415,6,0,P|300:38|339:68,1,100.199996942139
200,100,1061824,2,0,P|173:58|179:10,1,100.199996942139
277,115,1062232,2,0,P|254:158|209:177,1,100.199996942139
97,236,1062640,2,0,B|83:286|83:286|92:333,1,100.199996942139
31,181,1063048,6,0,B|-1:278|-1:278|19:374,1,200.399993884278
97,236,1063660,1,0,0:0:0:0:
97,236,1063864,2,0,B|83:286|83:286|92:333,2,100.199996942139
270,271,1064477,6,0,B|286:298|313:307|313:307|171:289,1,200.399993884278
338,233,1065089,1,0,0:0:0:0:
434,341,1065293,1,0,0:0:0:0:
434,341,1065395,2,0,L|447:182,1,150.299995413208
503,83,1065905,1,0,0:0:0:0:
480,95,1066007,1,0,0:0:0:0:
456,99,1066109,1,0,0:0:0:0:
432,96,1066211,1,0,0:0:0:0:
410,84,1066313,6,0,B|346:69|346:69|292:98|292:98|220:80,2,200.399993884278
501,252,1067334,2,0,P|445:271|380:236,1,100.199996942139
252,187,1067742,6,0,B|202:177|149:201|149:201|203:206|239:231,1,200.399993884278
364,340,1068354,1,0,0:0:0:0:
446,191,1068558,2,0,P|397:180|352:199,1,100.199996942139
215,318,1068966,2,0,B|183:341|183:341|123:326,1,100.199996942139
52,179,1069375,1,0,0:0:0:0:
52,179,1069579,6,0,B|89:252|56:283|22:312|56:371,1,200.399993884278
140,187,1070191,1,0,0:0:0:0:
215,318,1070395,2,0,B|183:341|183:341|123:326,1,100.199996942139
239,231,1070803,1,0,0:0:0:0:
337,337,1071007,1,0,0:0:0:0:
337,337,1071211,6,0,L|344:235,1,100.199996942139
422,377,1071620,1,0,0:0:0:0:
402,184,1071824,2,0,P|361:157|313:166,1,100.199996942139
295,176,1072130,1,0,0:0:0:0:
278,187,1072232,1,0,0:0:0:0:
203,362,1072436,1,0,0:0:0:0:
337,337,1072640,1,0,0:0:0:0:
337,337,1072742,1,0,0:0:0:0:
337,337,1072844,6,0,L|344:235,1,100.199996942139
398,54,1073252,1,0,0:0:0:0:
493,143,1073456,2,0,B|471:172|471:172|408:162,1,100.199996942139
198,138,1073864,1,0,0:0:0:0:
199,162,1073966,1,0,0:0:0:0:
201,187,1074068,1,0,0:0:0:0:
203,212,1074170,1,0,0:0:0:0:
204,237,1074273,6,0,P|146:208|49:255,1,150.299995413208
94,244,1074681,2,0,P|140:229|184:252,1,100.199996942139
344,354,1075089,1,0,0:0:0:0:
352,254,1075497,2,0,L|343:353,1,100.199996942139
277,170,1075905,6,0,L|260:369,1,200.399993884278
196,186,1076517,2,0,L|187:285,1,100.199996942139
231,102,1076926,1,0,0:0:0:0:
253,89,1077028,1,0,0:0:0:0:
277,84,1077130,1,0,0:0:0:0:
302,88,1077232,1,0,0:0:0:0:
324,99,1077334,1,0,0:0:0:0:
378,266,1077538,6,0,B|348:289|347:315|347:315|357:174,1,200.399993884278
425,331,1078150,1,0,0:0:0:0:
259,369,1078354,1,0,0:0:0:0:
259,369,1078456,2,0,L|273:203,1,150.299995413208
119,176,1078966,1,0,0:0:0:0:
120,200,1079068,1,0,0:0:0:0:
122,225,1079170,1,0,0:0:0:0:
124,250,1079272,1,0,0:0:0:0:
126,275,1079374,1,0,0:0:0:0:
256,192,1079477,12,0,1085905,0:0:0:0:
