osu file format v14

[General]
AudioFilename: audio.mp3
AudioLeadIn: 0
PreviewTime: 71083
Countdown: 0
SampleSet: Soft
StackLeniency: 0.7
Mode: 0
LetterboxInBreaks: 0
WidescreenStoryboard: 0

[Editor]
DistanceSpacing: 1
BeatDivisor: 4
GridSize: 4
TimelineZoom: 1

[Metadata]
Title:Seinaru Hino Inori
TitleUnicode:聖なる日の祈り
Artist:Aqours
ArtistUnicode:Aqours
Creator:Cloudchaser
Version:newton's Normal
Source:ラブライブ!スクールアイドルフェスティバル
Tags:Lovelive Love live school idol festival SIF Nitrous newton- my angel kanan xmas christmas ジングルベルがとまらない jingle bells ga tomaranai 伊波杏樹 逢田梨香子 諏訪ななか 小宮有紗 斉藤朱夏 小林愛香 高槻かなこ 鈴木愛奈 降幡愛 Anju Inami Rikako Aida Nanaka Suwa Arisa Komiya Shuka Saito Kanako Takatsuki Aina Suzuki Ai Furihata
BeatmapID:1457685
BeatmapSetID:683241

[Difficulty]
HPDrainRate:3
CircleSize:3.5
OverallDifficulty:4
ApproachRate:5
SliderMultiplier:0.9
SliderTickRate:1

[Events]
//Background and Video events
0,0,"piggy.png",0,0
//Break Periods
//Storyboard Layer 0 (Background)
//Storyboard Layer 1 (Fail)
//Storyboard Layer 2 (Pass)
//Storyboard Layer 3 (Foreground)
//Storyboard Sound Samples

[TimingPoints]
954,389.61038961039,3,2,1,40,1,0
6992,-100,3,2,2,40,0,0
7772,-100,3,2,1,40,0,0
25694,-100,3,2,2,40,0,0
26473,-100,3,2,1,40,0,0
30369,-100,3,2,2,40,0,0
31148,-100,3,2,1,40,0,0
51213,-100,3,2,1,60,0,0
56083,-100,3,2,2,60,0,0
56863,-100,3,2,1,60,0,0
60759,-100,3,2,2,60,0,0
61538,-100,3,2,1,60,0,0
68941,-100,3,2,2,60,0,0
69720,-100,3,2,1,60,0,0
71083,-100,3,2,1,60,0,1
74785,-100,3,2,2,60,0,1
75564,-100,3,2,1,60,0,1
79460,-100,3,2,2,60,0,1
80239,-100,3,2,1,60,0,1
84720,-100,3,2,1,60,0,0
85109,-100,3,2,1,60,0,1
93486,-100,3,2,2,60,0,1
94265,-100,3,2,1,60,0,1
98161,-100,3,2,2,60,0,1
98941,-100,3,2,1,60,0,1
101473,-100,3,2,1,60,0,0
107512,-100,3,2,2,60,0,0
108291,-100,3,2,1,60,0,0
115499,-100,3,2,1,5,0,0

[Colours]
Combo1 : 228,228,228
Combo2 : 0,206,0
Combo3 : 255,40,40
SliderTrackOverride : 206,16,16
SliderBorder : 47,130,32

[HitObjects]
171,51,953,6,0,P|111:49|73:75,2,90,8|2|2,0:0|0:0|0:0,0:0:0:0:
228,121,2122,1,8,0:0:0:0:
228,121,3291,2,0,P|288:119|326:145,2,90,8|0|2,0:0|0:0|0:0,0:0:0:0:
195,205,4460,2,0,P|135:203|97:229,2,90,8|2|2,0:0|0:0|0:0,0:0:0:0:
251,275,5629,6,0,P|311:277|349:251,2,90,8|2|2,0:0|0:0|0:0,0:0:0:0:
196,205,6798,1,10,0:0:0:0:
230,119,7187,1,2,0:0:0:0:
172,46,7577,1,2,0:0:0:0:
140,133,7966,2,0,B|102:119|86:83|86:83|56:78|26:104,1,135
8,140,8746,1,2,0:0:0:0:
48,220,9135,1,10,0:0:0:0:
8,300,9525,1,2,0:0:0:0:
8,300,10304,6,0,P|67:308|136:222,1,180,8|2,0:0|0:0,0:0:0:0:
48,220,11473,1,10,0:0:0:0:
48,220,12642,2,0,L|64:36,1,180,10|2,0:0|0:0,0:0:0:0:
149,12,13811,1,10,0:0:0:0:
149,12,14979,5,8,0:0:0:0:
215,71,15369,2,0,L|262:66,2,45,2|2|2,0:0|0:0|0:0,0:0:0:0:
196,157,16148,1,10,0:0:0:0:
262,216,16538,2,0,B|302:231|322:222|323:217|357:194|396:221,1,135,2|2,0:0|0:0,0:0:0:0:
392,218,17317,2,0,L|382:321,2,90,10|0|2,0:0|0:0|0:0,0:0:0:0:
403,128,18486,1,10,0:0:0:0:
403,128,19265,2,0,L|406:83,1,45,2|2,2:0|2:0,2:0:0:0:
390,40,19655,6,0,P|330:38|292:64,2,90,12|0|0,0:0|0:0|0:0,0:0:0:0:
403,128,20823,1,8,0:0:0:0:
392,218,21213,2,0,B|351:231|331:221|330:216|297:192|261:216,1,135,0|0,0:0|0:0,0:0:0:0:
262,215,21992,2,0,L|271:318,2,90,10|2|2,0:0|0:0|0:0,0:0:0:0:
253,125,23161,1,10,0:0:0:0:
244,35,23551,2,0,P|202:17|158:23,1,90,2|2,0:0|0:0,0:0:0:0:
126,107,24330,6,0,L|22:97,2,90,4|2|2,0:0|0:0|0:0,0:0:0:0:
181,177,25499,2,0,B|184:220|184:220|164:262,2,90,10|2|2,0:0|0:0|0:0,0:0:0:0:
126,107,26668,2,0,P|120:62|138:22,2,90,8|2|2,0:0|0:0|0:0,0:0:0:0:
181,177,27836,2,0,L|270:168,1,90,10|0,0:0|0:0,0:0:0:0:
360,157,28616,1,0,0:0:0:0:
413,228,29005,6,0,P|418:272|400:312,2,90,8|2|2,0:0|0:0|0:0,0:0:0:0:
360,157,30174,1,10,0:0:0:0:
394,75,30564,1,2,0:0:0:0:
448,145,30953,1,2,0:0:0:0:
360,157,31343,2,0,B|322:142|310:105|310:105|282:93|247:120,1,135,4|0,0:0|0:0,0:0:0:0:
230,154,32122,1,0,0:0:0:0:
189,233,32512,1,2,0:0:0:0:
229,313,32901,1,10,0:0:0:0:
229,313,33681,6,0,L|333:303,2,90,6|0|2,0:0|0:0|0:0,0:0:0:0:
189,233,34849,2,0,L|85:223,2,90,10|0|0,0:0|0:0|0:0,0:0:0:0:
230,154,36018,2,0,L|334:144,2,90,10|0|2,0:0|0:0|0:0,0:0:0:0:
190,74,37187,2,0,L|86:64,2,90,10|0|0,0:0|0:0|0:0,0:0:0:0:
230,154,38356,5,10,0:0:0:0:
319,145,38746,2,0,L|366:140,2,45,2|2|2,0:0|0:0|0:0,0:0:0:0:
282,226,39525,1,10,0:0:0:0:
333,298,39914,2,0,B|376:314|396:305|397:300|431:277|495:323,1,135,2|2,0:0|0:0,0:0:0:0:
464,305,40694,2,0,L|472:215,2,90,10|0|2,0:0|0:0|0:0,0:0:0:0:
373,306,41862,1,10,0:0:0:0:
373,306,42642,2,0,L|328:303,1,45,2|2,0:0|0:0,0:0:0:0:
292,330,43031,6,0,L|202:338,2,90,10|2|2,0:0|0:0|0:0,0:0:0:0:
321,245,44200,1,10,0:0:0:0:
261,177,44590,2,0,B|220:164|200:174|199:179|165:198|130:179,1,135,2|2,0:0|0:0,0:0:0:0:
130,179,45369,2,0,L|138:268,2,90,10|0|2,0:0|0:0|0:0,0:0:0:0:
119,89,46538,1,10,0:0:0:0:
191,34,46927,2,0,P|236:28|276:46,1,90,2|2,2:0|2:0,0:0:0:0:
328,118,47707,6,0,L|417:109,2,90,8|0|0,0:0|0:0|0:0,0:0:0:0:
290,198,48875,2,0,P|294:242|322:277,1,90,10|0,0:0|0:0,0:0:0:0:
409,301,49655,1,2,0:0:0:0:
344,363,50044,2,0,L|254:354,1,90,10|0,0:0|0:0,0:0:0:0:
164,346,50823,1,2,0:0:0:0:
126,263,51213,1,10,0:0:0:0:
178,189,51603,1,2,0:0:0:0:
138,106,51992,1,2,0:0:0:0:
189,29,52382,5,14,0:0:0:0:
230,111,52772,2,0,B|271:124|291:114|292:109|326:90|361:109,1,135,2|0,0:0|0:0,0:0:0:0:
361,109,53551,2,0,L|353:198,1,90,10|0,0:0|0:0,0:0:0:0:
421,254,54330,1,2,0:0:0:0:
339,286,54720,2,0,P|299:272|267:219,2,90,10|2|2,0:0|0:0|0:0,0:0:0:0:
421,254,55888,1,10,0:0:0:0:
353,198,56278,2,0,L|361:109,1,90,2|2,0:0|0:0,0:0:0:0:
327,24,57057,6,0,B|286:37|266:27|265:22|231:3|196:22,1,135,14|2,0:0|0:0,0:0:0:0:
161,50,57836,1,2,0:0:0:0:
89,102,58226,2,0,L|0:94,2,90,10|0|2,0:0|0:0|0:0,0:0:0:0:
171,140,59395,2,0,L|260:148,2,90,10|2|2,0:0|0:0|0:0,0:0:0:0:
97,192,60564,1,10,0:0:0:0:
179,230,60953,2,0,L|268:238,1,90,2|2,0:0|0:0,0:0:0:0:
341,186,61733,6,0,P|357:246|343:289,2,90,14|2|0,0:0|0:0|0:0,0:0:0:0:
260,148,62901,1,10,0:0:0:0:
333,96,63291,2,0,B|385:68|418:127|475:92,1,135,2|0,0:0|0:0,0:0:0:0:
464,97,64070,2,0,L|456:186,2,90,10|2|0,0:0|0:0|0:0,0:0:0:0:
436,11,65239,1,10,0:0:0:0:
376,79,65629,2,0,B|351:55|346:25|346:25|305:25|264:58,1,135
244,77,66408,5,14,0:0:0:0:
197,153,66798,2,0,L|152:150,2,45,2|2|2,0:0|0:0|0:0,0:0:0:0:
238,232,67577,2,0,L|327:224,2,90,10|2|10,0:0|0:0|0:0,0:0:0:0:
190,307,68746,1,10,0:0:0:0:
149,228,69135,2,0,L|104:225,2,45,2|0|2,0:0|0:0|0:0,0:0:0:0:
197,153,69914,2,0,L|286:145,2,90,10|10|2,0:0|0:0|0:0,0:0:0:0:
238,232,71083,6,0,L|327:224,1,90,4|0,0:0|0:0,0:0:0:0:
374,148,71862,1,2,2:0:0:0:
449,194,72252,2,0,P|466:245|439:333,1,135,10|0,0:0|0:0,0:0:0:0:
419,356,73031,1,2,0:0:0:0:
330,337,73421,2,0,L|190:348,1,135,4|0,0:0|0:0,0:0:0:0:
150,352,74200,1,2,0:0:0:0:
151,262,74590,2,0,L|62:254,2,90,10|2|2,0:0|0:0|0:0,0:0:0:0:
193,181,75759,6,0,L|282:189,2,90,4|0|2,0:0|0:0|0:0,0:0:0:0:
172,140,76733,1,0,0:0:0:0:
172,140,76927,2,0,L|83:148,2,90,10|2|2,0:0|0:0|0:0,0:0:0:0:
187,51,78096,2,0,L|98:59,2,90,12|2|2,0:0|0:0|0:0,0:0:0:0:
256,108,79265,1,10,0:0:0:0:
270,19,79655,1,2,0:0:0:0:
187,51,80044,1,2,0:0:0:0:
172,140,80434,5,4,0:0:0:0:
241,197,80823,2,0,L|288:201,2,45,2|0|2,0:0|0:0|0:0,0:0:0:0:
157,229,81603,1,10,0:0:0:0:
227,286,81992,2,0,B|279:313|312:254|369:290,1,135,2|2,0:0|0:0,0:0:0:0:
358,284,82772,2,0,L|350:373,2,90,14|2|2,0:0|0:0|0:0,0:0:0:0:
368,194,83940,1,2,0:0:0:0:
101,245,85109,6,0,L|12:237,2,90,4|0|2,0:0|0:0|2:0,0:0:0:0:
186,215,86278,2,0,B|213:267|154:300|190:357,1,135,10|0,0:0|0:0,0:0:0:0:
211,381,87057,1,2,0:0:0:0:
268,313,87447,2,0,P|344:295|402:318,1,135,12|2,0:0|0:0,0:0:0:0:
435,335,88226,1,2,0:0:0:0:
460,247,88616,2,0,L|468:158,2,90,10|2|2,0:0|0:0|0:0,0:0:0:0:
372,228,89785,6,0,L|380:139,2,90,12|0|2,0:0|0:0|0:0,0:0:0:0:
334,253,90759,1,2,0:0:0:0:
334,253,90953,2,0,P|293:235|249:241,2,90,10|2|2,0:0|0:0|0:0,0:0:0:0:
399,314,92122,2,0,L|488:322,2,90,12|2|2,0:0|0:0|0:0,0:0:0:0:
313,339,93291,1,10,0:0:0:0:
250,278,93681,1,2,0:0:0:0:
271,192,94070,1,2,0:0:0:0:
334,253,94460,5,12,0:0:0:0:
355,167,94849,2,0,L|402:171,2,45,2|0|2,0:0|0:0|0:0,0:0:0:0:
271,192,95629,1,10,0:0:0:0:
187,217,96018,1,2,0:0:0:0:
123,156,96408,2,0,L|126:111,1,45,2|2,0:0|0:0,0:0:0:0:
112,68,96798,2,0,P|71:50|27:56,2,90,12|0|0,0:0|0:0|0:0,0:0:0:0:
201,57,97966,2,0,L|290:49,2,90,0|2|2,0:0|0:0|0:0,0:0:0:0:
112,68,99135,5,0,0:0:0:0:
112,68,100304,1,2,0:0:0:0:
112,68,101473,6,0,P|71:50|27:56,2,90,2|2|0,0:0|0:0|0:0,0:0:0:0:
166,139,102642,1,10,0:0:0:0:
166,139,103811,2,0,P|206:121|250:127,2,90,8|0|2,0:0|0:0|0:0,0:0:0:0:
112,210,104979,2,0,L|12:218,2,90,8|2|2,0:0|0:0|0:0,0:0:0:0:
166,281,106148,6,0,P|148:322|154:366,2,90,14|0|2,0:0|0:0|0:0,0:0:0:0:
254,269,107317,1,10,0:0:0:0:
342,257,107707,2,0,L|431:265,1,90,2|2,0:0|0:0,0:0:0:0:
503,210,108486,2,0,B|530:158|471:125|507:68,1,135,12|2,0:0|0:0,0:0:0:0:
511,35,109265,1,2,0:0:0:0:
425,29,109655,1,2,0:0:0:0:
339,23,110044,1,2,0:0:0:0:
256,192,110824,12,2,115499,0:0:0:0:
