osu file format v14

[General]
AudioFilename: audio.mp3
AudioLeadIn: 0
PreviewTime: 71083
Countdown: 0
SampleSet: Soft
StackLeniency: 0.7
Mode: 0
LetterboxInBreaks: 0
WidescreenStoryboard: 0

[Editor]
Bookmarks: 113064
DistanceSpacing: 1
BeatDivisor: 2
GridSize: 4
TimelineZoom: 1

[Metadata]
Title:Seinaru Hino Inori
TitleUnicode:聖なる日の祈り
Artist:Aqours
ArtistUnicode:Aqours
Creator:Cloudchaser
Version:Nitrous' Advanced
Source:ラブライブ!スクールアイドルフェスティバル
Tags:Lovelive Love live school idol festival SIF Nitrous newton- my angel kanan xmas christmas ジングルベルがとまらない jingle bells ga tomaranai 伊波杏樹 逢田梨香子 諏訪ななか 小宮有紗 斉藤朱夏 小林愛香 高槻かなこ 鈴木愛奈 降幡愛 Anju Inami Rikako Aida Nanaka Suwa Arisa Komiya Shuka Saito Kanako Takatsuki Aina Suzuki Ai Furihata
BeatmapID:1457684
BeatmapSetID:683241

[Difficulty]
HPDrainRate:5
CircleSize:3.7
OverallDifficulty:5
ApproachRate:6
SliderMultiplier:1.2
SliderTickRate:1

[Events]
//Background and Video events
0,0,"piggy.png",0,0
//Break Periods
//Storyboard Layer 0 (Background)
//Storyboard Layer 1 (Fail)
//Storyboard Layer 2 (Pass)
//Storyboard Layer 3 (Foreground)
//Storyboard Sound Samples

[TimingPoints]
954,389.61038961039,3,2,1,40,1,0
954,-133.333333333333,3,2,1,40,0,0
2317,-133.333333333333,3,2,2,40,0,0
3096,-133.333333333333,3,2,1,40,0,0
6992,-133.333333333333,3,2,2,40,0,0
7772,-133.333333333333,3,2,1,40,0,0
23551,-133.333333333333,3,2,1,40,0,0
24330,-117.647058823529,3,2,1,40,0,0
25694,-117.647058823529,3,2,2,40,0,0
26473,-117.647058823529,3,2,1,40,0,0
30369,-117.647058823529,3,2,2,40,0,0
31148,-117.647058823529,3,2,1,40,0,0
51213,-117.647058823529,3,2,1,60,0,0
56083,-117.647058823529,3,2,2,60,0,0
56863,-117.647058823529,3,2,1,60,0,0
65434,-117.647058823529,3,2,2,60,0,0
65824,-117.647058823529,3,2,1,60,0,0
69135,-117.647058823529,3,2,2,60,0,0
69720,-117.647058823529,3,2,1,60,0,0
71083,-90.9090909090909,3,2,1,60,0,1
74785,-90.9090909090909,3,2,2,60,0,1
75564,-90.9090909090909,3,2,1,60,0,1
79460,-90.9090909090909,3,2,2,60,0,1
80239,-90.9090909090909,3,2,1,60,0,1
84720,-90.9090909090909,3,2,1,60,0,0
85109,-90.9090909090909,3,2,1,60,0,1
88811,-90.9090909090909,3,2,2,60,0,1
89590,-90.9090909090909,3,2,1,60,0,1
93486,-90.9090909090909,3,2,2,60,0,1
94265,-90.9090909090909,3,2,1,60,0,1
98356,-90.9090909090909,3,2,2,60,0,1
99135,-90.9090909090909,3,2,1,60,0,1
99525,-100,3,2,1,60,0,1
101473,-133.333333333333,3,2,1,60,0,0
102837,-133.333333333333,3,2,2,60,0,0
103616,-133.333333333333,3,2,1,60,0,0
111018,-133.333333333333,3,2,1,40,0,0
115499,-133.333333333333,3,2,1,5,0,0

[Colours]
Combo1 : 228,228,228
Combo2 : 0,206,0
Combo3 : 255,40,40
SliderTrackOverride : 206,16,16
SliderBorder : 47,130,32

[HitObjects]
156,184,953,6,0,P|146:97|219:168,1,240,10|2,0:0|0:0,0:0:0:0:
224,236,2122,1,8,0:0:0:0:
224,236,2512,2,0,P|237:282|227:326,1,90.0000034332277,2|2,0:0|0:0,0:0:0:0:
157,180,3291,6,0,B|186:148|236:139|278:168|278:168|273:139|287:116,1,180.000006866455,8|8,0:0|0:0,0:0:0:0:
365,159,4460,1,8,0:0:0:0:
438,111,4849,1,2,0:0:0:0:
438,111,5239,2,0,L|445:163,1,45.0000017166138,2|0,0:0|0:0,0:0:0:0:
473,190,5629,6,0,P|391:175|402:259,1,180.000006866455,8|8,0:0|0:0,0:0:0:0:
473,282,6798,1,2,0:0:0:0:
473,282,7187,2,0,P|444:325|390:340,1,90.0000034332277,2|2,0:0|0:0,0:0:0:0:
324,312,7966,2,0,B|278:299|278:299|175:317,1,135.000005149841,12|8,0:0|0:0,0:0:0:0:
147,321,8746,2,0,L|145:272,2,45.0000017166138,8|0|10,0:0|0:0|0:0,0:0:0:0:
58,306,9525,1,10,0:0:0:0:
115,135,10304,6,0,B|156:112|204:136|204:136|244:156|288:127,1,180.000006866455,12|2,0:0|0:0,0:0:0:0:
358,74,11473,1,10,0:0:0:0:
358,74,12642,2,0,P|313:42|289:131,1,180.000006866455,10|2,0:0|0:0,0:0:0:0:
371,158,13811,1,10,0:0:0:0:
371,158,14979,2,0,L|376:213,2,45.0000017166138,8|0|2,0:0|0:0|0:0,0:0:0:0:
336,128,15564,1,2,0:0:0:0:
301,99,15759,2,0,L|308:4,1,90.0000034332277,2|10,0:0|0:0,0:0:0:0:
218,22,16538,6,0,B|206:51|213:80|213:80|178:57|130:70,1,135.000005149841,2|2,0:0|0:0,0:0:0:0:
97,79,17317,2,0,B|107:125|107:125|92:179,1,90.0000034332277,10|0,0:0|0:0,0:0:0:0:
71,205,17901,1,2,0:0:0:0:
47,242,18096,2,0,L|52:356,1,90.0000034332277,2|0,0:0|0:0,0:0:0:0:
50,331,19265,2,0,L|107:322,1,45.0000017166138,2|2,0:0|0:0,0:0:0:0:
121,287,19655,6,0,L|225:293,2,90.0000034332277,12|0|0,0:0|0:0|0:0,0:0:0:0:
34,262,20823,1,10,0:0:0:0:
93,195,21213,2,0,P|103:134|172:119,1,135.000005149841,2|2,0:0|0:0,0:0:0:0:
210,128,21992,2,0,B|199:176|199:176|211:218,1,90.0000034332277,10|2,0:0|0:0,0:0:0:0:
270,281,22772,6,0,L|265:335,1,45.0000017166138,2|2,0:0|0:0,0:0:0:0:
292,362,23161,1,10,0:0:0:0:
355,298,23551,2,0,L|401:301,2,45.0000017166138,2|2|2,2:0|2:0|2:0,2:0:0:0:
315,275,24135,1,2,2:0:0:0:
272,247,24330,6,0,P|286:193|273:148,1,102.000001945496,4|2,0:0|0:0,0:0:0:0:
184,103,25109,2,0,L|187:53,1,51.0000009727478,2|2,0:0|0:0,0:0:0:0:
146,20,25499,1,10,0:0:0:0:
56,69,25888,2,0,L|63:181,1,102.000001945496,2|2,0:0|0:0,0:0:0:0:
141,236,26668,2,0,L|149:134,1,102.000001945496,12|0,0:0|0:0,0:0:0:0:
227,68,27447,6,0,L|231:120,1,51.0000009727478,2|2,0:0|0:0,0:0:0:0:
281,126,27836,2,0,P|335:207|358:128,1,204.000003890991,10|0,0:0|0:0,0:0:0:0:
442,79,29005,2,0,L|452:202,1,102.000001945496,8|0,0:0|0:0,0:0:0:0:
493,208,29590,1,2,0:0:0:0:
493,208,29785,2,0,L|488:278,2,51.0000009727478,2|0|8,0:0|0:0|0:0,0:0:0:0:
404,259,30564,6,0,B|350:267|350:267|291:255,1,102.000001945496,2|2,0:0|0:0,0:0:0:0:
256,192,31343,12,2,32512,0:0:0:0:
301,151,32901,5,12,0:0:0:0:
301,151,33681,6,0,P|220:122|252:204,1,204.000003890991,6|2,0:0|0:0,0:0:0:0:
329,246,34849,1,10,0:0:0:0:
380,158,35239,2,0,P|371:112|341:63,1,102.000001945496,0|0,0:0|0:0,0:0:0:0:
240,69,36018,2,0,B|207:132|226:187|226:187|189:169|146:185,1,204.000003890991,10|2,0:0|0:0,0:0:0:0:
183,280,37187,1,10,0:0:0:0:
183,280,38356,5,10,0:0:0:0:
270,227,38746,2,0,L|265:168,1,51.0000009727478,2|2,0:0|0:0,0:0:0:0:
298,137,39135,1,2,0:0:0:0:
230,60,39525,1,10,0:0:0:0:
152,127,39914,6,0,B|37:142|37:142|12:114,1,153.000002918243,2|2,0:0|0:0,0:0:0:0:
53,83,40694,2,0,P|72:135|56:206,1,102.000001945496,10|0,0:0|0:0,0:0:0:0:
36,221,41278,1,2,0:0:0:0:
14,267,41473,2,0,P|11:300|15:324,1,51.0000009727478,2|0,0:0|0:0,0:0:0:0:
56,345,41862,2,0,B|109:335|109:335|158:346,1,102.000001945496,10|0,0:0|0:0,0:0:0:0:
255,368,42642,2,0,P|259:340|254:313,1,51.0000009727478,2|2,0:0|0:0,0:0:0:0:
216,285,43031,6,0,B|269:296|269:296|317:285,1,102.000001945496,10|2,0:0|0:0,0:0:0:0:
359,258,43616,1,2,0:0:0:0:
396,223,43811,2,0,L|397:167,1,51.0000009727478,2|0,0:0|0:0,0:0:0:0:
429,132,44200,1,10,0:0:0:0:
350,66,44590,2,0,B|250:48|250:48|257:102,1,153.000002918243,2|2,0:0|0:0,0:0:0:0:
273,146,45369,2,0,P|220:132|171:147,1,102.000001945496,10|0,0:0|0:0,0:0:0:0:
131,171,45953,1,2,0:0:0:0:
93,205,46148,6,0,L|96:266,1,51.0000009727478,2|0,0:0|0:0,0:0:0:0:
74,302,46538,1,10,0:0:0:0:
162,352,46927,2,0,L|222:349,1,51.0000009727478,2|2,2:0|2:0,2:0:0:0:
247,311,47317,2,0,L|307:308,1,51.0000009727478,2|2,2:0|2:0,2:0:0:0:
341,280,47707,6,0,P|322:231|336:178,2,102.000001945496,8|0|2,0:0|0:0|0:0,0:0:0:0:
426,224,48875,1,10,0:0:0:0:
408,123,49265,2,0,B|372:96|372:96|316:94,1,102.000001945496,0|2,0:0|0:0,0:0:0:0:
217,125,50044,2,0,L|208:229,1,102.000001945496,10|0,0:0|0:0,0:0:0:0:
135,298,50823,1,2,0:0:0:0:
222,349,51213,2,0,B|294:346|294:346|307:318,2,102.000001945496,10|2|2,0:0|0:0|0:0,0:0:0:0:
135,298,52382,5,10,0:0:0:0:
218,239,52772,2,0,P|216:166|136:165,1,153.000002918243,2|0,0:0|0:0,0:0:0:0:
102,176,53551,2,0,B|109:60|109:60|157:69,1,153.000002918243,10|2,0:0|0:0,0:0:0:0:
195,73,54330,2,0,P|221:75|249:71,1,51.0000009727478,2|0,0:0|0:0,0:0:0:0:
285,39,54720,2,0,B|271:89|271:89|286:146,1,102.000001945496,10|2,0:0|0:0,0:0:0:0:
360,205,55499,2,0,L|414:200,2,51.0000009727478,2|2|10,0:0|0:0|0:0,0:0:0:0:
280,269,56278,2,0,L|173:264,1,102.000001945496,2|2,0:0|0:0,0:0:0:0:
80,294,57057,6,0,B|70:265|77:218|105:194|105:194|61:184,1,153.000002918243,10|2,0:0|0:0,0:0:0:0:
50,134,57836,2,0,L|-9:140,2,51.0000009727478,2|0|10,0:0|0:0|0:0,0:0:0:0:
138,83,58616,1,2,0:0:0:0:
234,116,59005,2,0,P|239:147|233:171,1,51.0000009727478,2|2,0:0|0:0,0:0:0:0:
201,204,59395,2,0,B|274:186|274:186|315:198,1,102.000001945496,10|2,0:0|0:0,0:0:0:0:
397,221,60174,6,0,L|403:330,1,102.000001945496,2|10,0:0|0:0,0:0:0:0:
486,264,60953,2,0,L|480:155,1,102.000001945496,2|2,0:0|0:0,0:0:0:0:
408,92,61733,2,0,B|352:64|304:88|304:88|256:112|212:88,1,204.000003890991,10|2,0:0|0:0,0:0:0:0:
125,41,62901,1,10,0:0:0:0:
63,122,63291,2,0,B|69:236|69:236|109:216,1,153.000002918243,2|0,0:0|0:0,0:0:0:0:
149,195,64070,2,0,P|136:246|147:298,1,102.000001945496,10|2,0:0|0:0,0:0:0:0:
222,361,64849,1,0,0:0:0:0:
145,293,65239,5,10,0:0:0:0:
229,236,65629,2,0,B|222:175|267:151|267:151|235:152|209:125,1,153.000002918243,2|0,0:0|0:0,0:0:0:0:
182,98,66408,5,10,0:0:0:0:
281,73,66798,2,0,P|310:82|332:100,2,51.0000009727478,2|2|2,0:0|0:0|0:0,0:0:0:0:
182,98,67577,1,10,0:0:0:0:
267,154,67966,5,2,0:0:0:0:
170,188,68356,1,10,0:0:0:0:
252,247,68746,2,0,L|309:244,1,51.0000009727478,10|2,0:0|0:0,0:0:0:0:
333,285,69135,2,0,L|390:282,1,51.0000009727478,2|0,0:0|0:0,0:0:0:0:
428,256,69525,5,2,0:0:0:0:
361,178,69914,1,10,0:0:0:0:
440,114,70304,1,10,0:0:0:0:
361,48,70694,1,2,0:0:0:0:
253,123,71083,6,0,B|214:128|186:100|186:100|206:176|206:176|190:217|190:217|207:288,1,264.000008056641,4|2,0:0|0:0,0:0:0:0:
313,361,72252,1,8,0:0:0:0:
388,252,72642,2,0,L|457:245,2,66.0000020141602,2|0|2,0:0|0:0|0:0,0:0:0:0:
297,155,73421,2,0,B|166:146|166:146|194:164|198:214,1,198.000006042481,6|2,0:0|0:0,0:0:0:0:
196,202,74200,1,2,0:0:0:0:
128,315,74590,2,0,P|97:285|129:202,2,132.00000402832,10|2|2,0:0|0:0|0:0,0:0:0:0:
238,243,75759,6,0,B|338:231|338:231|369:239,1,132.00000402832,4|0,0:0|0:0,0:0:0:0:
491,286,76538,2,0,P|496:251|489:215,2,66.0000020141602,2|0|10,0:0|0:0|0:0,0:0:0:0:
425,171,77317,2,0,B|439:65|439:65|397:76,1,132.00000402832,2|2,0:0|0:0,0:0:0:0:
289,112,78096,1,8,0:0:0:0:
176,180,78486,2,0,L|168:49,1,132.00000402832,2|2,0:0|0:0,0:0:0:0:
264,138,79265,2,0,L|272:269,2,132.00000402832,10|2|2,0:0|0:0|0:0,0:0:0:0:
320,18,80434,5,4,0:0:0:0:
418,105,80823,2,0,L|485:94,2,66.0000020141602,2|0|2,0:0|0:0|0:0,0:0:0:0:
344,214,81603,1,10,0:0:0:0:
225,156,81992,2,0,B|186:140|144:150|144:150|118:125|118:125|81:141|27:122,1,198.000006042481,2|2,0:0|0:0,0:0:0:0:
40,126,82772,2,0,P|63:190|29:264,2,132.00000402832,10|2|2,0:0|0:0|0:0,0:0:0:0:
152,56,83940,2,0,B|180:80|180:80|287:55,1,132.00000402832,2|2,0:0|0:0,0:0:0:0:
350,164,84720,1,2,0:0:0:0:
283,277,85109,6,0,B|241:269|225:235|225:235|205:296|115:349|47:304,1,264.000008056641,4|2,0:0|0:0,0:0:0:0:
103,190,86278,2,0,B|139:181|139:181|165:191|165:191|185:163|230:147|274:165|292:203|292:203|291:175|305:142,1,264.000008056641,10|2,0:0|0:0,0:0:0:0:
417,98,87447,2,0,B|431:258|431:258|465:229,1,198.000006042481,12|2,0:0|0:0,0:0:0:0:
459,233,88226,1,2,0:0:0:0:
358,319,88616,2,0,B|304:305|304:305|278:313|278:313|225:298,2,132.00000402832,10|2|2,0:0|0:0|0:0,0:0:0:0:
483,278,89785,6,0,B|464:178|464:178|489:133,1,132.00000402832,12|0,0:0|0:0,0:0:0:0:
360,93,90564,2,0,L|354:21,2,66.0000020141602,2|2|10,0:0|0:0|0:0,0:0:0:0:
254,172,91343,2,0,L|248:237,2,66.0000020141602,2|2|2,0:0|0:0|0:0,0:0:0:0:
139,106,92122,2,0,B|43:103|43:103|52:148,1,132.00000402832,12|2,0:0|0:0,0:0:0:0:
145,230,92901,1,2,0:0:0:0:
256,160,93291,2,0,P|272:97|243:37,2,132.00000402832,10|2|2,0:0|0:0|0:0,0:0:0:0:
157,247,94460,5,12,0:0:0:0:
270,313,94849,2,0,L|341:308,2,66.0000020141602,2|0|2,0:0|0:0|0:0,0:0:0:0:
157,247,95629,1,10,0:0:0:0:
265,172,96018,1,2,0:0:0:0:
162,89,96408,2,0,L|91:82,2,66.0000020141602,2|2|12,0:0|0:0|0:0,0:0:0:0:
265,172,97187,6,0,L|272:243,2,66.0000020141602,0|0|0,0:0|0:0|0:0,0:0:0:0:
380,106,97966,2,0,L|386:40,2,66.0000020141602,0|0|2,0:0|0:0|0:0,0:0:0:0:
465,206,98746,1,2,0:0:0:0:
365,292,99135,1,0,0:0:0:0:
271,217,99525,6,0,B|290:118|290:118|269:107,1,120,2|2,0:0|0:0,0:0:0:0:
169,169,100304,1,2,0:0:0:0:
58,121,100694,2,0,B|39:157|41:210|76:238|76:238|48:241|20:260,1,180,2|2,0:0|0:0,0:0:0:0:
18,299,101473,6,0,L|23:361,2,45.0000017166138,2|0|2,0:0|0:0|0:0,0:0:0:0:
27,255,102057,1,0,0:0:0:0:
52,217,102252,2,0,P|36:170|45:122,1,90.0000034332277,2|8,0:0|0:0,0:0:0:0:
125,161,103031,2,0,L|232:148,1,90.0000034332277,2|2,0:0|0:0,0:0:0:0:
283,92,103811,6,0,L|372:81,1,90.0000034332277,2|2,0:0|0:0,0:0:0:0:
407,109,104395,1,0,0:0:0:0:
407,109,104590,2,0,L|414:181,2,45.0000017166138,2|0|8,0:0|0:0|0:0,0:0:0:0:
337,166,105369,6,0,B|265:167|265:167|238:147,1,90.0000034332277,2|2,0:0|0:0,0:0:0:0:
170,115,106148,2,0,P|160:163|171:204,1,90.0000034332277,10|0,0:0|0:0,0:0:0:0:
197,238,106733,1,2,0:0:0:0:
197,238,106927,2,0,L|200:282,2,45.0000017166138,2|0|8,0:0|0:0|0:0,0:0:0:0:
284,259,107707,2,0,B|341:258|341:258|387:236,1,90.0000034332277,2|2,0:0|0:0,0:0:0:0:
435,180,108486,6,0,P|447:136|432:87,1,90.0000034332277,12|0,0:0|0:0,0:0:0:0:
401,65,109070,1,2,0:0:0:0:
401,65,109265,2,0,L|356:60,2,45.0000017166138,2|0|0,0:0|0:0|0:0,0:0:0:0:
362,146,110044,1,10,0:0:0:0:
359,168,110823,1,6,0:0:0:0:
256,192,111018,12,0,115499,0:0:0:0:
